<?xml version="1.0" encoding="utf-8" ?><svg version="1.1" xmlns = 'http://www.w3.org/2000/svg'><defs><font id='web' horiz-adv-x="1000">
<font-face font-family="web" descent="-436" cap-height="1516" units-per-em="2048" bbox="-197,-483,2697,1968" x-height="1077" ascent="1612" />
<missing-glyph horiz-adv-x="1024" d="" /><glyph horiz-adv-x="463" d="" unicode=" " />
<glyph horiz-adv-x="641" d="M 365 414 L 281 414 L 233 1516 L 410 1516 L 365 414 Z M 322 -10 C 290 -10 265 0 247 19 C 229 39 221 65 221 98 C 221 130 229 155 247 174 C 265 193 290 203 322 203 C 352 203 377 193 395 174 C 413 155 422 130 422 98 C 422 65 413 39 395 19 C 377 0 352 -10 322 -10 Z" unicode="!" />
<glyph horiz-adv-x="829" d="M 627 1001 L 553 1001 L 518 1403 L 518 1516 L 662 1516 L 662 1403 L 627 1001 Z M 274 1001 L 203 1001 L 168 1403 L 168 1516 L 309 1516 L 309 1403 L 274 1001 Z" unicode="&#x22;" />
<glyph horiz-adv-x="1450" d="M 567 954 L 483 561 L 877 561 L 958 954 L 567 954 Z M 367 0 L 236 0 L 328 444 L 90 444 L 90 561 L 352 561 L 434 954 L 178 954 L 178 1071 L 459 1071 L 553 1516 L 684 1516 L 590 1071 L 983 1071 L 1077 1516 L 1208 1516 L 1114 1071 L 1360 1071 L 1360 954 L 1090 954 L 1008 561 L 1272 561 L 1272 444 L 983 444 L 891 0 L 760 0 L 852 444 L 461 444 L 367 0 Z" unicode="#" />
<glyph horiz-adv-x="1325" d="M 608 870 L 608 1407 C 556 1404 510 1395 472 1381 C 434 1366 402 1347 378 1325 C 353 1303 335 1277 323 1248 C 311 1219 305 1189 305 1157 C 305 1115 313 1080 329 1050 C 345 1020 366 994 393 972 C 420 950 452 931 489 915 C 526 899 566 884 608 870 Z M 713 705 L 713 111 C 759 113 802 120 844 131 C 886 142 922 158 953 180 C 984 202 1009 229 1027 263 C 1045 296 1055 337 1055 385 C 1055 433 1045 475 1027 509 C 1009 543 984 572 953 596 C 921 620 885 640 844 657 C 802 674 759 690 713 705 Z M 606 -190 L 606 -8 C 538 -3 478 8 426 27 C 373 45 327 68 288 94 C 248 120 215 148 188 179 C 160 209 138 239 121 268 L 221 346 C 265 278 318 223 380 182 C 441 140 517 117 608 111 L 608 735 C 549 753 493 772 439 794 C 385 815 338 841 298 872 C 258 903 226 941 202 985 C 178 1029 166 1083 166 1147 C 166 1197 175 1245 195 1290 C 215 1335 243 1375 281 1409 C 318 1443 364 1470 419 1492 C 474 1513 536 1525 606 1528 L 606 1677 L 715 1677 L 715 1526 C 771 1520 821 1509 865 1493 C 909 1477 947 1458 981 1436 C 1014 1414 1043 1389 1068 1361 C 1092 1333 1114 1305 1133 1276 L 1030 1196 C 1010 1225 990 1251 970 1275 C 949 1299 926 1319 902 1337 C 878 1354 850 1368 819 1380 C 788 1391 753 1399 713 1403 L 713 840 C 773 822 832 803 890 782 C 948 760 999 733 1045 700 C 1090 667 1126 626 1154 577 C 1182 528 1196 467 1196 395 C 1196 338 1185 286 1163 238 C 1141 190 1109 148 1068 113 C 1027 78 977 50 917 29 C 857 7 789 -5 715 -10 L 715 -190 L 606 -190 Z" unicode="$" />
<glyph horiz-adv-x="1987" d="M 467 627 C 412 627 363 638 321 660 C 279 682 243 712 215 752 C 186 791 164 838 149 894 C 134 950 127 1011 127 1077 C 127 1147 135 1211 151 1268 C 167 1324 189 1372 219 1412 C 249 1452 285 1482 327 1504 C 369 1525 417 1536 469 1536 C 521 1536 568 1525 610 1504 C 652 1482 687 1452 716 1413 C 745 1374 767 1327 783 1271 C 799 1215 807 1153 807 1085 C 807 1019 799 957 784 901 C 768 845 746 796 717 756 C 688 716 652 684 610 661 C 568 638 520 627 467 627 Z M 606 0 L 475 0 L 1380 1516 L 1511 1516 L 606 0 Z M 469 737 C 502 737 532 746 558 764 C 584 782 606 806 624 837 C 642 867 655 904 664 946 C 673 988 678 1033 678 1081 C 678 1131 673 1178 664 1221 C 654 1263 641 1300 623 1330 C 605 1360 582 1383 556 1400 C 530 1416 500 1425 467 1425 C 433 1425 402 1416 376 1398 C 350 1380 328 1356 310 1326 C 292 1296 279 1260 270 1218 C 260 1176 256 1132 256 1085 C 256 1033 260 986 270 943 C 279 900 293 863 311 833 C 329 803 351 779 378 762 C 404 745 435 737 469 737 Z M 1518 -20 C 1464 -20 1415 -9 1373 13 C 1330 35 1294 65 1266 105 C 1237 144 1215 191 1200 247 C 1185 303 1178 364 1178 430 C 1178 500 1186 563 1202 620 C 1218 676 1241 724 1271 764 C 1301 804 1337 834 1380 856 C 1422 878 1470 889 1522 889 C 1574 889 1621 878 1663 857 C 1705 835 1740 805 1769 766 C 1798 727 1820 679 1836 623 C 1852 567 1860 504 1860 436 C 1860 370 1852 309 1837 253 C 1821 197 1799 149 1770 109 C 1741 69 1705 37 1663 14 C 1620 -8 1572 -20 1518 -20 Z M 1520 90 C 1554 90 1584 99 1610 117 C 1636 135 1658 159 1676 190 C 1693 220 1706 257 1715 299 C 1724 341 1729 386 1729 434 C 1729 484 1724 531 1715 574 C 1705 616 1692 653 1674 683 C 1656 713 1634 736 1608 753 C 1582 769 1552 778 1518 778 C 1484 778 1453 769 1427 751 C 1401 733 1379 709 1362 679 C 1344 649 1331 613 1322 571 C 1313 529 1309 484 1309 436 C 1309 385 1313 338 1322 296 C 1331 253 1344 216 1362 186 C 1380 156 1402 132 1429 115 C 1455 98 1486 90 1520 90 Z" unicode="%" />
<glyph horiz-adv-x="1477" d="M 563 899 C 604 920 643 942 681 966 C 718 990 751 1015 779 1043 C 807 1071 829 1101 845 1135 C 861 1169 870 1206 870 1247 C 870 1269 866 1291 860 1313 C 853 1334 842 1353 828 1369 C 813 1385 794 1398 771 1408 C 747 1418 719 1423 686 1423 C 650 1423 619 1417 593 1405 C 566 1393 544 1377 526 1357 C 508 1337 495 1313 486 1285 C 477 1257 473 1226 473 1194 C 473 1143 479 1095 493 1049 C 507 1003 530 953 563 899 Z M 592 94 C 659 94 722 104 780 126 C 838 147 890 178 934 219 C 893 259 849 306 801 360 C 753 414 701 477 645 547 C 616 582 589 616 564 649 C 539 682 516 713 496 743 C 415 697 350 643 301 583 C 251 523 227 457 227 385 C 227 295 257 224 319 172 C 380 120 471 94 592 94 Z M 590 -29 C 504 -29 430 -19 366 0 C 302 18 249 45 207 80 C 165 115 133 158 113 208 C 92 258 82 313 82 375 C 82 429 91 480 110 526 C 128 572 154 613 186 651 C 218 688 256 722 300 754 C 343 785 389 814 438 840 C 404 900 378 958 360 1014 C 342 1070 334 1128 334 1188 C 334 1234 341 1278 356 1322 C 370 1365 392 1403 422 1436 C 451 1468 488 1494 532 1514 C 576 1534 627 1544 686 1544 C 738 1544 784 1536 824 1521 C 864 1505 897 1485 924 1459 C 950 1433 970 1402 984 1366 C 997 1330 1004 1293 1004 1253 C 1004 1201 994 1153 974 1111 C 954 1068 926 1029 892 993 C 857 957 816 925 769 895 C 722 865 672 836 618 809 C 636 781 658 752 682 720 C 706 688 732 654 760 618 C 810 554 856 496 900 446 C 943 395 984 351 1022 315 C 1064 372 1099 439 1126 515 C 1152 591 1171 672 1182 760 L 1319 754 C 1305 654 1282 560 1248 472 C 1214 384 1171 306 1118 238 C 1174 192 1226 159 1274 139 C 1322 119 1371 109 1419 109 L 1434 -20 C 1357 -16 1287 -2 1223 20 C 1159 43 1094 83 1026 139 C 968 87 902 46 830 16 C 757 -14 677 -29 590 -29 Z" unicode="&#x26;" />
<glyph horiz-adv-x="477" d="M 274 1001 L 203 1001 L 168 1403 L 168 1516 L 309 1516 L 309 1403 L 274 1001 Z" unicode="'" />
<glyph horiz-adv-x="813" d="M 705 -350 L 639 -420 C 473 -280 346 -130 259 29 C 172 189 129 365 129 559 C 129 751 172 928 259 1088 C 346 1248 473 1398 639 1538 L 702 1466 C 639 1408 582 1344 530 1276 C 478 1208 434 1136 398 1060 C 362 984 334 904 314 820 C 294 736 285 649 285 559 C 285 469 295 381 315 297 C 335 212 363 132 399 56 C 435 -20 479 -92 531 -160 C 583 -228 641 -292 705 -350 Z" unicode="(" />
<glyph horiz-adv-x="813" d="M 174 -420 L 111 -350 C 174 -292 231 -228 283 -160 C 335 -92 379 -20 415 56 C 451 132 480 212 500 297 C 520 381 530 469 530 559 C 530 649 520 736 500 820 C 480 904 451 984 415 1060 C 379 1136 335 1208 283 1276 C 231 1344 174 1408 111 1466 L 174 1538 C 340 1398 466 1248 554 1088 C 642 928 686 751 686 559 C 686 365 642 189 554 29 C 466 -130 340 -280 174 -420 Z" unicode=")" />
<glyph horiz-adv-x="1040" d="M 520 1063 L 358 723 L 256 782 L 469 1092 L 94 1065 L 94 1178 L 471 1151 L 256 1460 L 358 1520 L 520 1180 L 682 1520 L 784 1460 L 571 1151 L 946 1178 L 946 1065 L 571 1092 L 784 782 L 682 723 L 520 1063 Z" unicode="*" />
<glyph horiz-adv-x="1303" d="M 715 154 L 590 154 L 590 612 L 133 612 L 133 735 L 590 735 L 590 1194 L 715 1194 L 715 735 L 1169 735 L 1169 612 L 715 612 L 715 154 Z" unicode="+" />
<glyph horiz-adv-x="549" d="M 248 -207 L 162 -207 L 215 193 L 391 193 L 248 -207 Z" unicode="," />
<glyph horiz-adv-x="731" d="M 596 582 L 135 582 L 135 705 L 596 705 L 596 582 Z" unicode="-" />
<glyph horiz-adv-x="549" d="M 274 -10 C 242 -10 218 0 200 19 C 182 39 174 65 174 98 C 174 130 182 155 200 174 C 218 193 242 203 274 203 C 304 203 329 193 347 174 C 365 155 375 130 375 98 C 375 65 365 39 347 19 C 329 0 304 -10 274 -10 Z" unicode="." />
<glyph horiz-adv-x="1124" d="M 197 0 L 47 0 L 928 1516 L 1077 1516 L 197 0 Z" unicode="/" />
<glyph horiz-adv-x="1337" d="M 670 -29 C 581 -29 502 -10 432 27 C 362 65 304 118 257 187 C 210 255 174 338 150 436 C 125 533 113 640 113 758 C 113 875 125 982 150 1080 C 174 1177 210 1260 257 1328 C 304 1396 362 1449 432 1487 C 502 1525 581 1544 670 1544 C 758 1544 837 1525 906 1487 C 975 1449 1033 1396 1080 1328 C 1126 1260 1162 1177 1186 1080 C 1210 982 1223 875 1223 758 C 1223 640 1210 533 1186 436 C 1162 338 1126 255 1080 187 C 1033 118 975 65 906 27 C 837 -10 758 -29 670 -29 Z M 670 100 C 734 100 791 114 842 143 C 892 171 935 213 970 268 C 1005 323 1032 392 1051 474 C 1069 556 1079 651 1079 758 C 1079 864 1069 959 1050 1041 C 1030 1123 1003 1191 967 1247 C 931 1302 888 1344 838 1372 C 788 1400 732 1415 670 1415 C 606 1415 548 1400 497 1372 C 445 1344 402 1302 367 1247 C 331 1191 304 1123 286 1041 C 267 959 258 864 258 758 C 258 651 267 556 287 474 C 307 392 334 323 370 268 C 406 213 449 171 500 143 C 551 114 608 100 670 100 Z" unicode="0" />
<glyph horiz-adv-x="885" d="M 590 0 L 449 0 L 449 1380 L 158 1282 L 139 1403 L 457 1516 L 590 1516 L 590 0 Z" unicode="1" />
<glyph horiz-adv-x="1202" d="M 1079 0 L 98 0 L 98 33 C 98 87 105 141 121 195 C 137 248 164 302 202 357 C 240 411 292 468 358 526 C 424 584 506 645 606 709 C 662 744 711 778 752 810 C 792 842 825 875 851 907 C 877 939 896 972 908 1007 C 920 1041 926 1079 926 1120 C 926 1163 919 1203 906 1239 C 892 1275 873 1307 847 1333 C 821 1359 788 1379 749 1393 C 709 1407 664 1415 614 1415 C 530 1415 458 1393 396 1349 C 334 1305 282 1238 238 1149 L 129 1221 C 179 1325 247 1404 331 1460 C 415 1516 511 1544 621 1544 C 689 1544 751 1533 807 1513 C 862 1492 909 1463 947 1427 C 985 1391 1015 1347 1036 1296 C 1056 1244 1067 1188 1067 1128 C 1067 1076 1060 1029 1046 985 C 1032 941 1010 899 980 859 C 950 818 910 777 860 736 C 810 695 748 652 676 606 C 540 519 437 435 367 354 C 297 272 260 198 258 131 L 1069 131 L 1079 0 Z" unicode="2" />
<glyph horiz-adv-x="1210" d="M 582 -29 C 471 -29 371 -4 281 45 C 191 94 119 163 63 252 L 164 338 C 218 254 281 194 352 156 C 422 118 499 100 582 100 C 638 100 689 107 734 122 C 779 137 817 158 848 185 C 878 212 902 245 919 283 C 935 321 944 362 944 408 C 944 462 935 511 918 553 C 900 595 872 629 834 657 C 796 685 746 706 684 720 C 622 734 546 741 457 741 L 403 741 L 395 866 L 469 866 C 629 866 742 890 810 939 C 877 987 911 1058 911 1151 C 911 1187 905 1222 893 1254 C 881 1286 862 1314 836 1338 C 810 1362 777 1380 736 1394 C 695 1408 646 1415 590 1415 C 512 1415 444 1397 385 1362 C 325 1327 273 1281 227 1225 L 131 1317 C 158 1349 188 1379 221 1407 C 254 1435 290 1459 329 1479 C 367 1499 409 1514 454 1526 C 499 1538 547 1544 598 1544 C 677 1544 745 1533 803 1512 C 861 1491 908 1463 945 1428 C 982 1393 1009 1353 1027 1307 C 1044 1261 1053 1214 1053 1165 C 1053 1068 1025 988 971 925 C 916 861 842 822 750 807 C 862 784 947 739 1003 673 C 1059 607 1087 518 1087 408 C 1087 346 1075 288 1051 235 C 1027 181 994 135 951 96 C 907 57 854 26 792 4 C 729 -17 659 -29 582 -29 Z" unicode="3" />
<glyph horiz-adv-x="1241" d="M 938 0 L 797 0 L 797 367 L 68 367 L 68 475 L 758 1516 L 938 1516 L 938 496 L 1190 496 L 1196 367 L 938 367 L 938 0 Z M 793 1346 L 231 496 L 797 496 L 797 1346 L 793 1346 Z" unicode="4" />
<glyph horiz-adv-x="1192" d="M 580 -29 C 525 -29 473 -22 424 -9 C 374 4 329 22 287 46 C 245 70 206 98 172 132 C 138 165 108 202 84 242 L 178 334 C 200 300 225 268 253 240 C 280 211 310 186 343 166 C 375 145 411 129 451 117 C 490 105 532 100 578 100 C 643 100 699 111 747 133 C 795 155 834 185 865 222 C 895 259 918 301 933 349 C 948 397 956 446 956 496 C 956 556 947 609 930 656 C 912 703 888 742 858 774 C 828 806 791 830 749 847 C 706 863 660 872 610 872 C 532 872 465 855 409 821 C 353 787 304 741 264 682 L 156 723 L 215 1516 L 1010 1516 L 1014 1382 L 336 1382 L 295 856 C 331 898 376 932 430 958 C 483 984 550 997 631 997 C 699 997 761 985 819 962 C 877 938 926 905 968 863 C 1009 820 1041 768 1065 707 C 1088 645 1100 577 1100 502 C 1100 426 1087 356 1063 291 C 1039 226 1004 170 960 123 C 915 75 860 38 796 11 C 732 -15 660 -29 580 -29 Z" unicode="5" />
<glyph horiz-adv-x="1251" d="M 651 -29 C 577 -29 508 -13 442 17 C 376 47 319 94 271 156 C 223 218 184 297 156 393 C 127 489 113 601 113 731 C 113 847 127 955 157 1055 C 186 1155 227 1241 280 1313 C 332 1385 395 1441 469 1482 C 542 1523 622 1544 709 1544 C 793 1544 864 1533 920 1511 C 976 1489 1025 1462 1065 1430 L 997 1315 C 956 1347 914 1372 872 1390 C 829 1408 774 1417 707 1417 C 637 1417 573 1399 517 1365 C 461 1330 413 1283 375 1223 C 336 1163 306 1091 285 1009 C 264 927 254 839 254 745 C 278 771 305 796 335 821 C 365 845 398 867 434 886 C 470 904 509 919 551 931 C 593 942 638 948 686 948 C 765 948 834 936 894 912 C 954 888 1003 856 1042 814 C 1081 772 1110 723 1130 665 C 1149 607 1159 543 1159 475 C 1159 403 1147 337 1123 275 C 1099 213 1066 160 1022 115 C 978 70 925 35 862 9 C 799 -16 729 -29 651 -29 Z M 657 96 C 710 96 759 104 804 121 C 848 138 886 163 918 195 C 949 227 973 267 991 314 C 1009 361 1018 414 1018 473 C 1018 523 1011 569 998 612 C 984 655 964 692 936 723 C 908 754 871 778 827 796 C 783 814 730 823 670 823 C 586 823 509 802 438 761 C 367 719 308 666 260 600 C 268 513 283 438 307 374 C 331 310 360 258 395 217 C 430 176 470 146 515 126 C 559 106 607 96 657 96 Z" unicode="6" />
<glyph horiz-adv-x="1124" d="M 391 -4 L 246 4 L 883 1382 L 109 1382 L 98 1516 L 1034 1516 L 1034 1391 L 391 -4 Z" unicode="7" />
<glyph horiz-adv-x="1243" d="M 623 -31 C 537 -31 461 -20 394 0 C 326 21 270 49 224 85 C 178 121 142 163 118 212 C 94 260 82 312 82 367 C 82 419 91 467 109 509 C 127 551 154 590 188 625 C 222 659 265 691 315 720 C 365 749 421 777 483 805 C 431 827 385 851 344 876 C 302 901 267 928 239 958 C 211 987 189 1020 174 1056 C 159 1092 152 1134 152 1180 C 152 1226 162 1271 184 1315 C 205 1359 236 1399 276 1433 C 316 1467 365 1494 424 1515 C 482 1535 549 1546 623 1546 C 698 1546 765 1535 824 1515 C 882 1494 931 1467 971 1433 C 1010 1399 1040 1359 1061 1315 C 1081 1271 1092 1226 1092 1180 C 1092 1134 1084 1094 1069 1059 C 1054 1023 1032 991 1004 962 C 976 933 941 906 899 882 C 857 857 809 833 756 809 C 820 781 877 752 928 723 C 978 694 1021 662 1055 628 C 1089 594 1116 555 1134 513 C 1152 470 1161 421 1161 367 C 1161 313 1148 262 1124 214 C 1100 166 1065 123 1019 87 C 973 51 917 22 850 1 C 783 -20 707 -31 623 -31 Z M 629 864 C 685 888 734 912 775 934 C 815 956 848 979 874 1003 C 900 1026 919 1051 931 1079 C 943 1107 950 1138 950 1174 C 950 1204 943 1233 930 1263 C 917 1293 897 1319 871 1343 C 845 1367 811 1386 770 1401 C 728 1415 679 1423 623 1423 C 569 1423 521 1416 480 1402 C 438 1388 404 1369 376 1346 C 348 1323 328 1297 314 1268 C 300 1239 293 1210 293 1180 C 293 1144 299 1112 313 1084 C 326 1056 346 1030 374 1006 C 401 982 436 958 478 936 C 520 913 571 889 629 864 Z M 623 92 C 679 92 732 98 781 112 C 829 125 871 144 906 169 C 941 193 968 223 988 258 C 1008 293 1018 332 1018 375 C 1018 417 1009 455 991 489 C 973 523 947 555 913 584 C 879 613 836 641 786 667 C 736 693 678 720 614 748 C 547 718 489 690 440 662 C 391 634 351 606 319 577 C 287 548 263 517 248 484 C 232 451 225 415 225 375 C 225 333 234 295 254 261 C 274 226 301 196 337 171 C 372 146 414 127 463 113 C 511 99 565 92 623 92 Z" unicode="8" />
<glyph horiz-adv-x="1251" d="M 582 692 C 665 692 742 712 813 754 C 883 795 943 849 991 915 C 983 1001 968 1076 944 1140 C 920 1204 891 1256 856 1297 C 820 1337 780 1367 735 1387 C 690 1407 643 1417 594 1417 C 540 1417 490 1408 446 1392 C 401 1375 363 1351 332 1319 C 300 1287 276 1247 259 1201 C 241 1154 233 1101 233 1042 C 233 992 239 945 253 903 C 266 860 287 823 315 792 C 343 760 379 736 423 718 C 467 700 520 692 582 692 Z M 549 -29 C 457 -29 380 -15 317 10 C 253 36 200 68 158 106 L 223 221 C 246 201 269 184 291 169 C 313 153 337 140 362 130 C 387 120 415 112 445 106 C 475 100 510 98 549 98 C 617 98 679 115 735 150 C 791 184 838 232 876 292 C 914 352 944 424 965 506 C 985 588 995 676 995 770 C 971 744 944 718 914 694 C 884 670 852 648 816 629 C 780 610 742 595 700 584 C 658 572 613 567 565 567 C 485 567 416 578 356 602 C 296 626 247 658 208 700 C 169 742 140 792 121 850 C 101 908 92 972 92 1040 C 92 1111 103 1177 127 1239 C 151 1301 184 1354 228 1399 C 272 1444 325 1479 388 1505 C 451 1531 522 1544 600 1544 C 673 1544 742 1528 808 1498 C 873 1468 930 1421 979 1359 C 1027 1297 1066 1218 1094 1122 C 1122 1026 1137 913 1137 784 C 1137 668 1122 560 1093 460 C 1063 360 1023 274 971 202 C 919 130 857 73 785 32 C 713 -8 634 -29 549 -29 Z" unicode="9" />
<glyph horiz-adv-x="555" d="M 276 874 C 244 874 220 883 202 903 C 184 922 176 948 176 981 C 176 1013 184 1039 202 1058 C 220 1077 244 1087 276 1087 C 306 1087 331 1077 349 1058 C 367 1039 377 1013 377 981 C 377 948 367 922 349 903 C 331 883 306 874 276 874 Z M 276 -10 C 244 -10 220 0 202 19 C 184 39 176 65 176 98 C 176 130 184 155 202 174 C 220 193 244 203 276 203 C 306 203 331 193 349 174 C 367 155 377 130 377 98 C 377 65 367 39 349 19 C 331 0 306 -10 276 -10 Z" unicode=":" />
<glyph horiz-adv-x="555" d="M 276 874 C 244 874 220 883 202 903 C 184 922 176 948 176 981 C 176 1013 184 1039 202 1058 C 220 1077 244 1087 276 1087 C 306 1087 331 1077 349 1058 C 367 1039 377 1013 377 981 C 377 948 367 922 349 903 C 331 883 306 874 276 874 Z M 252 -207 L 166 -207 L 219 193 L 393 193 L 252 -207 Z" unicode=";" />
<glyph horiz-adv-x="1303" d="M 1188 281 L 1188 147 L 104 612 L 104 715 L 1188 1180 L 1188 1047 L 268 664 L 1188 281 Z" unicode="&#x3C;" />
<glyph horiz-adv-x="1303" d="M 1167 838 L 133 838 L 133 958 L 1167 958 L 1167 838 Z M 1167 371 L 133 371 L 133 492 L 1167 492 L 1167 371 Z" unicode="=" />
<glyph horiz-adv-x="1303" d="M 1200 612 L 117 147 L 117 281 L 1036 664 L 117 1047 L 117 1180 L 1200 715 L 1200 612 Z" unicode="&#x3E;" />
<glyph horiz-adv-x="1104" d="M 553 412 L 436 412 C 435 432 434 454 433 477 C 432 500 432 523 432 547 C 432 618 445 678 473 726 C 501 774 548 818 616 858 C 656 882 692 905 722 927 C 752 948 776 970 796 993 C 816 1016 830 1041 840 1069 C 849 1097 854 1129 854 1167 C 854 1242 826 1302 772 1347 C 718 1392 643 1415 549 1415 C 505 1415 464 1409 426 1399 C 388 1389 353 1374 321 1356 C 289 1338 259 1316 232 1292 C 205 1267 181 1240 160 1212 L 66 1307 C 92 1340 122 1371 156 1401 C 189 1430 226 1455 266 1476 C 306 1497 350 1514 399 1526 C 447 1538 500 1544 557 1544 C 622 1544 682 1535 736 1517 C 790 1499 837 1473 875 1441 C 913 1409 943 1370 965 1325 C 986 1279 997 1230 997 1176 C 997 1126 990 1082 976 1044 C 962 1006 944 972 920 943 C 896 913 869 887 837 864 C 805 840 771 818 735 797 C 692 771 658 747 634 725 C 609 703 591 678 579 651 C 567 623 560 591 557 553 C 554 515 553 468 553 412 Z M 494 -10 C 463 -10 438 0 420 19 C 402 39 393 65 393 98 C 393 130 402 155 420 174 C 438 193 463 203 494 203 C 524 203 549 193 568 174 C 586 155 596 130 596 98 C 596 65 586 39 568 19 C 549 0 524 -10 494 -10 Z" unicode="?" />
<glyph horiz-adv-x="1778" d="M 885 -29 C 771 -29 665 -10 569 28 C 472 66 389 119 320 188 C 251 256 197 339 158 436 C 119 533 100 640 100 758 C 100 874 120 981 160 1078 C 200 1175 255 1258 325 1327 C 395 1395 478 1449 575 1487 C 671 1525 776 1544 889 1544 C 1001 1544 1106 1525 1203 1487 C 1299 1449 1382 1397 1452 1330 C 1522 1262 1577 1181 1617 1087 C 1657 993 1677 890 1677 778 C 1677 706 1668 641 1651 584 C 1633 527 1609 479 1579 440 C 1549 400 1513 370 1471 350 C 1429 329 1383 319 1335 319 C 1301 319 1271 323 1245 332 C 1218 340 1195 352 1175 367 C 1155 381 1138 398 1124 418 C 1110 437 1100 457 1094 479 C 1044 435 992 398 936 368 C 880 338 819 324 754 324 C 709 324 668 330 630 344 C 592 357 559 377 532 404 C 504 431 483 465 467 507 C 451 549 444 597 444 653 C 444 730 454 802 476 870 C 497 938 526 996 564 1046 C 602 1096 647 1135 700 1164 C 753 1193 811 1208 874 1208 C 934 1208 985 1197 1028 1176 C 1070 1155 1108 1128 1141 1096 L 1155 1190 L 1272 1190 L 1184 588 C 1175 536 1185 492 1214 458 C 1242 423 1286 406 1346 406 C 1379 406 1411 413 1441 428 C 1471 442 1497 465 1519 495 C 1541 525 1558 564 1571 611 C 1584 657 1591 712 1591 776 C 1591 876 1573 969 1538 1054 C 1502 1138 1454 1211 1392 1271 C 1330 1331 1255 1377 1169 1411 C 1083 1445 989 1462 889 1462 C 788 1462 695 1444 609 1410 C 523 1376 449 1328 387 1266 C 325 1204 277 1129 242 1043 C 207 956 190 861 190 758 C 190 654 207 559 242 472 C 276 385 324 310 386 248 C 447 186 521 137 607 103 C 693 68 786 51 887 51 C 968 51 1042 60 1109 79 C 1176 98 1241 125 1305 160 L 1341 90 C 1277 54 1206 25 1128 3 C 1050 -18 969 -29 885 -29 Z M 770 424 C 823 424 873 434 919 454 C 965 474 1013 509 1063 557 L 1124 985 C 1090 1027 1052 1057 1011 1076 C 969 1094 922 1104 868 1104 C 823 1104 782 1092 745 1068 C 707 1044 676 1013 650 973 C 624 933 603 886 589 832 C 574 778 567 722 567 664 C 567 580 585 519 622 481 C 658 443 708 424 770 424 Z" unicode="@" />
<glyph horiz-adv-x="1376" d="M 215 0 L 74 0 L 610 1522 L 766 1522 L 1300 12 L 1157 -12 L 991 467 L 377 467 L 215 0 Z M 682 1350 L 422 596 L 946 596 L 686 1350 L 682 1350 Z" unicode="A" />
<glyph horiz-adv-x="1403" d="M 766 0 L 195 0 L 195 1516 L 721 1516 C 891 1516 1019 1482 1105 1414 C 1191 1346 1235 1253 1235 1135 C 1235 1084 1227 1039 1211 999 C 1195 959 1175 925 1149 896 C 1123 867 1092 843 1057 825 C 1022 806 986 792 948 784 L 948 780 C 994 772 1037 758 1078 739 C 1119 720 1155 696 1185 666 C 1215 636 1239 599 1257 557 C 1275 515 1284 466 1284 412 C 1284 352 1273 296 1252 246 C 1230 195 1198 152 1156 116 C 1113 80 1059 51 994 31 C 929 10 853 0 766 0 Z M 338 1384 L 338 842 L 709 842 C 829 842 922 864 990 909 C 1058 954 1092 1023 1092 1116 C 1092 1207 1061 1274 1000 1318 C 939 1362 843 1384 713 1384 L 338 1384 Z M 338 715 L 338 129 L 764 129 C 893 129 988 154 1049 205 C 1110 256 1141 327 1141 418 C 1141 468 1131 512 1111 550 C 1091 587 1063 618 1027 642 C 991 666 946 685 894 697 C 842 709 783 715 719 715 L 338 715 Z" unicode="B" />
<glyph horiz-adv-x="1427" d="M 752 -29 C 657 -29 571 -10 493 28 C 415 66 348 119 293 188 C 238 256 196 340 166 438 C 136 536 121 644 121 764 C 121 878 136 982 166 1078 C 196 1174 239 1256 294 1325 C 348 1393 414 1447 492 1486 C 569 1524 654 1544 748 1544 C 876 1544 984 1514 1070 1455 C 1156 1396 1222 1314 1268 1210 L 1143 1145 C 1107 1229 1057 1295 994 1341 C 930 1387 848 1411 748 1411 C 674 1411 608 1395 548 1364 C 488 1333 438 1290 396 1234 C 354 1178 322 1110 300 1031 C 277 951 266 864 266 768 C 266 664 277 570 300 488 C 323 405 356 335 398 278 C 440 221 492 177 552 147 C 612 117 680 102 754 102 C 855 102 941 128 1012 181 C 1083 233 1138 308 1176 406 L 1300 348 C 1255 231 1186 139 1094 72 C 1001 4 887 -29 752 -29 Z" unicode="C" />
<glyph horiz-adv-x="1452" d="M 578 0 L 195 0 L 195 1516 L 578 1516 C 822 1516 1008 1452 1137 1324 C 1266 1196 1331 1008 1331 760 C 1331 635 1314 525 1281 430 C 1248 335 1200 256 1136 192 C 1072 128 994 80 900 48 C 806 16 698 0 578 0 Z M 340 1380 L 340 133 L 600 133 C 787 133 931 183 1033 284 C 1135 385 1186 543 1186 758 C 1186 864 1173 956 1147 1034 C 1121 1112 1083 1177 1033 1228 C 983 1279 921 1317 847 1342 C 773 1367 690 1380 596 1380 L 340 1380 Z" unicode="D" />
<glyph horiz-adv-x="1237" d="M 1143 0 L 195 0 L 195 1516 L 1100 1516 L 1100 1380 L 340 1380 L 340 866 L 907 866 L 930 735 L 340 735 L 340 133 L 1143 133 L 1143 0 Z" unicode="E" />
<glyph horiz-adv-x="1159" d="M 340 0 L 195 0 L 195 1516 L 1081 1516 L 1081 1380 L 340 1380 L 340 858 L 887 858 L 907 727 L 340 727 L 340 0 Z" unicode="F" />
<glyph horiz-adv-x="1481" d="M 743 -29 C 645 -29 557 -8 479 31 C 401 71 336 127 284 197 C 231 267 191 351 163 449 C 135 546 121 651 121 764 C 121 882 136 989 168 1086 C 200 1182 244 1264 300 1332 C 356 1399 422 1451 500 1488 C 578 1525 662 1544 754 1544 C 876 1544 981 1513 1070 1452 C 1159 1391 1227 1304 1274 1190 L 1145 1128 C 1109 1221 1059 1291 997 1339 C 934 1387 853 1411 754 1411 C 688 1411 625 1397 566 1370 C 506 1342 454 1302 410 1249 C 366 1195 331 1128 305 1048 C 279 967 266 874 266 770 C 266 665 278 571 302 488 C 326 405 359 335 402 278 C 444 221 496 177 556 147 C 616 117 683 102 756 102 C 819 102 877 113 929 135 C 981 157 1025 189 1062 231 C 1098 273 1127 324 1147 384 C 1167 444 1176 512 1176 588 L 819 588 L 797 713 L 1317 713 L 1317 0 L 1186 0 L 1186 219 L 1182 219 C 1164 185 1142 153 1116 123 C 1090 93 1059 66 1023 44 C 987 22 946 4 900 -9 C 853 -22 801 -29 743 -29 Z" unicode="G" />
<glyph horiz-adv-x="1499" d="M 340 0 L 195 0 L 195 1516 L 340 1516 L 340 866 L 1161 866 L 1161 1516 L 1307 1516 L 1307 0 L 1161 0 L 1161 733 L 340 733 L 340 0 Z" unicode="H" />
<glyph horiz-adv-x="575" d="M 360 0 L 215 0 L 215 1516 L 360 1516 L 360 0 Z" unicode="I" />
<glyph horiz-adv-x="1020" d="M 449 -29 C 363 -29 290 -14 232 15 C 174 45 126 83 90 129 L 170 236 C 200 194 238 160 283 136 C 327 112 380 100 442 100 C 516 100 577 123 624 170 C 670 217 694 297 694 410 L 694 1516 L 840 1516 L 840 408 C 840 266 805 157 736 83 C 667 8 571 -29 449 -29 Z" unicode="J" />
<glyph horiz-adv-x="1368" d="M 340 0 L 195 0 L 195 1516 L 340 1516 L 340 698 L 1065 1516 L 1243 1516 L 723 942 L 1323 12 L 1171 -12 L 625 829 L 340 518 L 340 0 Z" unicode="K" />
<glyph horiz-adv-x="1157" d="M 1092 0 L 195 0 L 195 1516 L 340 1516 L 340 133 L 1069 133 L 1092 0 Z" unicode="L" />
<glyph horiz-adv-x="1784" d="M 330 0 L 195 0 L 195 1516 L 383 1516 L 891 188 L 895 188 L 1401 1516 L 1591 1516 L 1591 0 L 1446 0 L 1446 1272 L 1442 1272 C 1431 1237 1417 1196 1400 1149 C 1383 1101 1366 1054 1348 1006 L 954 0 L 821 0 L 428 1006 C 418 1030 410 1052 402 1073 C 394 1093 387 1114 379 1135 C 371 1155 364 1177 357 1199 C 349 1221 342 1246 334 1274 L 330 1274 L 330 0 Z" unicode="M" />
<glyph horiz-adv-x="1522" d="M 332 0 L 195 0 L 195 1516 L 350 1516 L 1186 266 L 1190 266 L 1190 1516 L 1327 1516 L 1327 0 L 1198 0 L 336 1288 L 332 1288 L 332 0 Z" unicode="N" />
<glyph horiz-adv-x="1520" d="M 760 -29 C 668 -29 583 -10 505 27 C 427 65 359 118 303 186 C 246 254 201 337 169 435 C 137 532 121 640 121 758 C 121 876 137 983 169 1081 C 201 1178 246 1261 303 1329 C 359 1397 427 1449 505 1487 C 583 1525 668 1544 760 1544 C 850 1544 935 1525 1013 1487 C 1091 1449 1159 1397 1216 1329 C 1272 1261 1317 1178 1350 1081 C 1382 983 1399 876 1399 758 C 1399 640 1382 532 1350 435 C 1317 337 1272 254 1216 186 C 1159 118 1091 65 1013 27 C 935 -10 850 -29 760 -29 Z M 760 102 C 831 102 897 117 958 147 C 1018 177 1070 220 1114 276 C 1157 332 1191 400 1216 482 C 1240 564 1253 656 1253 758 C 1253 860 1240 951 1216 1032 C 1191 1113 1157 1182 1114 1238 C 1070 1294 1018 1336 958 1366 C 897 1396 831 1411 760 1411 C 688 1411 622 1396 562 1366 C 501 1336 449 1294 405 1238 C 361 1182 327 1113 303 1032 C 278 951 266 860 266 758 C 266 656 278 564 303 482 C 327 400 361 332 405 276 C 449 220 501 177 562 147 C 622 117 688 102 760 102 Z" unicode="O" />
<glyph horiz-adv-x="1317" d="M 340 0 L 195 0 L 195 1516 L 698 1516 C 779 1516 853 1507 919 1490 C 985 1473 1040 1448 1086 1414 C 1132 1380 1167 1336 1192 1284 C 1216 1232 1229 1171 1229 1102 C 1229 1025 1215 959 1188 905 C 1161 850 1124 805 1076 771 C 1028 737 971 712 904 696 C 836 680 763 672 684 672 L 340 672 L 340 0 Z M 340 1382 L 340 801 L 694 801 C 818 801 914 823 982 868 C 1049 913 1083 990 1083 1098 C 1083 1200 1049 1272 982 1316 C 915 1360 818 1382 692 1382 L 340 1382 Z" unicode="P" />
<glyph horiz-adv-x="1520" d="M 1255 -381 L 1130 -381 C 1055 -381 989 -372 933 -354 C 877 -336 830 -311 793 -279 C 755 -247 727 -210 709 -166 C 690 -122 680 -74 680 -23 C 598 -13 522 11 453 53 C 384 94 325 148 276 216 C 227 284 189 364 162 456 C 134 548 121 648 121 758 C 121 876 137 983 169 1081 C 201 1178 246 1261 303 1329 C 359 1397 427 1449 505 1487 C 583 1525 668 1544 760 1544 C 850 1544 935 1525 1013 1487 C 1091 1449 1158 1397 1215 1329 C 1271 1261 1316 1178 1348 1081 C 1380 983 1397 876 1397 758 C 1397 647 1382 545 1354 452 C 1326 359 1286 279 1236 212 C 1186 144 1125 90 1055 49 C 985 7 908 -17 825 -25 C 829 -69 840 -105 859 -135 C 877 -165 901 -188 931 -205 C 960 -222 994 -234 1034 -241 C 1073 -248 1115 -252 1161 -252 L 1278 -252 L 1255 -381 Z M 760 102 C 830 102 896 117 956 147 C 1016 177 1068 220 1112 276 C 1155 332 1189 400 1214 482 C 1238 564 1251 656 1251 758 C 1251 860 1238 951 1214 1032 C 1189 1113 1155 1182 1112 1238 C 1068 1294 1016 1336 956 1366 C 896 1396 830 1411 760 1411 C 688 1411 622 1396 562 1366 C 501 1336 449 1294 405 1238 C 361 1182 327 1113 303 1032 C 278 951 266 860 266 758 C 266 656 278 564 303 482 C 327 400 361 332 405 276 C 449 220 501 177 562 147 C 622 117 688 102 760 102 Z" unicode="Q" />
<glyph horiz-adv-x="1374" d="M 338 0 L 195 0 L 195 1516 L 702 1516 C 869 1516 998 1480 1090 1409 C 1181 1338 1227 1236 1227 1102 C 1227 1041 1218 988 1201 942 C 1184 896 1160 856 1129 824 C 1097 791 1059 764 1015 743 C 970 722 920 706 866 696 L 1253 12 L 1104 -12 L 715 680 L 338 680 L 338 0 Z M 338 1382 L 338 809 L 692 809 C 816 809 913 830 981 873 C 1049 916 1083 992 1083 1100 C 1083 1202 1049 1275 981 1318 C 913 1360 816 1382 690 1382 L 338 1382 Z" unicode="R" />
<glyph horiz-adv-x="1329" d="M 678 -29 C 552 -29 439 -7 338 35 C 237 78 149 137 74 213 L 158 322 C 221 258 297 205 386 164 C 475 122 572 102 676 102 C 734 102 786 108 834 121 C 881 133 921 151 955 175 C 988 199 1014 227 1032 261 C 1050 295 1059 333 1059 375 C 1059 414 1053 449 1041 480 C 1029 511 1009 540 979 566 C 949 592 909 617 857 641 C 805 665 739 689 659 715 C 578 740 507 765 445 791 C 383 817 332 846 291 879 C 250 912 219 951 199 995 C 178 1039 168 1093 168 1155 C 168 1209 179 1259 203 1307 C 226 1355 258 1396 300 1431 C 341 1465 391 1493 449 1513 C 507 1533 570 1544 639 1544 C 753 1544 854 1523 942 1483 C 1030 1442 1108 1391 1178 1329 L 1104 1214 C 1036 1275 964 1323 889 1359 C 813 1395 730 1413 639 1413 C 588 1413 542 1406 501 1393 C 460 1379 426 1361 398 1339 C 370 1317 348 1290 333 1260 C 318 1230 311 1198 311 1165 C 311 1123 318 1086 332 1056 C 346 1025 369 998 402 974 C 434 950 478 927 532 905 C 586 883 652 860 731 836 C 809 810 878 784 938 757 C 997 730 1046 699 1085 665 C 1123 630 1152 590 1172 544 C 1192 498 1202 445 1202 383 C 1202 321 1188 264 1162 213 C 1136 162 1099 119 1053 83 C 1007 47 951 20 887 0 C 823 -19 753 -29 678 -29 Z" unicode="S" />
<glyph horiz-adv-x="1264" d="M 705 0 L 559 0 L 559 1380 L 70 1380 L 70 1516 L 1182 1516 L 1204 1380 L 705 1380 L 705 0 Z" unicode="T" />
<glyph horiz-adv-x="1464" d="M 731 -29 C 639 -29 558 -14 489 13 C 420 41 363 80 317 129 C 271 177 237 235 214 301 C 191 367 180 437 180 512 L 180 1516 L 326 1516 L 326 532 C 326 471 334 414 350 362 C 366 310 390 265 423 227 C 456 189 498 159 550 137 C 602 115 663 104 733 104 C 803 104 863 114 915 136 C 966 157 1008 186 1041 224 C 1074 261 1099 306 1115 358 C 1131 410 1139 467 1139 528 L 1139 1516 L 1284 1516 L 1284 516 C 1284 441 1272 370 1249 304 C 1226 237 1192 179 1146 130 C 1100 81 1043 42 973 14 C 903 -14 823 -29 731 -29 Z" unicode="U" />
<glyph horiz-adv-x="1350" d="M 743 -6 L 606 -6 L 78 1503 L 219 1528 L 676 193 L 680 193 L 1135 1516 L 1276 1516 L 743 -6 Z" unicode="V" />
<glyph horiz-adv-x="1894" d="M 623 0 L 485 0 L 84 1503 L 225 1528 L 465 596 C 483 526 501 458 517 392 C 533 326 546 267 557 215 L 561 215 C 571 265 584 324 600 391 C 615 458 631 526 649 594 L 874 1516 L 1028 1516 L 1257 586 C 1273 518 1289 453 1305 391 C 1320 329 1333 271 1343 215 L 1348 215 C 1360 275 1374 333 1389 391 C 1403 449 1419 511 1436 578 L 1673 1516 L 1812 1516 L 1411 0 L 1274 0 L 952 1315 L 948 1315 L 623 0 Z" unicode="W" />
<glyph horiz-adv-x="1346" d="M 215 0 L 66 0 L 594 813 L 141 1503 L 291 1528 L 678 928 L 1055 1516 L 1210 1516 L 754 813 L 1274 12 L 1130 -12 L 672 698 L 215 0 Z" unicode="X" />
<glyph horiz-adv-x="1266" d="M 705 0 L 559 0 L 559 668 L 59 1503 L 201 1528 L 635 793 L 1061 1516 L 1212 1516 L 705 668 L 705 0 Z" unicode="Y" />
<glyph horiz-adv-x="1276" d="M 1184 0 L 86 0 L 86 104 L 995 1393 L 158 1393 L 133 1516 L 1171 1516 L 1171 1409 L 266 123 L 1159 123 L 1184 0 Z" unicode="Z" />
<glyph horiz-adv-x="797" d="M 700 -410 L 180 -410 L 180 1516 L 700 1516 L 700 1407 L 324 1407 L 324 -301 L 700 -301 L 700 -410 Z" unicode="[" />
<glyph horiz-adv-x="1112" d="M 1071 0 L 922 0 L 41 1516 L 190 1516 L 1071 0 Z" unicode="\" />
<glyph horiz-adv-x="797" d="M 616 -410 L 96 -410 L 96 -301 L 473 -301 L 473 1405 L 96 1405 L 96 1516 L 616 1516 L 616 -410 Z" unicode="]" />
<glyph horiz-adv-x="1303" d="M 137 692 L 600 1516 L 705 1516 L 1167 692 L 1036 692 L 651 1370 L 268 692 L 137 692 Z" unicode="^" />
<glyph horiz-adv-x="1024" d="M 1024 -258 L 0 -258 L 0 -143 L 1024 -143 L 1024 -258 Z" unicode="_" />
<glyph horiz-adv-x="1024" d="M 586 1194 L 297 1513 L 483 1513 L 678 1194 L 586 1194 Z" unicode="`" />
<glyph horiz-adv-x="1120" d="M 434 98 C 509 98 580 113 647 143 C 713 173 774 215 829 268 L 829 604 C 711 583 613 560 536 536 C 459 512 399 486 355 458 C 311 430 280 401 263 369 C 246 337 238 304 238 270 C 238 214 255 171 290 142 C 324 112 372 98 434 98 Z M 403 -18 C 307 -18 233 6 179 55 C 125 104 98 170 98 254 C 98 306 110 356 135 402 C 160 448 201 489 258 527 C 314 565 390 599 484 629 C 578 659 693 684 829 705 L 829 760 C 829 833 809 888 771 925 C 733 962 678 981 608 981 C 524 981 451 965 389 934 C 326 902 266 861 209 811 L 129 899 C 193 958 263 1006 340 1044 C 416 1081 509 1100 618 1100 C 737 1100 825 1069 883 1008 C 940 946 969 862 969 756 L 969 0 L 844 0 L 829 154 C 767 98 700 56 630 26 C 559 -3 483 -18 403 -18 Z" unicode="a" />
<glyph horiz-adv-x="1214" d="M 662 -18 C 588 -18 522 -2 464 28 C 406 58 353 98 305 147 L 301 0 L 164 0 L 164 1505 L 305 1526 L 305 922 C 326 946 349 969 375 991 C 400 1013 427 1032 457 1048 C 486 1064 518 1076 553 1086 C 588 1095 626 1100 666 1100 C 727 1100 785 1088 839 1065 C 893 1042 940 1008 980 962 C 1020 916 1051 857 1075 787 C 1098 717 1110 635 1110 541 C 1110 447 1098 364 1075 294 C 1051 224 1019 166 979 120 C 939 74 891 39 837 16 C 782 -6 724 -18 662 -18 Z M 645 100 C 689 100 731 108 771 125 C 811 142 845 168 874 204 C 903 240 926 285 943 341 C 960 397 969 463 969 539 C 969 613 960 677 943 733 C 925 788 902 834 872 870 C 842 906 808 934 768 952 C 728 970 685 979 641 979 C 575 979 516 963 464 931 C 412 899 359 857 305 803 L 305 274 C 360 218 414 175 468 145 C 522 115 581 100 645 100 Z" unicode="b" />
<glyph horiz-adv-x="1087" d="M 569 -23 C 507 -23 448 -10 392 14 C 335 39 285 75 243 123 C 200 171 166 230 140 300 C 114 370 102 449 102 539 C 102 635 115 718 143 789 C 171 860 207 918 252 964 C 297 1010 349 1044 407 1066 C 465 1088 524 1100 584 1100 C 632 1100 677 1093 718 1081 C 758 1068 795 1050 828 1028 C 860 1005 889 978 915 947 C 940 915 962 881 981 844 L 870 776 C 839 841 801 891 757 927 C 712 963 653 981 580 981 C 540 981 500 973 460 957 C 420 941 384 915 352 880 C 320 845 294 799 274 743 C 254 687 244 619 244 539 C 244 470 252 408 269 353 C 286 297 309 251 339 213 C 369 175 404 146 445 126 C 486 106 530 96 578 96 C 650 96 709 113 755 149 C 801 185 843 237 879 307 L 983 240 C 938 154 882 89 814 44 C 746 0 665 -23 569 -23 Z" unicode="c" />
<glyph horiz-adv-x="1214" d="M 573 102 C 639 102 698 117 750 149 C 802 180 855 223 909 279 L 909 805 C 854 861 800 904 746 935 C 692 965 633 981 569 981 C 525 981 483 972 443 954 C 403 936 369 910 340 874 C 311 838 288 792 271 736 C 254 680 246 615 246 539 C 246 465 254 400 272 345 C 289 290 312 245 342 209 C 371 173 406 146 446 128 C 486 110 528 102 573 102 Z M 549 -18 C 487 -18 428 -6 374 16 C 320 38 273 72 233 118 C 193 164 162 221 139 291 C 115 361 104 443 104 537 C 104 630 115 712 139 783 C 162 854 194 913 234 959 C 274 1005 322 1040 377 1064 C 432 1088 491 1100 553 1100 C 626 1100 693 1083 755 1051 C 817 1018 868 978 909 930 L 909 1505 L 1051 1526 L 1051 0 L 924 0 L 909 156 C 887 132 864 110 839 89 C 814 67 787 49 757 33 C 727 17 695 5 661 -4 C 626 -13 589 -18 549 -18 Z" unicode="d" />
<glyph horiz-adv-x="1118" d="M 596 -23 C 528 -23 464 -10 404 13 C 344 37 291 73 247 120 C 202 167 167 226 141 297 C 115 367 102 449 102 541 C 102 635 116 718 144 789 C 172 859 208 917 253 963 C 297 1009 348 1043 405 1066 C 461 1088 518 1100 575 1100 C 637 1100 695 1088 749 1064 C 803 1040 849 1004 889 957 C 928 910 959 851 982 781 C 1004 711 1016 630 1016 539 L 1016 512 L 244 512 C 244 446 254 387 272 335 C 290 283 314 240 346 205 C 377 169 414 142 458 124 C 501 105 548 96 598 96 C 669 96 732 109 787 137 C 841 164 894 204 944 256 L 1014 164 C 954 102 892 55 827 24 C 762 -7 685 -23 596 -23 Z M 246 623 L 879 623 C 875 673 865 721 851 765 C 837 809 817 846 792 878 C 767 910 736 935 700 953 C 663 971 621 981 573 981 C 534 981 496 973 460 959 C 423 944 390 922 360 892 C 330 862 305 825 285 780 C 265 735 252 683 246 623 Z" unicode="e" />
<glyph horiz-adv-x="676" d="M 383 0 L 242 0 L 242 958 L 55 958 L 55 1077 L 242 1077 L 242 1241 C 242 1331 268 1400 320 1447 C 372 1494 450 1518 553 1518 C 563 1518 576 1517 591 1516 C 606 1515 618 1514 627 1513 L 641 1397 C 631 1399 618 1400 603 1400 C 587 1400 573 1401 561 1401 C 510 1401 468 1389 434 1366 C 400 1343 383 1303 383 1245 L 383 1077 L 621 1077 L 621 958 L 383 958 L 383 0 Z" unicode="f" />
<glyph horiz-adv-x="1159" d="M 543 436 C 630 436 700 460 752 510 C 804 560 831 626 831 709 C 831 794 805 862 754 912 C 703 962 632 987 541 987 C 451 987 381 961 329 910 C 277 859 252 792 252 709 C 252 667 259 630 273 596 C 287 562 306 534 331 510 C 356 486 387 468 423 455 C 459 442 499 436 543 436 Z M 557 -414 C 383 -414 254 -389 170 -340 C 86 -291 45 -225 45 -143 C 45 -88 62 -40 98 2 C 133 44 182 77 244 102 C 211 115 187 133 171 156 C 155 179 147 207 147 240 C 147 272 159 302 184 329 C 208 356 240 380 279 401 C 227 433 187 477 158 531 C 129 585 115 645 115 711 C 115 767 125 820 147 868 C 169 916 198 957 236 991 C 274 1025 319 1052 371 1071 C 423 1090 480 1100 541 1100 C 603 1100 660 1090 712 1070 C 764 1050 810 1023 848 989 C 878 1011 915 1032 959 1051 C 1003 1070 1045 1082 1085 1087 L 1106 954 C 1073 954 1039 951 1003 945 C 967 939 933 930 901 918 C 921 890 937 859 948 825 C 959 791 965 753 965 711 C 965 652 954 599 932 551 C 910 503 880 463 842 431 C 804 398 760 373 708 355 C 656 337 600 328 541 328 C 509 328 478 330 450 335 C 421 340 393 348 367 358 C 341 348 320 335 304 320 C 288 304 281 286 281 266 C 281 243 292 225 315 213 C 338 200 380 190 440 184 L 676 166 C 800 155 895 127 960 83 C 1024 38 1057 -25 1057 -109 C 1057 -157 1044 -201 1020 -239 C 995 -277 961 -309 917 -335 C 873 -361 821 -380 759 -394 C 697 -407 630 -414 557 -414 Z M 571 -303 C 681 -303 768 -286 831 -252 C 894 -218 926 -175 926 -121 C 926 -69 903 -30 858 -3 C 812 23 737 41 631 49 L 416 66 C 406 66 397 67 388 69 C 378 70 369 71 360 72 C 300 52 255 25 225 -10 C 195 -46 180 -84 180 -125 C 180 -181 211 -224 274 -256 C 336 -287 435 -303 571 -303 Z" unicode="g" />
<glyph horiz-adv-x="1190" d="M 305 0 L 164 0 L 164 1505 L 305 1526 L 305 907 C 331 933 360 958 391 982 C 421 1006 453 1026 487 1044 C 521 1061 557 1075 595 1085 C 633 1095 672 1100 713 1100 C 821 1100 902 1072 956 1016 C 1010 960 1038 882 1038 782 L 1038 0 L 897 0 L 897 754 C 897 829 879 885 845 923 C 810 960 755 979 680 979 C 612 979 547 962 486 928 C 425 894 365 849 305 791 L 305 0 Z" unicode="h" />
<glyph horiz-adv-x="492" d="M 246 1315 C 219 1315 198 1323 183 1339 C 167 1355 160 1377 160 1405 C 160 1431 167 1452 183 1468 C 198 1483 219 1491 246 1491 C 272 1491 293 1483 309 1468 C 324 1452 332 1431 332 1405 C 332 1377 324 1355 309 1339 C 293 1323 272 1315 246 1315 Z M 317 0 L 176 0 L 176 1077 L 317 1077 L 317 0 Z" unicode="i" />
<glyph horiz-adv-x="492" d="M 246 1315 C 219 1315 198 1323 183 1339 C 167 1355 160 1377 160 1405 C 160 1431 167 1452 183 1468 C 198 1483 219 1491 246 1491 C 272 1491 293 1483 309 1468 C 324 1452 332 1431 332 1405 C 332 1377 324 1355 309 1339 C 293 1323 272 1315 246 1315 Z M 90 -412 C 78 -412 63 -411 46 -409 C 29 -407 17 -406 10 -406 L -2 -291 C 6 -293 17 -294 30 -295 C 43 -296 56 -297 70 -297 C 102 -297 128 -287 147 -269 C 166 -250 176 -220 176 -178 L 176 1077 L 317 1077 L 317 -170 C 317 -245 299 -304 265 -347 C 231 -390 172 -412 90 -412 Z" unicode="j" />
<glyph horiz-adv-x="1085" d="M 305 0 L 164 0 L 164 1505 L 305 1526 L 305 510 L 819 1077 L 985 1077 L 633 698 L 1024 12 L 885 -12 L 539 592 L 305 340 L 305 0 Z" unicode="k" />
<glyph horiz-adv-x="492" d="M 317 0 L 176 0 L 176 1505 L 317 1526 L 317 0 Z" unicode="l" />
<glyph horiz-adv-x="1870" d="M 305 0 L 164 0 L 164 1077 L 291 1077 L 305 907 C 331 933 359 958 389 982 C 419 1006 450 1026 482 1044 C 514 1061 549 1075 585 1085 C 621 1095 660 1100 700 1100 C 791 1100 860 1081 907 1045 C 953 1009 984 962 999 905 C 1026 931 1055 956 1086 980 C 1117 1004 1149 1024 1183 1042 C 1217 1060 1252 1074 1289 1084 C 1326 1094 1365 1100 1405 1100 C 1459 1100 1506 1092 1546 1077 C 1586 1062 1618 1041 1643 1013 C 1668 985 1686 952 1698 912 C 1710 872 1716 828 1716 780 L 1716 0 L 1575 0 L 1575 754 C 1575 829 1560 885 1530 923 C 1500 960 1447 979 1372 979 C 1306 979 1245 962 1188 928 C 1130 894 1072 849 1012 791 L 1012 0 L 870 0 L 870 754 C 870 829 855 885 825 923 C 795 960 742 979 666 979 C 602 979 540 962 482 928 C 424 894 365 849 305 791 L 305 0 Z" unicode="m" />
<glyph horiz-adv-x="1190" d="M 305 0 L 164 0 L 164 1077 L 291 1077 L 305 907 C 331 933 360 958 391 982 C 421 1006 453 1026 487 1044 C 521 1061 557 1075 595 1085 C 633 1095 672 1100 713 1100 C 821 1100 902 1072 956 1016 C 1010 960 1038 882 1038 782 L 1038 0 L 897 0 L 897 754 C 897 829 879 886 845 924 C 810 962 755 981 680 981 C 612 981 547 964 486 930 C 425 896 365 851 305 793 L 305 0 Z" unicode="n" />
<glyph horiz-adv-x="1182" d="M 592 -23 C 526 -23 463 -10 404 14 C 344 39 292 75 248 123 C 203 171 167 230 141 300 C 115 370 102 449 102 539 C 102 628 115 708 141 778 C 167 848 203 906 247 954 C 291 1002 343 1038 403 1063 C 463 1087 526 1100 592 1100 C 658 1100 720 1087 779 1063 C 838 1038 890 1002 934 954 C 978 906 1014 848 1040 778 C 1066 708 1079 628 1079 539 C 1079 449 1066 370 1040 300 C 1014 230 978 171 934 123 C 890 75 838 39 779 14 C 720 -10 658 -23 592 -23 Z M 592 98 C 646 98 694 109 737 131 C 780 153 816 184 846 223 C 876 262 898 309 914 363 C 930 417 938 475 938 539 C 938 597 930 653 916 707 C 901 761 879 808 850 848 C 821 888 785 919 742 943 C 698 967 648 979 592 979 C 537 979 488 968 445 946 C 401 924 365 893 335 854 C 305 815 283 769 267 715 C 251 661 244 602 244 539 C 244 479 251 422 266 368 C 280 314 302 268 331 228 C 359 188 395 157 439 133 C 483 109 534 98 592 98 Z" unicode="o" />
<glyph horiz-adv-x="1214" d="M 645 100 C 689 100 731 108 771 125 C 811 141 845 167 874 203 C 903 238 926 283 943 339 C 960 395 969 461 969 539 C 969 613 960 677 943 733 C 925 788 902 834 872 870 C 842 906 808 934 768 952 C 728 970 685 979 641 979 C 575 979 516 963 464 931 C 412 899 359 857 305 803 L 305 274 C 360 218 414 175 468 145 C 522 115 581 100 645 100 Z M 305 -399 L 164 -420 L 164 1077 L 291 1077 L 305 926 C 326 949 349 971 375 993 C 400 1014 427 1032 457 1048 C 486 1064 518 1076 553 1086 C 588 1095 626 1100 666 1100 C 727 1100 785 1088 839 1065 C 893 1042 940 1008 980 962 C 1020 916 1051 857 1075 787 C 1098 717 1110 635 1110 541 C 1110 447 1098 364 1075 294 C 1051 224 1019 166 979 120 C 939 74 891 39 837 16 C 782 -6 724 -18 662 -18 C 588 -18 522 -2 464 28 C 406 58 353 98 305 147 L 305 -399 Z" unicode="p" />
<glyph horiz-adv-x="1214" d="M 909 -420 L 909 158 C 887 134 863 112 838 90 C 813 68 786 50 757 34 C 727 18 695 5 661 -4 C 626 -13 589 -18 549 -18 C 487 -18 428 -6 374 16 C 320 38 273 72 233 118 C 193 164 162 221 139 291 C 115 361 104 443 104 537 C 104 630 115 712 139 783 C 162 854 194 913 234 959 C 274 1005 322 1040 377 1064 C 432 1088 491 1100 553 1100 C 626 1100 692 1084 750 1053 C 808 1022 861 982 909 934 L 924 1077 L 1051 1077 L 1051 -399 L 909 -420 Z M 573 102 C 639 102 698 117 750 149 C 802 180 855 223 909 279 L 909 805 C 854 861 800 904 746 935 C 692 965 633 981 569 981 C 525 981 483 972 443 954 C 403 936 369 910 340 874 C 311 838 288 792 271 736 C 254 680 246 615 246 539 C 246 465 254 400 272 345 C 289 290 312 245 342 209 C 371 173 406 146 446 128 C 486 110 528 102 573 102 Z" unicode="q" />
<glyph horiz-adv-x="807" d="M 305 0 L 164 0 L 164 1077 L 291 1077 L 305 866 L 309 866 C 329 898 353 929 380 958 C 407 986 438 1011 472 1032 C 506 1053 545 1070 589 1082 C 632 1094 680 1100 733 1100 L 748 1100 L 760 969 C 759 969 756 970 751 970 C 745 970 740 971 734 971 C 728 971 723 971 718 971 C 712 971 709 971 709 971 C 619 971 540 947 470 900 C 400 852 345 786 305 702 L 305 0 Z" unicode="r" />
<glyph horiz-adv-x="1036" d="M 512 -18 C 462 -18 416 -13 374 -3 C 332 7 293 20 258 37 C 223 54 191 74 163 97 C 135 120 110 145 90 172 L 168 258 C 210 209 260 170 316 140 C 372 110 438 96 514 96 C 605 96 675 112 723 146 C 771 180 795 225 795 283 C 795 341 773 386 729 417 C 685 448 608 476 498 502 C 433 518 377 534 330 552 C 282 569 243 590 213 614 C 182 638 159 666 145 699 C 130 731 123 771 123 817 C 123 855 131 891 147 926 C 163 960 187 990 218 1016 C 249 1042 287 1062 333 1077 C 379 1092 431 1100 489 1100 C 579 1100 655 1086 719 1058 C 783 1030 839 994 887 948 L 815 850 C 771 892 723 924 672 948 C 620 971 561 983 494 983 C 453 983 418 978 388 970 C 358 961 334 949 315 934 C 296 919 282 902 273 883 C 264 863 260 843 260 823 C 260 798 264 776 272 757 C 280 738 294 721 314 707 C 334 692 360 679 394 667 C 427 655 468 643 518 631 C 589 614 651 596 703 578 C 755 559 798 537 832 512 C 866 487 891 457 907 422 C 923 386 932 343 932 293 C 932 243 921 199 900 160 C 879 121 850 88 813 62 C 776 36 732 16 680 2 C 628 -11 572 -18 512 -18 Z" unicode="s" />
<glyph horiz-adv-x="745" d="M 520 -14 C 424 -14 353 6 306 47 C 259 88 236 158 236 256 L 236 958 L 49 958 L 49 1077 L 236 1077 L 236 1456 L 377 1477 L 377 1077 L 657 1077 L 657 958 L 377 958 L 377 276 C 377 219 389 176 414 147 C 439 118 483 104 545 104 C 564 104 583 105 602 108 C 620 111 637 115 651 119 L 668 -2 C 650 -4 628 -7 601 -10 C 573 -12 546 -14 520 -14 Z" unicode="t" />
<glyph horiz-adv-x="1190" d="M 477 -23 C 370 -23 289 5 235 61 C 181 117 154 195 154 295 L 154 1077 L 295 1077 L 295 324 C 295 248 312 192 346 154 C 380 116 434 98 510 98 C 578 98 642 115 703 149 C 764 183 825 229 887 287 L 887 1077 L 1028 1077 L 1028 0 L 901 0 L 887 170 C 859 144 830 119 800 96 C 769 72 737 52 703 34 C 669 16 633 2 595 -7 C 557 -17 517 -23 477 -23 Z" unicode="u" />
<glyph horiz-adv-x="1042" d="M 592 -6 L 451 -6 L 57 1065 L 199 1092 L 524 168 L 528 168 L 846 1077 L 989 1077 L 592 -6 Z" unicode="v" />
<glyph horiz-adv-x="1530" d="M 516 0 L 387 0 L 59 1065 L 201 1092 L 354 545 C 364 511 373 479 381 449 C 389 419 397 390 405 362 C 413 334 421 305 429 275 C 437 245 445 212 455 178 L 459 178 C 469 216 477 250 485 281 C 493 311 500 340 508 368 C 515 395 522 423 530 451 C 538 479 547 511 557 545 L 705 1077 L 834 1077 L 983 535 C 993 502 1001 471 1009 443 C 1017 415 1024 387 1032 360 C 1039 332 1046 304 1054 275 C 1061 245 1069 213 1079 178 L 1083 178 C 1092 214 1100 246 1108 275 C 1116 304 1123 332 1131 359 C 1138 385 1145 412 1153 440 C 1161 467 1170 497 1180 530 L 1339 1077 L 1475 1077 L 1143 0 L 1012 0 L 768 887 L 764 887 L 516 0 Z" unicode="w" />
<glyph horiz-adv-x="1047" d="M 215 0 L 63 0 L 451 559 L 98 1065 L 240 1092 L 528 662 L 811 1077 L 963 1077 L 600 559 L 979 12 L 840 -12 L 522 453 L 215 0 Z" unicode="x" />
<glyph horiz-adv-x="1079" d="M 201 -412 C 171 -412 144 -410 121 -408 C 97 -406 76 -402 57 -397 L 47 -274 C 65 -278 87 -283 113 -287 C 138 -291 168 -293 203 -293 C 262 -293 308 -279 342 -252 C 375 -224 403 -182 426 -125 L 471 -6 L 59 1065 L 201 1092 L 541 168 L 545 168 L 879 1077 L 1026 1077 L 561 -125 C 542 -173 522 -215 502 -251 C 482 -287 458 -316 431 -340 C 403 -364 371 -382 334 -394 C 296 -406 252 -412 201 -412 Z" unicode="y" />
<glyph horiz-adv-x="1036" d="M 958 0 L 84 0 L 84 90 L 741 961 L 147 961 L 127 1077 L 920 1077 L 920 987 L 262 117 L 938 117 L 958 0 Z" unicode="z" />
<glyph horiz-adv-x="778" d="M 692 -410 L 565 -410 C 471 -410 404 -385 362 -337 C 320 -288 299 -219 299 -131 L 299 254 C 299 304 294 345 285 377 C 275 409 261 434 243 452 C 224 470 200 483 172 490 C 143 496 110 500 72 500 L 72 606 C 110 606 143 609 172 616 C 200 622 224 635 243 653 C 261 671 275 697 285 729 C 294 761 299 802 299 852 L 299 1237 C 299 1325 320 1394 362 1443 C 404 1491 471 1516 565 1516 L 692 1516 L 692 1407 L 602 1407 C 547 1407 507 1393 481 1367 C 455 1340 442 1301 442 1249 L 442 846 C 442 796 438 754 430 721 C 422 687 411 660 397 639 C 382 617 364 600 342 588 C 320 575 295 564 268 555 L 268 551 C 295 541 320 530 342 518 C 364 505 382 488 397 467 C 411 445 422 418 430 385 C 438 351 442 310 442 260 L 442 -143 C 442 -195 455 -234 481 -261 C 507 -287 547 -301 602 -301 L 692 -301 L 692 -410 Z" unicode="{" />
<glyph horiz-adv-x="707" d="M 422 -410 L 285 -410 L 285 1516 L 422 1516 L 422 -410 Z" unicode="|" />
<glyph horiz-adv-x="778" d="M 219 -410 L 86 -410 L 86 -301 L 176 -301 C 231 -301 271 -287 297 -261 C 323 -234 336 -195 336 -143 L 336 266 C 336 316 339 357 347 390 C 355 422 366 449 381 470 C 395 490 414 507 436 519 C 458 531 482 541 510 551 L 510 555 C 482 564 458 575 436 587 C 414 599 395 615 381 636 C 366 656 355 683 347 716 C 339 748 336 790 336 840 L 336 1249 C 336 1301 324 1341 301 1370 C 278 1398 239 1413 184 1413 L 94 1413 L 86 1516 L 219 1516 C 313 1516 379 1492 419 1446 C 459 1399 479 1331 479 1243 L 479 852 C 479 802 483 761 493 729 C 502 697 516 671 535 653 C 553 635 577 622 606 616 C 635 609 669 606 707 606 L 707 500 C 669 500 635 496 606 490 C 577 483 553 470 535 452 C 516 434 502 409 493 377 C 483 345 479 304 479 254 L 479 -137 C 479 -225 459 -293 419 -340 C 379 -386 313 -410 219 -410 Z" unicode="}" />
<glyph horiz-adv-x="1303" d="M 934 549 C 902 551 858 559 802 574 C 746 589 690 605 632 623 C 574 641 519 657 468 672 C 416 687 379 696 356 698 C 325 700 300 694 280 681 C 260 668 248 642 244 602 L 147 614 C 153 690 177 745 218 779 C 258 812 309 827 369 823 C 401 821 444 812 500 797 C 556 781 612 765 670 747 C 728 729 782 713 833 698 C 884 683 921 675 944 674 C 976 672 1002 677 1023 691 C 1044 705 1056 731 1059 770 L 1157 762 C 1149 684 1124 628 1084 594 C 1044 560 994 545 934 549 Z" unicode="~" />
<glyph horiz-adv-x="463" d="" unicode=" " />
<glyph horiz-adv-x="641" d="M 319 1526 C 349 1526 374 1516 392 1496 C 410 1476 420 1451 420 1419 C 420 1386 410 1360 392 1341 C 374 1322 349 1313 319 1313 C 287 1313 263 1322 245 1341 C 227 1360 219 1386 219 1419 C 219 1451 227 1476 245 1496 C 263 1516 287 1526 319 1526 Z M 276 1102 L 360 1102 L 408 0 L 231 0 L 276 1102 Z" unicode="¡" />
<glyph horiz-adv-x="1090" d="M 389 156 L 614 979 C 609 979 603 980 597 980 C 590 980 584 981 580 981 C 540 981 499 973 459 958 C 419 942 382 917 350 883 C 317 849 290 803 270 747 C 250 691 240 622 240 541 C 240 449 253 371 281 306 C 308 241 344 191 389 156 Z M 268 -264 L 352 35 C 315 55 281 82 251 115 C 220 147 194 185 172 227 C 150 269 132 316 120 369 C 108 421 102 478 102 539 C 102 635 115 718 143 789 C 171 859 207 918 252 964 C 297 1010 349 1044 407 1066 C 465 1088 524 1100 584 1100 C 594 1100 604 1099 614 1099 C 624 1099 634 1098 643 1098 L 700 1307 L 799 1307 L 735 1077 C 801 1053 854 1017 896 968 C 938 918 971 864 997 805 L 881 752 C 859 804 834 848 804 884 C 774 920 738 945 696 961 L 467 115 C 483 108 501 103 519 100 C 537 97 556 96 575 96 C 649 96 711 114 759 152 C 807 190 850 248 889 328 L 999 279 C 977 233 953 192 926 155 C 899 117 868 85 834 59 C 799 33 760 12 716 -1 C 672 -15 623 -23 569 -23 C 546 -23 524 -21 502 -17 C 480 -13 459 -8 438 -2 L 367 -264 L 268 -264 Z" unicode="¢" />
<glyph horiz-adv-x="1247" d="M 438 741 L 178 741 L 178 854 L 377 854 C 351 902 329 950 309 1000 C 289 1049 279 1103 279 1161 C 279 1216 287 1267 305 1314 C 323 1361 348 1402 382 1436 C 415 1470 456 1496 505 1515 C 553 1534 608 1544 670 1544 C 739 1544 798 1533 847 1511 C 896 1489 936 1460 968 1425 C 1000 1389 1024 1349 1040 1303 C 1056 1257 1067 1210 1071 1163 L 934 1147 C 931 1185 924 1221 913 1255 C 902 1288 886 1317 865 1341 C 844 1365 817 1384 785 1398 C 752 1412 713 1419 668 1419 C 588 1419 527 1396 484 1350 C 441 1304 420 1241 420 1163 C 420 1108 431 1056 453 1006 C 475 956 500 906 528 854 L 881 854 L 881 741 L 586 741 C 604 699 620 654 632 608 C 644 562 651 511 651 455 C 651 412 648 372 643 334 C 637 296 629 261 618 229 C 638 212 658 195 678 179 C 698 163 719 148 740 136 C 760 123 782 113 804 105 C 826 97 850 94 874 94 C 937 94 983 116 1012 161 C 1041 206 1059 277 1065 373 L 1194 373 C 1192 316 1185 263 1173 214 C 1161 164 1143 122 1119 86 C 1095 50 1063 22 1024 2 C 985 -18 938 -29 883 -29 C 851 -29 821 -24 793 -15 C 764 -6 737 5 711 20 C 685 34 660 51 636 70 C 612 89 589 109 567 129 C 535 78 496 39 448 12 C 400 -15 346 -29 285 -29 C 258 -29 231 -24 205 -16 C 178 -7 154 5 133 22 C 112 38 95 59 82 85 C 69 111 63 140 63 174 C 63 241 84 296 126 339 C 168 381 225 403 297 403 C 337 403 375 394 410 378 C 445 362 479 341 512 317 C 514 335 516 355 518 377 C 519 398 520 420 520 444 C 520 501 512 554 496 602 C 480 650 460 697 438 741 Z M 479 207 C 449 233 419 256 389 274 C 359 292 327 301 295 301 C 258 301 229 289 207 267 C 185 244 174 214 174 178 C 174 144 185 118 208 100 C 230 81 258 72 291 72 C 333 72 371 83 403 105 C 435 127 460 161 479 207 Z" unicode="£" />
<glyph horiz-adv-x="1303" d="M 649 391 C 612 391 577 396 543 406 C 509 416 479 430 453 449 L 240 236 L 156 319 L 367 530 C 347 558 332 590 320 625 C 308 659 303 696 303 735 C 303 773 308 809 319 843 C 329 877 344 907 362 934 L 156 1141 L 240 1225 L 446 1018 C 474 1037 506 1052 540 1063 C 574 1073 611 1079 649 1079 C 689 1079 726 1073 761 1063 C 795 1052 826 1037 854 1018 L 1061 1225 L 1145 1141 L 938 936 C 957 908 972 878 983 844 C 993 810 999 773 999 735 C 999 696 993 659 982 625 C 970 590 954 558 934 530 L 1145 319 L 1063 236 L 850 449 C 822 430 791 416 757 406 C 723 396 687 391 649 391 Z M 649 487 C 684 487 717 493 747 505 C 777 517 802 533 824 555 C 846 577 863 603 875 634 C 887 664 893 698 893 735 C 893 772 887 806 875 837 C 863 867 846 893 824 915 C 802 937 777 953 747 965 C 717 977 684 983 649 983 C 614 983 582 977 552 965 C 522 953 497 937 476 915 C 454 893 438 867 426 837 C 414 806 408 772 408 735 C 408 698 414 664 426 634 C 438 603 454 577 476 555 C 497 533 522 517 552 505 C 582 493 614 487 649 487 Z" unicode="¤" />
<glyph horiz-adv-x="1262" d="M 702 0 L 557 0 L 557 258 L 166 258 L 166 373 L 557 373 L 557 567 L 166 567 L 166 682 L 553 682 L 53 1516 L 211 1516 L 635 799 L 1055 1516 L 1208 1516 L 707 682 L 1098 682 L 1098 567 L 702 567 L 702 373 L 1098 373 L 1098 258 L 702 258 L 702 0 Z" unicode="¥" />
<glyph horiz-adv-x="707" d="M 422 678 L 285 678 L 285 1516 L 422 1516 L 422 678 Z M 422 -410 L 285 -410 L 285 428 L 422 428 L 422 -410 Z" unicode="¦" />
<glyph horiz-adv-x="1085" d="M 614 264 C 686 296 742 333 782 376 C 822 419 842 468 842 522 C 842 550 837 576 827 599 C 817 622 799 646 774 670 C 748 694 713 720 669 750 C 624 779 567 814 498 856 C 493 858 488 860 484 863 C 479 865 475 868 471 870 C 401 839 346 802 305 758 C 264 714 244 666 244 612 C 244 583 248 557 258 535 C 268 512 285 489 311 465 C 336 441 371 414 416 385 C 460 355 518 320 588 279 C 592 276 596 273 601 271 C 605 268 610 266 614 264 Z M 543 -410 C 481 -410 427 -402 381 -386 C 335 -370 297 -349 265 -322 C 233 -295 208 -263 189 -227 C 169 -191 155 -152 145 -111 L 266 -74 C 284 -141 315 -194 357 -234 C 399 -273 459 -293 539 -293 C 580 -293 615 -287 644 -277 C 672 -266 695 -252 713 -235 C 730 -218 742 -198 750 -176 C 758 -154 762 -131 762 -109 C 762 -85 758 -62 751 -40 C 743 -18 730 2 712 24 C 693 46 667 69 635 93 C 602 117 560 144 510 174 C 438 216 377 253 327 287 C 276 320 235 352 204 384 C 172 415 149 448 135 482 C 120 516 113 554 113 598 C 113 639 121 677 137 712 C 153 746 173 777 198 805 C 223 833 251 857 282 879 C 313 901 343 919 373 934 C 296 988 244 1037 217 1082 C 189 1127 176 1179 176 1237 C 176 1276 184 1314 200 1351 C 216 1388 240 1421 271 1449 C 302 1477 340 1500 386 1518 C 431 1535 483 1544 541 1544 C 605 1544 661 1536 708 1520 C 755 1504 795 1483 827 1456 C 859 1429 884 1397 904 1361 C 923 1325 938 1286 948 1245 L 827 1208 C 809 1276 778 1330 736 1369 C 693 1407 630 1427 547 1427 C 505 1427 470 1421 441 1411 C 411 1400 387 1386 369 1369 C 350 1352 336 1332 328 1310 C 319 1288 315 1265 315 1243 C 315 1219 319 1196 327 1175 C 335 1153 349 1132 369 1110 C 389 1088 415 1065 449 1041 C 483 1017 525 990 575 961 C 646 919 707 881 758 848 C 808 814 849 782 881 751 C 913 719 936 687 951 653 C 965 619 973 580 973 537 C 973 495 965 457 949 422 C 933 387 913 356 889 328 C 864 300 836 275 805 253 C 774 231 743 213 713 199 C 751 171 782 146 807 122 C 831 98 850 74 864 51 C 878 27 887 3 893 -21 C 898 -46 901 -73 901 -102 C 901 -141 893 -179 877 -217 C 861 -254 838 -287 808 -315 C 778 -343 740 -366 696 -384 C 651 -401 600 -410 543 -410 Z" unicode="§" />
<glyph horiz-adv-x="1036" d="M 696 1182 C 669 1182 648 1191 632 1209 C 616 1227 608 1251 608 1282 C 608 1310 616 1333 632 1351 C 648 1369 669 1378 696 1378 C 724 1378 746 1369 762 1351 C 778 1333 786 1310 786 1282 C 786 1251 778 1227 762 1209 C 746 1191 724 1182 696 1182 Z M 336 1182 C 308 1182 287 1191 271 1209 C 255 1227 248 1251 248 1282 C 248 1310 255 1333 271 1351 C 287 1369 308 1378 336 1378 C 363 1378 384 1369 400 1351 C 416 1333 424 1310 424 1282 C 424 1251 416 1227 400 1209 C 384 1191 363 1182 336 1182 Z" unicode="¨" />
<glyph horiz-adv-x="1767" d="M 883 -29 C 774 -29 672 -8 577 33 C 481 74 399 130 329 201 C 259 271 203 355 163 451 C 122 547 102 649 102 758 C 102 866 122 969 163 1065 C 204 1161 260 1244 330 1314 C 400 1384 482 1440 578 1482 C 674 1523 776 1544 885 1544 C 993 1544 1094 1523 1190 1482 C 1285 1440 1368 1384 1438 1314 C 1508 1244 1563 1161 1604 1065 C 1644 969 1665 866 1665 758 C 1665 649 1644 547 1604 451 C 1563 355 1507 271 1437 201 C 1367 130 1284 74 1189 33 C 1093 -8 991 -29 883 -29 Z M 885 55 C 981 55 1071 73 1155 110 C 1239 147 1313 197 1375 260 C 1437 323 1485 398 1521 484 C 1557 570 1575 661 1575 758 C 1575 854 1557 944 1521 1030 C 1485 1116 1436 1190 1374 1254 C 1312 1317 1238 1367 1154 1404 C 1069 1441 979 1460 883 1460 C 787 1460 696 1441 612 1405 C 528 1368 455 1318 393 1255 C 331 1191 282 1117 246 1031 C 210 945 193 854 193 758 C 193 662 211 571 247 485 C 283 399 332 324 394 261 C 456 197 529 147 614 110 C 698 73 789 55 885 55 Z M 881 319 C 827 319 777 329 733 351 C 689 373 651 403 620 443 C 588 483 564 531 547 587 C 530 643 522 704 522 772 C 522 836 530 895 547 950 C 564 1004 588 1051 620 1091 C 651 1131 689 1162 734 1185 C 778 1207 828 1219 883 1219 C 966 1219 1033 1195 1085 1149 C 1137 1103 1174 1039 1198 958 L 1106 926 C 1086 992 1059 1041 1025 1075 C 990 1109 943 1126 883 1126 C 844 1126 809 1117 777 1100 C 745 1083 717 1059 695 1029 C 673 998 655 961 643 918 C 631 874 625 826 625 774 C 625 661 648 572 695 507 C 742 442 805 410 885 410 C 943 410 991 427 1030 463 C 1068 499 1097 551 1116 621 C 1116 621 1120 619 1129 616 C 1138 613 1148 610 1159 607 C 1170 603 1181 600 1191 597 C 1201 594 1207 592 1210 592 C 1185 505 1145 438 1090 390 C 1035 342 965 319 881 319 Z" unicode="©" />
<glyph horiz-adv-x="850" d="M 348 850 C 400 850 448 860 494 882 C 539 904 580 933 616 969 L 616 1188 C 536 1175 470 1160 418 1144 C 366 1128 326 1110 296 1091 C 266 1072 246 1052 234 1030 C 222 1008 217 985 217 961 C 217 925 228 897 252 878 C 276 859 308 850 348 850 Z M 326 756 C 256 756 202 773 163 807 C 123 841 104 888 104 948 C 104 985 112 1020 130 1052 C 147 1084 175 1114 215 1140 C 255 1166 307 1190 373 1212 C 439 1233 520 1251 616 1266 L 616 1300 C 616 1348 603 1385 578 1411 C 553 1437 517 1450 471 1450 C 413 1450 362 1440 320 1420 C 277 1400 236 1371 197 1335 L 127 1397 C 175 1441 226 1477 281 1503 C 335 1529 401 1542 479 1542 C 563 1542 626 1520 667 1476 C 708 1432 729 1373 729 1298 L 729 772 L 631 772 L 616 874 C 573 838 527 809 479 788 C 431 766 380 756 326 756 Z" unicode="ª" />
<glyph horiz-adv-x="1069" d="M 543 0 L 395 0 L 92 541 L 395 1077 L 543 1077 L 246 541 L 543 0 Z M 948 0 L 801 0 L 498 541 L 801 1077 L 948 1077 L 649 541 L 948 0 Z" unicode="«" />
<glyph horiz-adv-x="1292" d="M 1157 745 L 1157 164 L 1036 164 L 1036 625 L 133 625 L 133 745 L 1157 745 Z" unicode="¬" />
<glyph horiz-adv-x="731" d="M 596 582 L 135 582 L 135 705 L 596 705 L 596 582 Z" unicode="­" />
<glyph horiz-adv-x="1120" d="M 559 596 C 493 596 431 608 373 633 C 315 658 265 692 223 735 C 181 777 147 828 123 886 C 98 944 86 1007 86 1073 C 86 1139 98 1201 123 1259 C 148 1317 182 1367 224 1410 C 266 1453 317 1487 375 1512 C 433 1537 495 1550 561 1550 C 627 1550 688 1537 746 1512 C 804 1487 854 1453 896 1410 C 938 1367 972 1317 997 1259 C 1021 1201 1034 1139 1034 1073 C 1034 1007 1021 944 997 886 C 972 828 938 777 896 735 C 853 692 803 658 745 633 C 687 608 625 596 559 596 Z M 561 657 C 617 657 671 667 721 689 C 771 711 814 740 851 778 C 887 815 916 859 938 910 C 960 961 971 1015 971 1073 C 971 1130 960 1184 938 1235 C 916 1285 887 1329 850 1367 C 813 1404 769 1434 719 1456 C 669 1478 615 1489 559 1489 C 502 1489 449 1478 399 1456 C 349 1434 306 1404 270 1367 C 234 1329 205 1285 184 1235 C 162 1184 152 1130 152 1073 C 152 1015 162 961 184 910 C 205 859 234 815 271 778 C 307 740 351 711 401 689 C 451 667 504 657 561 657 Z M 459 1106 L 565 1106 C 601 1106 630 1112 652 1125 C 673 1138 684 1162 684 1196 C 684 1226 673 1248 652 1261 C 630 1273 601 1280 563 1280 L 459 1280 L 459 1106 Z M 385 817 L 385 1346 L 569 1346 C 628 1346 674 1333 707 1307 C 739 1281 756 1244 756 1198 C 756 1155 745 1122 724 1099 C 703 1076 675 1061 641 1053 L 770 817 L 692 817 L 567 1044 L 459 1044 L 459 817 L 385 817 Z" unicode="®" />
<glyph horiz-adv-x="1024" d="M 252 1192 L 252 1313 L 772 1313 L 772 1192 L 252 1192 Z" unicode="¯" />
<glyph horiz-adv-x="825" d="M 412 971 C 371 971 333 978 298 992 C 262 1006 232 1026 206 1052 C 180 1077 159 1107 145 1142 C 130 1177 123 1215 123 1257 C 123 1298 130 1336 145 1372 C 159 1407 180 1437 206 1463 C 232 1488 262 1508 298 1522 C 333 1536 371 1544 412 1544 C 453 1544 491 1536 527 1522 C 563 1508 593 1488 619 1463 C 645 1437 665 1407 680 1372 C 694 1336 702 1298 702 1257 C 702 1215 694 1177 680 1142 C 665 1107 645 1077 619 1052 C 593 1026 563 1006 527 992 C 491 978 453 971 412 971 Z M 412 1063 C 466 1063 510 1081 545 1117 C 580 1153 598 1200 598 1257 C 598 1314 580 1360 545 1396 C 510 1432 466 1450 412 1450 C 358 1450 314 1432 279 1396 C 244 1360 227 1314 227 1257 C 227 1200 244 1153 279 1117 C 314 1081 358 1063 412 1063 Z" unicode="°" />
<glyph horiz-adv-x="1303" d="M 133 102 L 133 221 L 590 221 L 590 666 L 133 666 L 133 786 L 590 786 L 590 1247 L 715 1247 L 715 786 L 1169 786 L 1169 666 L 715 666 L 715 221 L 1169 221 L 1169 102 L 133 102 Z" unicode="±" />
<glyph horiz-adv-x="913" d="M 137 571 L 137 610 C 137 644 141 677 151 711 C 160 745 176 779 200 813 C 224 847 256 882 297 918 C 337 954 389 992 451 1032 C 516 1072 563 1109 592 1143 C 620 1176 635 1216 635 1264 C 635 1312 620 1350 592 1380 C 564 1410 522 1425 467 1425 C 420 1425 379 1412 344 1386 C 308 1360 276 1318 248 1260 L 150 1315 C 186 1389 231 1444 285 1481 C 339 1517 401 1536 471 1536 C 515 1536 555 1529 591 1516 C 627 1502 657 1484 682 1461 C 706 1437 725 1409 738 1376 C 751 1343 758 1307 758 1268 C 758 1204 739 1147 702 1097 C 665 1047 600 994 508 938 C 433 891 377 846 340 803 C 302 760 280 720 274 684 L 762 684 L 762 571 L 137 571 Z" unicode="²" />
<glyph horiz-adv-x="913" d="M 453 553 C 382 553 318 569 260 603 C 202 637 153 686 115 750 L 205 815 C 239 759 277 719 319 697 C 361 675 405 664 451 664 C 515 664 564 679 599 711 C 633 743 651 784 651 836 C 651 896 630 943 589 975 C 548 1007 478 1024 379 1024 L 326 1024 L 326 1122 L 385 1122 C 472 1122 535 1135 574 1162 C 613 1188 633 1228 633 1280 C 633 1322 619 1356 591 1384 C 563 1411 519 1425 459 1425 C 415 1425 375 1414 339 1394 C 303 1373 270 1344 240 1307 L 156 1376 C 196 1425 241 1464 292 1493 C 342 1521 399 1536 463 1536 C 514 1536 558 1529 596 1515 C 633 1501 664 1483 688 1461 C 712 1438 729 1412 741 1382 C 752 1352 758 1321 758 1290 C 758 1239 744 1195 718 1157 C 691 1119 651 1092 598 1075 C 661 1055 707 1026 735 986 C 763 946 778 896 778 836 C 778 796 770 758 755 723 C 739 688 718 658 690 633 C 662 608 628 588 588 574 C 548 560 503 553 453 553 Z" unicode="³" />
<glyph horiz-adv-x="1024" d="M 346 1194 L 541 1513 L 727 1513 L 438 1194 L 346 1194 Z" unicode="´" />
<glyph horiz-adv-x="1200" d="M 164 0 L 164 0 Z M 305 -410 L 164 -410 L 164 1077 L 305 1077 L 305 324 C 305 248 322 192 356 154 C 390 116 444 98 520 98 C 588 98 652 114 713 148 C 774 182 835 227 897 285 L 897 1077 L 1038 1077 L 1038 0 L 897 0 L 897 176 C 869 150 841 125 811 102 C 781 79 751 59 719 41 C 687 23 654 9 619 -1 C 584 -11 548 -17 510 -18 C 466 -18 426 -14 392 -4 C 357 6 328 25 305 55 L 305 -410 Z" unicode="µ" />
<glyph horiz-adv-x="1268" d="M 745 -410 L 625 -410 L 625 690 C 465 692 342 728 256 797 C 170 866 127 967 127 1100 C 127 1158 137 1213 158 1264 C 178 1315 208 1359 248 1396 C 287 1433 336 1462 395 1484 C 453 1505 520 1516 596 1516 L 1079 1516 L 1079 -410 L 958 -410 L 958 1395 L 745 1395 L 745 -410 Z" unicode="¶" />
<glyph horiz-adv-x="551" d="M 274 547 C 243 547 219 556 202 575 C 184 594 176 620 176 653 C 176 685 184 711 202 731 C 219 750 243 760 274 760 C 306 760 331 750 349 731 C 367 711 377 685 377 653 C 377 620 367 594 349 575 C 331 556 306 547 274 547 Z" unicode="·" />
<glyph horiz-adv-x="1024" d="M 514 -399 C 468 -399 423 -392 379 -379 C 335 -365 296 -347 260 -324 L 299 -264 C 329 -284 361 -300 395 -310 C 429 -320 463 -326 498 -326 C 552 -326 591 -317 615 -300 C 639 -283 651 -259 651 -227 C 651 -204 643 -186 629 -174 C 615 -162 593 -156 565 -156 C 542 -156 522 -160 504 -168 C 486 -176 471 -185 457 -197 L 399 -170 L 453 0 L 539 0 L 506 -111 C 520 -101 536 -94 554 -88 C 572 -82 592 -80 616 -80 C 654 -80 688 -91 718 -115 C 747 -138 762 -173 762 -219 C 762 -250 755 -277 742 -300 C 728 -323 710 -342 688 -356 C 666 -370 639 -381 609 -388 C 579 -395 547 -399 514 -399 Z" unicode="¸" />
<glyph horiz-adv-x="715" d="M 459 569 L 336 569 L 336 1395 L 184 1352 L 162 1454 L 371 1516 L 459 1516 L 459 569 Z" unicode="¹" />
<glyph horiz-adv-x="879" d="M 438 756 C 391 756 346 764 304 782 C 262 799 225 824 193 858 C 161 891 136 932 118 981 C 99 1030 90 1086 90 1149 C 90 1213 99 1269 118 1318 C 136 1367 161 1408 193 1441 C 225 1474 262 1499 304 1516 C 346 1533 391 1542 438 1542 C 485 1542 530 1533 573 1516 C 615 1499 652 1474 684 1441 C 716 1408 741 1367 760 1318 C 778 1269 788 1213 788 1149 C 788 1086 778 1030 760 981 C 741 932 716 891 684 858 C 652 824 615 799 573 782 C 530 764 485 756 438 756 Z M 438 848 C 476 848 509 855 539 871 C 569 886 594 907 614 934 C 634 961 649 993 660 1030 C 670 1067 676 1107 676 1149 C 676 1189 671 1227 661 1263 C 651 1299 636 1331 616 1359 C 596 1387 572 1409 542 1425 C 512 1441 477 1450 438 1450 C 401 1450 368 1442 339 1427 C 310 1411 285 1390 265 1363 C 245 1336 229 1304 219 1267 C 208 1230 203 1191 203 1149 C 203 1109 207 1070 217 1034 C 227 998 241 966 261 938 C 281 910 305 888 335 872 C 364 856 398 848 438 848 Z" unicode="º" />
<glyph horiz-adv-x="1069" d="M 266 0 L 121 0 L 418 541 L 121 1077 L 266 1077 L 571 541 L 266 0 Z M 672 0 L 526 0 L 823 541 L 526 1077 L 672 1077 L 977 541 L 672 0 Z" unicode="»" />
<glyph horiz-adv-x="1917" d="M 420 0 L 1331 1516 L 1460 1516 L 555 0 L 420 0 Z M 494 571 L 371 571 L 371 1376 L 229 1346 L 182 1462 L 444 1513 L 494 1513 L 494 571 Z M 1511 0 L 1511 227 L 1071 227 L 1071 309 L 1497 948 L 1634 948 L 1634 336 L 1788 336 L 1788 227 L 1634 227 L 1634 0 L 1511 0 Z M 1217 334 L 1513 334 L 1513 784 L 1217 334 Z" unicode="¼" />
<glyph horiz-adv-x="1997" d="M 420 0 L 1331 1516 L 1460 1516 L 555 0 L 420 0 Z M 494 571 L 371 571 L 371 1376 L 229 1346 L 182 1462 L 444 1513 L 494 1513 L 494 571 Z M 1217 0 L 1217 39 C 1217 72 1221 105 1231 139 C 1240 172 1256 206 1280 240 C 1303 274 1335 310 1375 346 C 1415 382 1466 421 1528 461 C 1592 501 1639 538 1669 572 C 1699 606 1714 646 1714 692 C 1714 738 1699 777 1669 809 C 1639 840 1598 856 1544 856 C 1498 856 1457 842 1422 815 C 1387 787 1355 745 1327 688 L 1229 743 C 1265 817 1310 873 1364 910 C 1418 946 1480 965 1550 965 C 1593 965 1632 958 1667 945 C 1702 931 1732 913 1756 889 C 1780 865 1799 837 1813 804 C 1826 771 1833 735 1833 696 C 1833 630 1815 573 1780 525 C 1744 477 1681 425 1589 369 C 1515 321 1459 276 1420 232 C 1380 188 1358 149 1354 113 L 1839 113 L 1839 0 L 1217 0 Z" unicode="½" />
<glyph horiz-adv-x="1970" d="M 520 0 L 1425 1516 L 1559 1516 L 651 0 L 520 0 Z M 1565 0 L 1565 227 L 1128 227 L 1128 309 L 1550 948 L 1690 948 L 1690 338 L 1837 338 L 1847 227 L 1690 227 L 1690 0 L 1565 0 Z M 453 553 C 382 553 318 569 260 603 C 202 637 153 686 115 750 L 205 815 C 239 759 277 719 319 697 C 361 675 405 664 451 664 C 515 664 564 679 599 711 C 633 743 651 784 651 836 C 651 896 630 943 589 975 C 548 1007 478 1024 379 1024 L 326 1024 L 326 1122 L 385 1122 C 472 1122 535 1135 574 1162 C 613 1188 633 1228 633 1280 C 633 1322 619 1356 591 1384 C 563 1411 519 1425 459 1425 C 415 1425 375 1414 339 1394 C 303 1373 270 1344 240 1307 L 156 1376 C 196 1425 241 1464 292 1493 C 342 1521 399 1536 463 1536 C 514 1536 558 1529 596 1515 C 633 1501 664 1483 688 1461 C 712 1438 729 1412 741 1382 C 752 1352 758 1321 758 1290 C 758 1239 744 1195 718 1157 C 691 1119 651 1092 598 1075 C 661 1055 707 1026 735 986 C 763 946 778 896 778 836 C 778 796 770 758 755 723 C 739 688 718 658 690 633 C 662 608 628 588 588 574 C 548 560 503 553 453 553 Z M 1270 334 L 1569 334 L 1569 784 L 1270 334 Z" unicode="¾" />
<glyph horiz-adv-x="1104" d="M 610 1526 C 640 1526 664 1516 682 1496 C 700 1476 709 1449 709 1417 C 709 1385 700 1360 682 1341 C 664 1322 640 1313 610 1313 C 578 1313 553 1322 535 1341 C 517 1360 508 1385 508 1417 C 508 1449 517 1476 535 1496 C 553 1516 578 1526 610 1526 Z M 551 1104 L 666 1104 C 666 1083 667 1061 668 1038 C 669 1015 670 992 670 969 C 670 897 656 837 629 789 C 601 741 554 697 487 657 C 446 632 411 609 381 588 C 351 566 326 544 307 522 C 287 499 273 474 264 446 C 254 418 250 386 250 348 C 250 272 277 212 331 167 C 385 122 460 100 555 100 C 599 100 640 105 678 115 C 716 125 751 140 783 158 C 815 176 844 198 871 223 C 898 247 922 274 944 303 L 1036 209 C 1009 175 979 144 946 115 C 913 85 877 60 837 39 C 797 18 752 1 704 -10 C 656 -22 603 -29 547 -29 C 481 -29 420 -19 366 -1 C 312 16 265 42 227 74 C 189 106 159 145 138 191 C 116 236 106 286 106 340 C 106 390 112 434 126 472 C 140 510 158 543 182 573 C 205 602 233 628 265 652 C 297 675 332 697 369 719 C 411 743 444 767 469 789 C 493 811 512 836 524 864 C 536 892 543 925 546 963 C 549 1001 551 1048 551 1104 Z" unicode="¿" />
<glyph horiz-adv-x="1376" d="M 74 0 L 74 0 Z M 215 0 L 74 0 L 610 1522 L 766 1522 L 1300 12 L 1157 -12 L 991 467 L 377 467 L 215 0 Z M 682 1350 L 422 596 L 946 596 L 686 1350 L 682 1350 Z M 645 1610 L 356 1929 L 542 1929 L 737 1610 L 645 1610 Z" unicode="À" />
<glyph horiz-adv-x="1376" d="M 74 0 L 74 0 Z M 215 0 L 74 0 L 610 1522 L 766 1522 L 1300 12 L 1157 -12 L 991 467 L 377 467 L 215 0 Z M 682 1350 L 422 596 L 946 596 L 686 1350 L 682 1350 Z M 641 1610 L 836 1929 L 1022 1929 L 733 1610 L 641 1610 Z" unicode="Á" />
<glyph horiz-adv-x="1376" d="M 74 0 L 74 0 Z M 215 0 L 74 0 L 610 1522 L 766 1522 L 1300 12 L 1157 -12 L 991 467 L 377 467 L 215 0 Z M 682 1350 L 422 596 L 946 596 L 686 1350 L 682 1350 Z M 371 1604 L 635 1929 L 741 1929 L 1006 1604 L 916 1604 L 686 1805 L 457 1604 L 371 1604 Z" unicode="Â" />
<glyph horiz-adv-x="1376" d="M 74 0 L 74 0 Z M 215 0 L 74 0 L 610 1522 L 766 1522 L 1300 12 L 1157 -12 L 991 467 L 377 467 L 215 0 Z M 682 1350 L 422 596 L 946 596 L 686 1350 L 682 1350 Z M 842 1604 C 813 1604 785 1610 758 1622 C 730 1634 704 1647 679 1661 C 653 1675 629 1689 605 1701 C 581 1713 559 1719 539 1719 C 509 1719 487 1709 475 1691 C 462 1673 456 1642 457 1600 L 367 1616 C 367 1688 381 1743 411 1779 C 440 1815 483 1833 539 1833 C 567 1833 595 1827 623 1815 C 650 1803 676 1790 702 1776 C 727 1762 751 1749 775 1737 C 799 1725 821 1719 842 1719 C 871 1719 892 1728 906 1746 C 919 1764 926 1794 926 1837 L 1014 1821 C 1014 1749 999 1694 970 1658 C 940 1622 898 1604 842 1604 Z" unicode="Ã" />
<glyph horiz-adv-x="1376" d="M 74 0 L 74 0 Z M 215 0 L 74 0 L 610 1522 L 766 1522 L 1300 12 L 1157 -12 L 991 467 L 377 467 L 215 0 Z M 682 1350 L 422 596 L 946 596 L 686 1350 L 682 1350 Z M 866 1598 C 839 1598 818 1607 802 1625 C 786 1643 778 1667 778 1698 C 778 1726 786 1749 802 1767 C 818 1785 839 1794 866 1794 C 894 1794 916 1785 932 1767 C 948 1749 956 1726 956 1698 C 956 1667 948 1643 932 1625 C 916 1607 894 1598 866 1598 Z M 506 1598 C 478 1598 457 1607 441 1625 C 425 1643 418 1667 418 1698 C 418 1726 425 1749 441 1767 C 457 1785 478 1794 506 1794 C 533 1794 554 1785 570 1767 C 586 1749 594 1726 594 1698 C 594 1667 586 1643 570 1625 C 554 1607 533 1598 506 1598 Z" unicode="Ä" />
<glyph horiz-adv-x="1376" d="M 74 0 L 596 1481 C 567 1495 544 1516 527 1544 C 510 1572 502 1604 502 1640 C 502 1693 519 1737 555 1773 C 591 1809 635 1827 688 1827 C 741 1827 785 1809 821 1773 C 856 1737 874 1693 874 1640 C 874 1604 865 1573 848 1545 C 831 1517 808 1497 780 1483 L 1300 12 L 1157 -12 L 991 467 L 377 467 L 215 0 L 74 0 Z M 688 1526 C 720 1526 746 1536 766 1558 C 786 1579 797 1606 797 1640 C 797 1672 786 1699 766 1721 C 746 1742 720 1753 688 1753 C 656 1753 630 1742 609 1721 C 588 1699 578 1672 578 1640 C 578 1606 588 1579 609 1558 C 630 1536 656 1526 688 1526 Z M 422 596 L 946 596 L 686 1350 L 682 1350 L 422 596 Z" unicode="Å" />
<glyph horiz-adv-x="2040" d="M 995 1399 L 553 614 L 997 614 L 997 1399 L 995 1399 Z M 203 0 L 55 0 L 918 1516 L 1903 1516 L 1903 1380 L 1143 1380 L 1143 866 L 1698 866 L 1720 735 L 1143 735 L 1143 133 L 1946 133 L 1946 0 L 997 0 L 997 485 L 477 485 L 203 0 Z" unicode="Æ" />
<glyph horiz-adv-x="1427" d="M 121 0 L 121 0 Z M 752 -29 C 657 -29 571 -10 493 28 C 415 66 348 119 293 188 C 238 256 196 340 166 438 C 136 536 121 644 121 764 C 121 878 136 982 166 1078 C 196 1174 239 1256 294 1325 C 348 1393 414 1447 492 1486 C 569 1524 654 1544 748 1544 C 876 1544 984 1514 1070 1455 C 1156 1396 1222 1314 1268 1210 L 1143 1145 C 1107 1229 1057 1295 994 1341 C 930 1387 848 1411 748 1411 C 674 1411 608 1395 548 1364 C 488 1333 438 1290 396 1234 C 354 1178 322 1110 300 1031 C 277 951 266 864 266 768 C 266 664 277 570 300 488 C 323 405 356 335 398 278 C 440 221 492 177 552 147 C 612 117 680 102 754 102 C 855 102 941 128 1012 181 C 1083 233 1138 308 1176 406 L 1300 348 C 1255 231 1186 139 1094 72 C 1001 4 887 -29 752 -29 Z M 770 -399 C 724 -399 679 -392 635 -379 C 591 -365 552 -347 516 -324 L 555 -264 C 585 -284 617 -300 651 -310 C 685 -320 719 -326 754 -326 C 808 -326 847 -317 871 -300 C 895 -283 907 -259 907 -227 C 907 -204 899 -186 885 -174 C 871 -162 849 -156 821 -156 C 798 -156 778 -160 760 -168 C 742 -176 727 -185 713 -197 L 655 -170 L 709 0 L 795 0 L 762 -111 C 776 -101 792 -94 810 -88 C 828 -82 848 -80 872 -80 C 910 -80 944 -91 974 -115 C 1003 -138 1018 -173 1018 -219 C 1018 -250 1011 -277 998 -300 C 984 -323 966 -342 944 -356 C 922 -370 895 -381 865 -388 C 835 -395 803 -399 770 -399 Z" unicode="Ç" />
<glyph horiz-adv-x="1237" d="M 195 0 L 195 0 Z M 1143 0 L 195 0 L 195 1516 L 1100 1516 L 1100 1380 L 340 1380 L 340 866 L 907 866 L 930 735 L 340 735 L 340 133 L 1143 133 L 1143 0 Z M 645 1610 L 356 1929 L 542 1929 L 737 1610 L 645 1610 Z" unicode="È" />
<glyph horiz-adv-x="1237" d="M 195 0 L 195 0 Z M 557 1610 L 752 1929 L 938 1929 L 649 1610 L 557 1610 Z M 1143 0 L 195 0 L 195 1516 L 1100 1516 L 1100 1380 L 340 1380 L 340 866 L 907 866 L 930 735 L 340 735 L 340 133 L 1143 133 L 1143 0 Z" unicode="É" />
<glyph horiz-adv-x="1237" d="M 195 0 L 195 0 Z M 328 1604 L 592 1929 L 698 1929 L 963 1604 L 873 1604 L 643 1805 L 414 1604 L 328 1604 Z M 1143 0 L 195 0 L 195 1516 L 1100 1516 L 1100 1380 L 340 1380 L 340 866 L 907 866 L 930 735 L 340 735 L 340 133 L 1143 133 L 1143 0 Z" unicode="Ê" />
<glyph horiz-adv-x="1237" d="M 195 0 L 195 0 Z M 835 1598 C 808 1598 787 1607 771 1625 C 755 1643 747 1667 747 1698 C 747 1726 755 1749 771 1767 C 787 1785 808 1794 835 1794 C 863 1794 885 1785 901 1767 C 917 1749 925 1726 925 1698 C 925 1667 917 1643 901 1625 C 885 1607 863 1598 835 1598 Z M 475 1598 C 447 1598 426 1607 410 1625 C 394 1643 387 1667 387 1698 C 387 1726 394 1749 410 1767 C 426 1785 447 1794 475 1794 C 502 1794 523 1785 539 1767 C 555 1749 563 1726 563 1698 C 563 1667 555 1643 539 1625 C 523 1607 502 1598 475 1598 Z M 1143 0 L 195 0 L 195 1516 L 1100 1516 L 1100 1380 L 340 1380 L 340 866 L 907 866 L 930 735 L 340 735 L 340 133 L 1143 133 L 1143 0 Z" unicode="Ë" />
<glyph horiz-adv-x="575" d="M 0 0 L 0 0 Z M 360 0 L 215 0 L 215 1516 L 360 1516 L 360 0 Z M 260 1610 L -29 1929 L 157 1929 L 352 1610 L 260 1610 Z" unicode="Ì" />
<glyph horiz-adv-x="575" d="M 215 0 L 215 0 Z M 360 0 L 215 0 L 215 1516 L 360 1516 L 360 0 Z M 246 1610 L 441 1929 L 627 1929 L 338 1610 L 246 1610 Z" unicode="Í" />
<glyph horiz-adv-x="575" d="M 0 0 L 0 0 Z M 360 0 L 215 0 L 215 1516 L 360 1516 L 360 0 Z M -28 1604 L 236 1929 L 342 1929 L 607 1604 L 517 1604 L 287 1805 L 58 1604 L -28 1604 Z" unicode="Î" />
<glyph horiz-adv-x="575" d="M 19 0 L 19 0 Z M 360 0 L 215 0 L 215 1516 L 360 1516 L 360 0 Z M 467 1598 C 440 1598 419 1607 403 1625 C 387 1643 379 1667 379 1698 C 379 1726 387 1749 403 1767 C 419 1785 440 1794 467 1794 C 495 1794 517 1785 533 1767 C 549 1749 557 1726 557 1698 C 557 1667 549 1643 533 1625 C 517 1607 495 1598 467 1598 Z M 107 1598 C 79 1598 58 1607 42 1625 C 26 1643 19 1667 19 1698 C 19 1726 26 1749 42 1767 C 58 1785 79 1794 107 1794 C 134 1794 155 1785 171 1767 C 187 1749 195 1726 195 1698 C 195 1667 187 1643 171 1625 C 155 1607 134 1598 107 1598 Z" unicode="Ï" />
<glyph horiz-adv-x="1452" d="M 578 0 L 195 0 L 195 737 L 25 737 L 25 860 L 195 860 L 195 1516 L 578 1516 C 822 1516 1008 1452 1137 1324 C 1266 1196 1331 1008 1331 758 C 1331 634 1314 525 1281 430 C 1248 335 1200 256 1136 193 C 1072 129 994 81 900 49 C 806 16 698 0 578 0 Z M 340 737 L 340 131 L 600 131 C 787 131 931 181 1033 282 C 1135 383 1186 542 1186 758 C 1186 864 1173 956 1147 1034 C 1121 1112 1083 1177 1033 1228 C 983 1279 921 1317 847 1342 C 773 1367 690 1380 596 1380 L 340 1380 L 340 860 L 666 860 L 666 737 L 340 737 Z" unicode="Ð" />
<glyph horiz-adv-x="1522" d="M 195 0 L 195 0 Z M 332 0 L 195 0 L 195 1516 L 350 1516 L 1186 266 L 1190 266 L 1190 1516 L 1327 1516 L 1327 0 L 1198 0 L 336 1288 L 332 1288 L 332 0 Z M 932 1604 C 903 1604 875 1610 848 1622 C 820 1634 794 1647 769 1661 C 743 1675 719 1689 695 1701 C 671 1713 649 1719 629 1719 C 599 1719 577 1709 565 1691 C 552 1673 546 1642 547 1600 L 457 1616 C 457 1688 471 1743 501 1779 C 530 1815 573 1833 629 1833 C 657 1833 685 1827 713 1815 C 740 1803 766 1790 792 1776 C 817 1762 841 1749 865 1737 C 889 1725 911 1719 932 1719 C 961 1719 982 1728 996 1746 C 1009 1764 1016 1794 1016 1837 L 1104 1821 C 1104 1749 1089 1694 1060 1658 C 1030 1622 988 1604 932 1604 Z" unicode="Ñ" />
<glyph horiz-adv-x="1520" d="M 121 0 L 121 0 Z M 760 -29 C 668 -29 583 -10 505 27 C 427 65 359 118 303 186 C 246 254 201 337 169 435 C 137 532 121 640 121 758 C 121 876 137 983 169 1081 C 201 1178 246 1261 303 1329 C 359 1397 427 1449 505 1487 C 583 1525 668 1544 760 1544 C 850 1544 935 1525 1013 1487 C 1091 1449 1159 1397 1216 1329 C 1272 1261 1317 1178 1350 1081 C 1382 983 1399 876 1399 758 C 1399 640 1382 532 1350 435 C 1317 337 1272 254 1216 186 C 1159 118 1091 65 1013 27 C 935 -10 850 -29 760 -29 Z M 760 102 C 831 102 897 117 958 147 C 1018 177 1070 220 1114 276 C 1157 332 1191 400 1216 482 C 1240 564 1253 656 1253 758 C 1253 860 1240 951 1216 1032 C 1191 1113 1157 1182 1114 1238 C 1070 1294 1018 1336 958 1366 C 897 1396 831 1411 760 1411 C 688 1411 622 1396 562 1366 C 501 1336 449 1294 405 1238 C 361 1182 327 1113 303 1032 C 278 951 266 860 266 758 C 266 656 278 564 303 482 C 327 400 361 332 405 276 C 449 220 501 177 562 147 C 622 117 688 102 760 102 Z M 733 1610 L 444 1929 L 630 1929 L 825 1610 L 733 1610 Z" unicode="Ò" />
<glyph horiz-adv-x="1520" d="M 121 0 L 121 0 Z M 686 1610 L 881 1929 L 1067 1929 L 778 1610 L 686 1610 Z M 760 -29 C 668 -29 583 -10 505 27 C 427 65 359 118 303 186 C 246 254 201 337 169 435 C 137 532 121 640 121 758 C 121 876 137 983 169 1081 C 201 1178 246 1261 303 1329 C 359 1397 427 1449 505 1487 C 583 1525 668 1544 760 1544 C 850 1544 935 1525 1013 1487 C 1091 1449 1159 1397 1216 1329 C 1272 1261 1317 1178 1350 1081 C 1382 983 1399 876 1399 758 C 1399 640 1382 532 1350 435 C 1317 337 1272 254 1216 186 C 1159 118 1091 65 1013 27 C 935 -10 850 -29 760 -29 Z M 760 102 C 831 102 897 117 958 147 C 1018 177 1070 220 1114 276 C 1157 332 1191 400 1216 482 C 1240 564 1253 656 1253 758 C 1253 860 1240 951 1216 1032 C 1191 1113 1157 1182 1114 1238 C 1070 1294 1018 1336 958 1366 C 897 1396 831 1411 760 1411 C 688 1411 622 1396 562 1366 C 501 1336 449 1294 405 1238 C 361 1182 327 1113 303 1032 C 278 951 266 860 266 758 C 266 656 278 564 303 482 C 327 400 361 332 405 276 C 449 220 501 177 562 147 C 622 117 688 102 760 102 Z" unicode="Ó" />
<glyph horiz-adv-x="1520" d="M 121 0 L 121 0 Z M 441 1604 L 705 1929 L 811 1929 L 1076 1604 L 986 1604 L 756 1805 L 527 1604 L 441 1604 Z M 760 -29 C 668 -29 583 -10 505 27 C 427 65 359 118 303 186 C 246 254 201 337 169 435 C 137 532 121 640 121 758 C 121 876 137 983 169 1081 C 201 1178 246 1261 303 1329 C 359 1397 427 1449 505 1487 C 583 1525 668 1544 760 1544 C 850 1544 935 1525 1013 1487 C 1091 1449 1159 1397 1216 1329 C 1272 1261 1317 1178 1350 1081 C 1382 983 1399 876 1399 758 C 1399 640 1382 532 1350 435 C 1317 337 1272 254 1216 186 C 1159 118 1091 65 1013 27 C 935 -10 850 -29 760 -29 Z M 760 102 C 831 102 897 117 958 147 C 1018 177 1070 220 1114 276 C 1157 332 1191 400 1216 482 C 1240 564 1253 656 1253 758 C 1253 860 1240 951 1216 1032 C 1191 1113 1157 1182 1114 1238 C 1070 1294 1018 1336 958 1366 C 897 1396 831 1411 760 1411 C 688 1411 622 1396 562 1366 C 501 1336 449 1294 405 1238 C 361 1182 327 1113 303 1032 C 278 951 266 860 266 758 C 266 656 278 564 303 482 C 327 400 361 332 405 276 C 449 220 501 177 562 147 C 622 117 688 102 760 102 Z" unicode="Ô" />
<glyph horiz-adv-x="1520" d="M 121 0 L 121 0 Z M 760 -29 C 668 -29 583 -10 505 27 C 427 65 359 118 303 186 C 246 254 201 337 169 435 C 137 532 121 640 121 758 C 121 876 137 983 169 1081 C 201 1178 246 1261 303 1329 C 359 1397 427 1449 505 1487 C 583 1525 668 1544 760 1544 C 850 1544 935 1525 1013 1487 C 1091 1449 1159 1397 1216 1329 C 1272 1261 1317 1178 1350 1081 C 1382 983 1399 876 1399 758 C 1399 640 1382 532 1350 435 C 1317 337 1272 254 1216 186 C 1159 118 1091 65 1013 27 C 935 -10 850 -29 760 -29 Z M 760 102 C 831 102 897 117 958 147 C 1018 177 1070 220 1114 276 C 1157 332 1191 400 1216 482 C 1240 564 1253 656 1253 758 C 1253 860 1240 951 1216 1032 C 1191 1113 1157 1182 1114 1238 C 1070 1294 1018 1336 958 1366 C 897 1396 831 1411 760 1411 C 688 1411 622 1396 562 1366 C 501 1336 449 1294 405 1238 C 361 1182 327 1113 303 1032 C 278 951 266 860 266 758 C 266 656 278 564 303 482 C 327 400 361 332 405 276 C 449 220 501 177 562 147 C 622 117 688 102 760 102 Z M 908 1604 C 879 1604 851 1610 824 1622 C 796 1634 770 1647 745 1661 C 719 1675 695 1689 671 1701 C 647 1713 625 1719 605 1719 C 575 1719 553 1709 541 1691 C 528 1673 522 1642 523 1600 L 433 1616 C 433 1688 447 1743 477 1779 C 506 1815 549 1833 605 1833 C 633 1833 661 1827 689 1815 C 716 1803 742 1790 768 1776 C 793 1762 817 1749 841 1737 C 865 1725 887 1719 908 1719 C 937 1719 958 1728 972 1746 C 985 1764 992 1794 992 1837 L 1080 1821 C 1080 1749 1065 1694 1036 1658 C 1006 1622 964 1604 908 1604 Z" unicode="Õ" />
<glyph horiz-adv-x="1520" d="M 121 0 L 121 0 Z M 936 1598 C 909 1598 888 1607 872 1625 C 856 1643 848 1667 848 1698 C 848 1726 856 1749 872 1767 C 888 1785 909 1794 936 1794 C 964 1794 986 1785 1002 1767 C 1018 1749 1026 1726 1026 1698 C 1026 1667 1018 1643 1002 1625 C 986 1607 964 1598 936 1598 Z M 576 1598 C 548 1598 527 1607 511 1625 C 495 1643 488 1667 488 1698 C 488 1726 495 1749 511 1767 C 527 1785 548 1794 576 1794 C 603 1794 624 1785 640 1767 C 656 1749 664 1726 664 1698 C 664 1667 656 1643 640 1625 C 624 1607 603 1598 576 1598 Z M 760 -29 C 668 -29 583 -10 505 27 C 427 65 359 118 303 186 C 246 254 201 337 169 435 C 137 532 121 640 121 758 C 121 876 137 983 169 1081 C 201 1178 246 1261 303 1329 C 359 1397 427 1449 505 1487 C 583 1525 668 1544 760 1544 C 850 1544 935 1525 1013 1487 C 1091 1449 1159 1397 1216 1329 C 1272 1261 1317 1178 1350 1081 C 1382 983 1399 876 1399 758 C 1399 640 1382 532 1350 435 C 1317 337 1272 254 1216 186 C 1159 118 1091 65 1013 27 C 935 -10 850 -29 760 -29 Z M 760 102 C 831 102 897 117 958 147 C 1018 177 1070 220 1114 276 C 1157 332 1191 400 1216 482 C 1240 564 1253 656 1253 758 C 1253 860 1240 951 1216 1032 C 1191 1113 1157 1182 1114 1238 C 1070 1294 1018 1336 958 1366 C 897 1396 831 1411 760 1411 C 688 1411 622 1396 562 1366 C 501 1336 449 1294 405 1238 C 361 1182 327 1113 303 1032 C 278 951 266 860 266 758 C 266 656 278 564 303 482 C 327 400 361 332 405 276 C 449 220 501 177 562 147 C 622 117 688 102 760 102 Z" unicode="Ö" />
<glyph horiz-adv-x="1303" d="M 649 565 L 297 211 L 213 297 L 565 647 L 213 1001 L 297 1085 L 649 731 L 1001 1085 L 1087 1001 L 733 647 L 1087 297 L 1004 213 L 649 565 Z" unicode="×" />
<glyph horiz-adv-x="1520" d="M 371 326 L 1090 1270 C 1046 1316 996 1352 940 1376 C 884 1400 824 1413 760 1413 C 688 1413 622 1398 561 1368 C 500 1338 448 1296 404 1240 C 360 1184 326 1116 301 1034 C 276 952 264 860 264 758 C 264 669 273 588 292 516 C 310 443 337 380 371 326 Z M 1151 1188 L 430 246 C 472 199 521 163 577 138 C 633 112 694 100 760 100 C 831 100 897 115 958 145 C 1018 175 1070 218 1114 274 C 1157 330 1191 399 1216 481 C 1240 563 1253 655 1253 758 C 1253 845 1244 925 1226 998 C 1208 1070 1183 1134 1151 1188 Z M 1389 1491 L 1241 1300 C 1291 1232 1329 1153 1357 1061 C 1385 969 1399 868 1399 758 C 1399 640 1383 532 1351 435 C 1319 337 1274 254 1218 186 C 1162 118 1094 65 1016 27 C 937 -10 852 -29 760 -29 C 680 -29 606 -14 536 14 C 466 42 404 83 350 135 L 217 -37 L 131 25 L 276 215 C 227 282 189 362 162 454 C 134 546 121 648 121 758 C 121 876 137 983 169 1081 C 201 1178 245 1261 301 1329 C 357 1397 425 1449 504 1487 C 582 1525 668 1544 760 1544 C 839 1544 913 1529 983 1501 C 1053 1472 1115 1432 1169 1380 L 1303 1552 L 1389 1491 Z" unicode="Ø" />
<glyph horiz-adv-x="1464" d="M 180 0 L 180 0 Z M 731 -29 C 639 -29 558 -14 489 13 C 420 41 363 80 317 129 C 271 177 237 235 214 301 C 191 367 180 437 180 512 L 180 1516 L 326 1516 L 326 532 C 326 471 334 414 350 362 C 366 310 390 265 423 227 C 456 189 498 159 550 137 C 602 115 663 104 733 104 C 803 104 863 114 915 136 C 966 157 1008 186 1041 224 C 1074 261 1099 306 1115 358 C 1131 410 1139 467 1139 528 L 1139 1516 L 1284 1516 L 1284 516 C 1284 441 1272 370 1249 304 C 1226 237 1192 179 1146 130 C 1100 81 1043 42 973 14 C 903 -14 823 -29 731 -29 Z M 717 1610 L 428 1929 L 614 1929 L 809 1610 L 717 1610 Z" unicode="Ù" />
<glyph horiz-adv-x="1464" d="M 180 0 L 180 0 Z M 639 1610 L 834 1929 L 1020 1929 L 731 1610 L 639 1610 Z M 731 -29 C 639 -29 558 -14 489 13 C 420 41 363 80 317 129 C 271 177 237 235 214 301 C 191 367 180 437 180 512 L 180 1516 L 326 1516 L 326 532 C 326 471 334 414 350 362 C 366 310 390 265 423 227 C 456 189 498 159 550 137 C 602 115 663 104 733 104 C 803 104 863 114 915 136 C 966 157 1008 186 1041 224 C 1074 261 1099 306 1115 358 C 1131 410 1139 467 1139 528 L 1139 1516 L 1284 1516 L 1284 516 C 1284 441 1272 370 1249 304 C 1226 237 1192 179 1146 130 C 1100 81 1043 42 973 14 C 903 -14 823 -29 731 -29 Z" unicode="Ú" />
<glyph horiz-adv-x="1464" d="M 180 0 L 180 0 Z M 414 1604 L 678 1929 L 784 1929 L 1049 1604 L 959 1604 L 729 1805 L 500 1604 L 414 1604 Z M 731 -29 C 639 -29 558 -14 489 13 C 420 41 363 80 317 129 C 271 177 237 235 214 301 C 191 367 180 437 180 512 L 180 1516 L 326 1516 L 326 532 C 326 471 334 414 350 362 C 366 310 390 265 423 227 C 456 189 498 159 550 137 C 602 115 663 104 733 104 C 803 104 863 114 915 136 C 966 157 1008 186 1041 224 C 1074 261 1099 306 1115 358 C 1131 410 1139 467 1139 528 L 1139 1516 L 1284 1516 L 1284 516 C 1284 441 1272 370 1249 304 C 1226 237 1192 179 1146 130 C 1100 81 1043 42 973 14 C 903 -14 823 -29 731 -29 Z" unicode="Û" />
<glyph horiz-adv-x="1464" d="M 180 0 L 180 0 Z M 909 1598 C 882 1598 861 1607 845 1625 C 829 1643 821 1667 821 1698 C 821 1726 829 1749 845 1767 C 861 1785 882 1794 909 1794 C 937 1794 959 1785 975 1767 C 991 1749 999 1726 999 1698 C 999 1667 991 1643 975 1625 C 959 1607 937 1598 909 1598 Z M 549 1598 C 521 1598 500 1607 484 1625 C 468 1643 461 1667 461 1698 C 461 1726 468 1749 484 1767 C 500 1785 521 1794 549 1794 C 576 1794 597 1785 613 1767 C 629 1749 637 1726 637 1698 C 637 1667 629 1643 613 1625 C 597 1607 576 1598 549 1598 Z M 731 -29 C 639 -29 558 -14 489 13 C 420 41 363 80 317 129 C 271 177 237 235 214 301 C 191 367 180 437 180 512 L 180 1516 L 326 1516 L 326 532 C 326 471 334 414 350 362 C 366 310 390 265 423 227 C 456 189 498 159 550 137 C 602 115 663 104 733 104 C 803 104 863 114 915 136 C 966 157 1008 186 1041 224 C 1074 261 1099 306 1115 358 C 1131 410 1139 467 1139 528 L 1139 1516 L 1284 1516 L 1284 516 C 1284 441 1272 370 1249 304 C 1226 237 1192 179 1146 130 C 1100 81 1043 42 973 14 C 903 -14 823 -29 731 -29 Z" unicode="Ü" />
<glyph horiz-adv-x="1266" d="M 59 0 L 59 0 Z M 705 0 L 559 0 L 559 668 L 59 1503 L 201 1528 L 635 793 L 1061 1516 L 1212 1516 L 705 668 L 705 0 Z M 530 1610 L 725 1929 L 911 1929 L 622 1610 L 530 1610 Z" unicode="Ý" />
<glyph horiz-adv-x="1325" d="M 340 0 L 195 0 L 195 1516 L 340 1516 L 340 1227 L 696 1227 C 778 1227 852 1218 918 1201 C 984 1184 1040 1159 1086 1125 C 1132 1091 1167 1048 1192 996 C 1216 944 1229 883 1229 813 C 1229 736 1215 670 1188 616 C 1161 561 1124 516 1076 482 C 1028 447 970 421 903 405 C 835 389 762 381 682 381 L 340 381 L 340 0 Z M 340 1094 L 340 512 L 690 512 C 815 512 911 534 979 579 C 1047 624 1081 701 1081 809 C 1081 911 1047 984 980 1028 C 912 1072 815 1094 688 1094 L 340 1094 Z" unicode="Þ" />
<glyph horiz-adv-x="1255" d="M 760 -23 C 698 -23 644 -15 598 1 C 551 17 513 35 483 57 L 528 168 C 556 148 588 131 625 116 C 662 101 706 94 758 94 C 796 94 831 101 863 116 C 895 131 922 153 945 181 C 968 209 986 243 999 283 C 1011 323 1018 369 1018 420 C 1018 484 1007 538 985 584 C 963 629 932 666 891 695 C 849 723 799 745 739 760 C 679 774 611 783 535 786 L 535 895 C 595 895 647 903 691 917 C 735 931 771 950 799 974 C 827 997 847 1025 861 1057 C 874 1089 881 1123 881 1159 C 881 1232 855 1290 804 1332 C 753 1374 684 1395 598 1395 C 504 1395 432 1366 380 1310 C 328 1253 303 1171 303 1065 L 303 0 L 164 0 L 164 1057 C 164 1129 174 1194 194 1252 C 214 1309 242 1357 280 1396 C 317 1435 362 1465 416 1485 C 470 1505 530 1516 598 1516 C 660 1516 718 1508 770 1493 C 822 1477 866 1455 902 1425 C 938 1395 967 1359 987 1315 C 1007 1271 1018 1221 1018 1165 C 1018 1089 995 1023 949 967 C 903 911 838 872 756 850 C 809 842 860 828 908 809 C 956 789 999 763 1035 729 C 1071 695 1099 653 1121 603 C 1142 553 1153 494 1153 426 C 1153 358 1143 297 1125 241 C 1106 185 1080 138 1046 99 C 1012 60 970 30 922 9 C 873 -12 819 -23 760 -23 Z" unicode="ß" />
<glyph horiz-adv-x="1120" d="M 98 0 L 98 0 Z M 434 98 C 509 98 580 113 647 143 C 713 173 774 215 829 268 L 829 604 C 711 583 613 560 536 536 C 459 512 399 486 355 458 C 311 430 280 401 263 369 C 246 337 238 304 238 270 C 238 214 255 171 290 142 C 324 112 372 98 434 98 Z M 403 -18 C 307 -18 233 6 179 55 C 125 104 98 170 98 254 C 98 306 110 356 135 402 C 160 448 201 489 258 527 C 314 565 390 599 484 629 C 578 659 693 684 829 705 L 829 760 C 829 833 809 888 771 925 C 733 962 678 981 608 981 C 524 981 451 965 389 934 C 326 902 266 861 209 811 L 129 899 C 193 958 263 1006 340 1044 C 416 1081 509 1100 618 1100 C 737 1100 825 1069 883 1008 C 940 946 969 862 969 756 L 969 0 L 844 0 L 829 154 C 767 98 700 56 630 26 C 559 -3 483 -18 403 -18 Z M 572 1194 L 283 1513 L 469 1513 L 664 1194 L 572 1194 Z" unicode="à" />
<glyph horiz-adv-x="1120" d="M 98 0 L 98 0 Z M 434 98 C 509 98 580 113 647 143 C 713 173 774 215 829 268 L 829 604 C 711 583 613 560 536 536 C 459 512 399 486 355 458 C 311 430 280 401 263 369 C 246 337 238 304 238 270 C 238 214 255 171 290 142 C 324 112 372 98 434 98 Z M 403 -18 C 307 -18 233 6 179 55 C 125 104 98 170 98 254 C 98 306 110 356 135 402 C 160 448 201 489 258 527 C 314 565 390 599 484 629 C 578 659 693 684 829 705 L 829 760 C 829 833 809 888 771 925 C 733 962 678 981 608 981 C 524 981 451 965 389 934 C 326 902 266 861 209 811 L 129 899 C 193 958 263 1006 340 1044 C 416 1081 509 1100 618 1100 C 737 1100 825 1069 883 1008 C 940 946 969 862 969 756 L 969 0 L 844 0 L 829 154 C 767 98 700 56 630 26 C 559 -3 483 -18 403 -18 Z M 500 1194 L 695 1513 L 881 1513 L 592 1194 L 500 1194 Z" unicode="á" />
<glyph horiz-adv-x="1120" d="M 98 0 L 98 0 Z M 434 98 C 509 98 580 113 647 143 C 713 173 774 215 829 268 L 829 604 C 711 583 613 560 536 536 C 459 512 399 486 355 458 C 311 430 280 401 263 369 C 246 337 238 304 238 270 C 238 214 255 171 290 142 C 324 112 372 98 434 98 Z M 403 -18 C 307 -18 233 6 179 55 C 125 104 98 170 98 254 C 98 306 110 356 135 402 C 160 448 201 489 258 527 C 314 565 390 599 484 629 C 578 659 693 684 829 705 L 829 760 C 829 833 809 888 771 925 C 733 962 678 981 608 981 C 524 981 451 965 389 934 C 326 902 266 861 209 811 L 129 899 C 193 958 263 1006 340 1044 C 416 1081 509 1100 618 1100 C 737 1100 825 1069 883 1008 C 940 946 969 862 969 756 L 969 0 L 844 0 L 829 154 C 767 98 700 56 630 26 C 559 -3 483 -18 403 -18 Z M 256 1188 L 520 1513 L 626 1513 L 891 1188 L 801 1188 L 571 1389 L 342 1188 L 256 1188 Z" unicode="â" />
<glyph horiz-adv-x="1120" d="M 98 0 L 98 0 Z M 434 98 C 509 98 580 113 647 143 C 713 173 774 215 829 268 L 829 604 C 711 583 613 560 536 536 C 459 512 399 486 355 458 C 311 430 280 401 263 369 C 246 337 238 304 238 270 C 238 214 255 171 290 142 C 324 112 372 98 434 98 Z M 403 -18 C 307 -18 233 6 179 55 C 125 104 98 170 98 254 C 98 306 110 356 135 402 C 160 448 201 489 258 527 C 314 565 390 599 484 629 C 578 659 693 684 829 705 L 829 760 C 829 833 809 888 771 925 C 733 962 678 981 608 981 C 524 981 451 965 389 934 C 326 902 266 861 209 811 L 129 899 C 193 958 263 1006 340 1044 C 416 1081 509 1100 618 1100 C 737 1100 825 1069 883 1008 C 940 946 969 862 969 756 L 969 0 L 844 0 L 829 154 C 767 98 700 56 630 26 C 559 -3 483 -18 403 -18 Z M 721 1188 C 692 1188 664 1194 637 1206 C 609 1218 583 1231 558 1245 C 532 1259 508 1273 484 1285 C 460 1297 438 1303 418 1303 C 388 1303 366 1293 354 1275 C 341 1257 335 1226 336 1184 L 246 1200 C 246 1272 260 1327 290 1363 C 319 1399 362 1417 418 1417 C 446 1417 474 1411 502 1399 C 529 1387 555 1374 581 1360 C 606 1346 630 1333 654 1321 C 678 1309 700 1303 721 1303 C 750 1303 771 1312 785 1330 C 798 1348 805 1378 805 1421 L 893 1405 C 893 1333 878 1278 849 1242 C 819 1206 777 1188 721 1188 Z" unicode="ã" />
<glyph horiz-adv-x="1120" d="M 98 0 L 98 0 Z M 434 98 C 509 98 580 113 647 143 C 713 173 774 215 829 268 L 829 604 C 711 583 613 560 536 536 C 459 512 399 486 355 458 C 311 430 280 401 263 369 C 246 337 238 304 238 270 C 238 214 255 171 290 142 C 324 112 372 98 434 98 Z M 403 -18 C 307 -18 233 6 179 55 C 125 104 98 170 98 254 C 98 306 110 356 135 402 C 160 448 201 489 258 527 C 314 565 390 599 484 629 C 578 659 693 684 829 705 L 829 760 C 829 833 809 888 771 925 C 733 962 678 981 608 981 C 524 981 451 965 389 934 C 326 902 266 861 209 811 L 129 899 C 193 958 263 1006 340 1044 C 416 1081 509 1100 618 1100 C 737 1100 825 1069 883 1008 C 940 946 969 862 969 756 L 969 0 L 844 0 L 829 154 C 767 98 700 56 630 26 C 559 -3 483 -18 403 -18 Z M 764 1182 C 737 1182 716 1191 700 1209 C 684 1227 676 1251 676 1282 C 676 1310 684 1333 700 1351 C 716 1369 737 1378 764 1378 C 792 1378 814 1369 830 1351 C 846 1333 854 1310 854 1282 C 854 1251 846 1227 830 1209 C 814 1191 792 1182 764 1182 Z M 404 1182 C 376 1182 355 1191 339 1209 C 323 1227 316 1251 316 1282 C 316 1310 323 1333 339 1351 C 355 1369 376 1378 404 1378 C 431 1378 452 1369 468 1351 C 484 1333 492 1310 492 1282 C 492 1251 484 1227 468 1209 C 452 1191 431 1182 404 1182 Z" unicode="ä" />
<glyph horiz-adv-x="1120" d="M 98 0 L 98 0 Z M 434 98 C 509 98 580 113 647 143 C 713 173 774 215 829 268 L 829 604 C 711 583 613 560 536 536 C 459 512 399 486 355 458 C 311 430 280 401 263 369 C 246 337 238 304 238 270 C 238 214 255 171 290 142 C 324 112 372 98 434 98 Z M 403 -18 C 307 -18 233 6 179 55 C 125 104 98 170 98 254 C 98 306 110 356 135 402 C 160 448 201 489 258 527 C 314 565 390 599 484 629 C 578 659 693 684 829 705 L 829 760 C 829 833 809 888 771 925 C 733 962 678 981 608 981 C 524 981 451 965 389 934 C 326 902 266 861 209 811 L 129 899 C 193 958 263 1006 340 1044 C 416 1081 509 1100 618 1100 C 737 1100 825 1069 883 1008 C 940 946 969 862 969 756 L 969 0 L 844 0 L 829 154 C 767 98 700 56 630 26 C 559 -3 483 -18 403 -18 Z M 590 1180 C 536 1180 491 1197 456 1233 C 421 1269 404 1313 404 1366 C 404 1419 421 1463 456 1499 C 491 1534 536 1552 590 1552 C 644 1552 688 1534 723 1499 C 758 1463 776 1419 776 1366 C 776 1313 758 1269 723 1233 C 688 1197 644 1180 590 1180 Z M 590 1251 C 621 1251 647 1261 668 1283 C 688 1304 699 1332 699 1366 C 699 1398 688 1426 668 1448 C 647 1470 621 1481 590 1481 C 558 1481 531 1470 511 1448 C 491 1426 481 1398 481 1366 C 481 1332 491 1304 511 1283 C 531 1261 558 1251 590 1251 Z" unicode="å" />
<glyph horiz-adv-x="1831" d="M 403 -23 C 307 -23 233 1 179 50 C 125 98 98 164 98 248 C 98 300 110 350 134 397 C 158 443 199 486 255 524 C 311 562 386 597 480 628 C 573 658 688 684 825 705 L 825 760 C 825 832 806 886 769 924 C 732 962 679 981 610 981 C 525 981 451 965 389 934 C 327 902 267 861 209 811 L 129 899 C 193 958 263 1006 340 1044 C 416 1081 510 1100 621 1100 C 712 1100 782 1079 832 1037 C 881 995 913 943 928 879 C 945 910 966 939 991 967 C 1015 994 1043 1017 1074 1037 C 1104 1057 1138 1072 1174 1083 C 1210 1094 1248 1100 1288 1100 C 1350 1100 1409 1088 1463 1064 C 1517 1040 1563 1004 1603 957 C 1642 910 1673 851 1695 781 C 1717 711 1729 630 1729 539 L 1729 516 L 958 516 C 958 448 968 388 987 336 C 1006 283 1032 239 1064 204 C 1096 168 1133 141 1176 123 C 1219 105 1265 96 1315 96 C 1379 96 1438 109 1492 137 C 1546 165 1599 205 1651 258 L 1720 164 C 1658 102 1595 55 1531 24 C 1467 -7 1391 -23 1305 -23 C 1263 -23 1223 -18 1183 -8 C 1143 1 1105 15 1070 35 C 1034 55 1002 79 972 109 C 942 139 916 173 895 213 C 825 141 749 83 667 41 C 585 -1 497 -23 403 -23 Z M 961 625 L 1589 625 C 1585 675 1577 721 1563 765 C 1549 809 1529 846 1504 878 C 1479 910 1448 935 1412 953 C 1376 971 1334 981 1286 981 C 1248 981 1210 973 1174 959 C 1138 944 1105 922 1076 893 C 1046 863 1021 826 1001 781 C 981 736 967 684 961 625 Z M 434 94 C 510 94 584 111 654 145 C 724 179 792 231 858 301 C 847 333 838 367 832 405 C 826 443 823 483 823 526 C 822 539 822 552 823 566 C 823 579 824 592 825 604 C 705 584 607 561 531 537 C 455 512 395 485 352 457 C 308 429 278 398 262 366 C 246 333 238 299 238 264 C 238 209 255 167 290 138 C 324 108 372 94 434 94 Z" unicode="æ" />
<glyph horiz-adv-x="1092" d="M 102 0 L 102 0 Z M 569 -23 C 507 -23 448 -10 392 14 C 335 39 285 75 243 123 C 200 171 166 230 140 300 C 114 370 102 449 102 539 C 102 635 115 718 143 789 C 171 860 207 918 252 964 C 297 1010 349 1044 407 1066 C 465 1088 524 1100 584 1100 C 632 1100 677 1093 718 1081 C 758 1068 795 1050 828 1028 C 860 1005 889 978 915 947 C 940 915 962 881 981 844 L 870 776 C 839 841 801 891 757 927 C 712 963 653 981 580 981 C 540 981 500 973 460 957 C 420 941 384 915 352 880 C 320 845 294 799 274 743 C 254 687 244 619 244 539 C 244 470 252 408 269 353 C 286 297 309 251 339 213 C 369 175 404 146 445 126 C 486 106 530 96 578 96 C 650 96 709 113 755 149 C 801 185 843 237 879 307 L 983 240 C 938 154 882 89 814 44 C 746 0 665 -23 569 -23 Z M 567 -399 C 521 -399 476 -392 432 -379 C 388 -365 349 -347 313 -324 L 352 -264 C 382 -284 414 -300 448 -310 C 482 -320 516 -326 551 -326 C 605 -326 644 -317 668 -300 C 692 -283 704 -259 704 -227 C 704 -204 696 -186 682 -174 C 668 -162 646 -156 618 -156 C 595 -156 575 -160 557 -168 C 539 -176 524 -185 510 -197 L 452 -170 L 506 0 L 592 0 L 559 -111 C 573 -101 589 -94 607 -88 C 625 -82 645 -80 669 -80 C 707 -80 741 -91 771 -115 C 800 -138 815 -173 815 -219 C 815 -250 808 -277 795 -300 C 781 -323 763 -342 741 -356 C 719 -370 692 -381 662 -388 C 632 -395 600 -399 567 -399 Z" unicode="ç" />
<glyph horiz-adv-x="1118" d="M 102 0 L 102 0 Z M 596 -23 C 528 -23 464 -10 404 13 C 344 37 291 73 247 120 C 202 167 167 226 141 297 C 115 367 102 449 102 541 C 102 635 116 718 144 789 C 172 859 208 917 253 963 C 297 1009 348 1043 405 1066 C 461 1088 518 1100 575 1100 C 637 1100 695 1088 749 1064 C 803 1040 849 1004 889 957 C 928 910 959 851 982 781 C 1004 711 1016 630 1016 539 L 1016 512 L 244 512 C 244 446 254 387 272 335 C 290 283 314 240 346 205 C 377 169 414 142 458 124 C 501 105 548 96 598 96 C 669 96 732 109 787 137 C 841 164 894 204 944 256 L 1014 164 C 954 102 892 55 827 24 C 762 -7 685 -23 596 -23 Z M 246 623 L 879 623 C 875 673 865 721 851 765 C 837 809 817 846 792 878 C 767 910 736 935 700 953 C 663 971 621 981 573 981 C 534 981 496 973 460 959 C 423 944 390 922 360 892 C 330 862 305 825 285 780 C 265 735 252 683 246 623 Z M 541 1194 L 252 1513 L 438 1513 L 633 1194 L 541 1194 Z" unicode="è" />
<glyph horiz-adv-x="1118" d="M 102 0 L 102 0 Z M 502 1194 L 697 1513 L 883 1513 L 594 1194 L 502 1194 Z M 596 -23 C 528 -23 464 -10 404 13 C 344 37 291 73 247 120 C 202 167 167 226 141 297 C 115 367 102 449 102 541 C 102 635 116 718 144 789 C 172 859 208 917 253 963 C 297 1009 348 1043 405 1066 C 461 1088 518 1100 575 1100 C 637 1100 695 1088 749 1064 C 803 1040 849 1004 889 957 C 928 910 959 851 982 781 C 1004 711 1016 630 1016 539 L 1016 512 L 244 512 C 244 446 254 387 272 335 C 290 283 314 240 346 205 C 377 169 414 142 458 124 C 501 105 548 96 598 96 C 669 96 732 109 787 137 C 841 164 894 204 944 256 L 1014 164 C 954 102 892 55 827 24 C 762 -7 685 -23 596 -23 Z M 246 623 L 879 623 C 875 673 865 721 851 765 C 837 809 817 846 792 878 C 767 910 736 935 700 953 C 663 971 621 981 573 981 C 534 981 496 973 460 959 C 423 944 390 922 360 892 C 330 862 305 825 285 780 C 265 735 252 683 246 623 Z" unicode="é" />
<glyph horiz-adv-x="1118" d="M 102 0 L 102 0 Z M 256 1188 L 520 1513 L 626 1513 L 891 1188 L 801 1188 L 571 1389 L 342 1188 L 256 1188 Z M 596 -23 C 528 -23 464 -10 404 13 C 344 37 291 73 247 120 C 202 167 167 226 141 297 C 115 367 102 449 102 541 C 102 635 116 718 144 789 C 172 859 208 917 253 963 C 297 1009 348 1043 405 1066 C 461 1088 518 1100 575 1100 C 637 1100 695 1088 749 1064 C 803 1040 849 1004 889 957 C 928 910 959 851 982 781 C 1004 711 1016 630 1016 539 L 1016 512 L 244 512 C 244 446 254 387 272 335 C 290 283 314 240 346 205 C 377 169 414 142 458 124 C 501 105 548 96 598 96 C 669 96 732 109 787 137 C 841 164 894 204 944 256 L 1014 164 C 954 102 892 55 827 24 C 762 -7 685 -23 596 -23 Z M 246 623 L 879 623 C 875 673 865 721 851 765 C 837 809 817 846 792 878 C 767 910 736 935 700 953 C 663 971 621 981 573 981 C 534 981 496 973 460 959 C 423 944 390 922 360 892 C 330 862 305 825 285 780 C 265 735 252 683 246 623 Z" unicode="ê" />
<glyph horiz-adv-x="1118" d="M 102 0 L 102 0 Z M 745 1182 C 718 1182 697 1191 681 1209 C 665 1227 657 1251 657 1282 C 657 1310 665 1333 681 1351 C 697 1369 718 1378 745 1378 C 773 1378 795 1369 811 1351 C 827 1333 835 1310 835 1282 C 835 1251 827 1227 811 1209 C 795 1191 773 1182 745 1182 Z M 385 1182 C 357 1182 336 1191 320 1209 C 304 1227 297 1251 297 1282 C 297 1310 304 1333 320 1351 C 336 1369 357 1378 385 1378 C 412 1378 433 1369 449 1351 C 465 1333 473 1310 473 1282 C 473 1251 465 1227 449 1209 C 433 1191 412 1182 385 1182 Z M 596 -23 C 528 -23 464 -10 404 13 C 344 37 291 73 247 120 C 202 167 167 226 141 297 C 115 367 102 449 102 541 C 102 635 116 718 144 789 C 172 859 208 917 253 963 C 297 1009 348 1043 405 1066 C 461 1088 518 1100 575 1100 C 637 1100 695 1088 749 1064 C 803 1040 849 1004 889 957 C 928 910 959 851 982 781 C 1004 711 1016 630 1016 539 L 1016 512 L 244 512 C 244 446 254 387 272 335 C 290 283 314 240 346 205 C 377 169 414 142 458 124 C 501 105 548 96 598 96 C 669 96 732 109 787 137 C 841 164 894 204 944 256 L 1014 164 C 954 102 892 55 827 24 C 762 -7 685 -23 596 -23 Z M 246 623 L 879 623 C 875 673 865 721 851 765 C 837 809 817 846 792 878 C 767 910 736 935 700 953 C 663 971 621 981 573 981 C 534 981 496 973 460 959 C 423 944 390 922 360 892 C 330 862 305 825 285 780 C 265 735 252 683 246 623 Z" unicode="ë" />
<glyph horiz-adv-x="492" d="M 0 0 L 0 0 Z M 317 0 L 176 0 L 176 1077 L 317 1077 L 317 0 Z M 224 1194 L -65 1513 L 121 1513 L 316 1194 L 224 1194 Z" unicode="ì" />
<glyph horiz-adv-x="492" d="M 176 0 L 176 0 Z M 211 1194 L 406 1513 L 592 1513 L 303 1194 L 211 1194 Z M 317 0 L 176 0 L 176 1077 L 317 1077 L 317 0 Z" unicode="í" />
<glyph horiz-adv-x="492" d="M 0 0 L 0 0 Z M -71 1188 L 193 1513 L 299 1513 L 564 1188 L 474 1188 L 244 1389 L 15 1188 L -71 1188 Z M 317 0 L 176 0 L 176 1077 L 317 1077 L 317 0 Z" unicode="î" />
<glyph horiz-adv-x="492" d="M 0 0 L 0 0 Z M 424 1182 C 397 1182 376 1191 360 1209 C 344 1227 336 1251 336 1282 C 336 1310 344 1333 360 1351 C 376 1369 397 1378 424 1378 C 452 1378 474 1369 490 1351 C 506 1333 514 1310 514 1282 C 514 1251 506 1227 490 1209 C 474 1191 452 1182 424 1182 Z M 64 1182 C 36 1182 15 1191 0 1209 C -16 1227 -24 1251 -24 1282 C -24 1310 -16 1333 0 1351 C 15 1369 36 1378 64 1378 C 91 1378 112 1369 128 1351 C 144 1333 152 1310 152 1282 C 152 1251 144 1227 128 1209 C 112 1191 91 1182 64 1182 Z M 317 0 L 176 0 L 176 1077 L 317 1077 L 317 0 Z" unicode="ï" />
<glyph horiz-adv-x="1182" d="M 592 -23 C 523 -23 459 -10 399 15 C 339 41 287 77 243 125 C 199 172 165 230 140 298 C 114 366 102 443 102 528 C 102 613 114 689 139 756 C 163 823 197 879 239 924 C 281 969 331 1003 389 1027 C 447 1051 509 1063 575 1063 C 643 1063 708 1045 770 1010 C 832 974 881 929 918 874 C 902 935 880 997 851 1059 C 821 1121 781 1181 729 1239 L 506 1153 L 463 1251 L 651 1321 C 627 1342 603 1362 577 1381 C 551 1400 523 1419 494 1438 L 561 1530 C 599 1508 637 1485 673 1459 C 709 1433 742 1406 774 1376 L 979 1454 L 1022 1356 L 852 1290 C 921 1206 976 1103 1017 981 C 1058 858 1079 710 1079 537 C 1079 451 1066 374 1041 304 C 1016 234 982 176 938 128 C 894 80 843 42 783 16 C 723 -9 660 -23 592 -23 Z M 592 96 C 644 96 692 106 735 128 C 778 149 815 179 845 217 C 875 255 898 300 914 354 C 930 407 938 466 938 530 C 938 588 930 642 914 693 C 898 744 876 788 846 826 C 816 863 780 892 737 914 C 694 935 646 946 592 946 C 538 946 490 936 447 916 C 403 896 367 867 337 831 C 307 795 284 751 268 700 C 252 648 244 592 244 530 C 244 471 251 415 266 362 C 281 309 303 263 333 224 C 362 184 398 153 442 130 C 485 107 535 96 592 96 Z" unicode="ð" />
<glyph horiz-adv-x="1190" d="M 164 0 L 164 0 Z M 305 0 L 164 0 L 164 1077 L 291 1077 L 305 907 C 331 933 360 958 391 982 C 421 1006 453 1026 487 1044 C 521 1061 557 1075 595 1085 C 633 1095 672 1100 713 1100 C 821 1100 902 1072 956 1016 C 1010 960 1038 882 1038 782 L 1038 0 L 897 0 L 897 754 C 897 829 879 886 845 924 C 810 962 755 981 680 981 C 612 981 547 964 486 930 C 425 896 365 851 305 793 L 305 0 Z M 762 1188 C 733 1188 705 1194 678 1206 C 650 1218 624 1231 599 1245 C 573 1259 549 1273 525 1285 C 501 1297 479 1303 459 1303 C 429 1303 407 1293 395 1275 C 382 1257 376 1226 377 1184 L 287 1200 C 287 1272 301 1327 331 1363 C 360 1399 403 1417 459 1417 C 487 1417 515 1411 543 1399 C 570 1387 596 1374 622 1360 C 647 1346 671 1333 695 1321 C 719 1309 741 1303 762 1303 C 791 1303 812 1312 826 1330 C 839 1348 846 1378 846 1421 L 934 1405 C 934 1333 919 1278 890 1242 C 860 1206 818 1188 762 1188 Z" unicode="ñ" />
<glyph horiz-adv-x="1182" d="M 102 0 L 102 0 Z M 592 -23 C 526 -23 463 -10 404 14 C 344 39 292 75 248 123 C 203 171 167 230 141 300 C 115 370 102 449 102 539 C 102 628 115 708 141 778 C 167 848 203 906 247 954 C 291 1002 343 1038 403 1063 C 463 1087 526 1100 592 1100 C 658 1100 720 1087 779 1063 C 838 1038 890 1002 934 954 C 978 906 1014 848 1040 778 C 1066 708 1079 628 1079 539 C 1079 449 1066 370 1040 300 C 1014 230 978 171 934 123 C 890 75 838 39 779 14 C 720 -10 658 -23 592 -23 Z M 592 98 C 646 98 694 109 737 131 C 780 153 816 184 846 223 C 876 262 898 309 914 363 C 930 417 938 475 938 539 C 938 597 930 653 916 707 C 901 761 879 808 850 848 C 821 888 785 919 742 943 C 698 967 648 979 592 979 C 537 979 488 968 445 946 C 401 924 365 893 335 854 C 305 815 283 769 267 715 C 251 661 244 602 244 539 C 244 479 251 422 266 368 C 280 314 302 268 331 228 C 359 188 395 157 439 133 C 483 109 534 98 592 98 Z M 563 1194 L 274 1513 L 460 1513 L 655 1194 L 563 1194 Z" unicode="ò" />
<glyph horiz-adv-x="1182" d="M 102 0 L 102 0 Z M 520 1194 L 715 1513 L 901 1513 L 612 1194 L 520 1194 Z M 592 -23 C 526 -23 463 -10 404 14 C 344 39 292 75 248 123 C 203 171 167 230 141 300 C 115 370 102 449 102 539 C 102 628 115 708 141 778 C 167 848 203 906 247 954 C 291 1002 343 1038 403 1063 C 463 1087 526 1100 592 1100 C 658 1100 720 1087 779 1063 C 838 1038 890 1002 934 954 C 978 906 1014 848 1040 778 C 1066 708 1079 628 1079 539 C 1079 449 1066 370 1040 300 C 1014 230 978 171 934 123 C 890 75 838 39 779 14 C 720 -10 658 -23 592 -23 Z M 592 98 C 646 98 694 109 737 131 C 780 153 816 184 846 223 C 876 262 898 309 914 363 C 930 417 938 475 938 539 C 938 597 930 653 916 707 C 901 761 879 808 850 848 C 821 888 785 919 742 943 C 698 967 648 979 592 979 C 537 979 488 968 445 946 C 401 924 365 893 335 854 C 305 815 283 769 267 715 C 251 661 244 602 244 539 C 244 479 251 422 266 368 C 280 314 302 268 331 228 C 359 188 395 157 439 133 C 483 109 534 98 592 98 Z" unicode="ó" />
<glyph horiz-adv-x="1182" d="M 102 0 L 102 0 Z M 275 1188 L 539 1513 L 645 1513 L 910 1188 L 820 1188 L 590 1389 L 361 1188 L 275 1188 Z M 592 -23 C 526 -23 463 -10 404 14 C 344 39 292 75 248 123 C 203 171 167 230 141 300 C 115 370 102 449 102 539 C 102 628 115 708 141 778 C 167 848 203 906 247 954 C 291 1002 343 1038 403 1063 C 463 1087 526 1100 592 1100 C 658 1100 720 1087 779 1063 C 838 1038 890 1002 934 954 C 978 906 1014 848 1040 778 C 1066 708 1079 628 1079 539 C 1079 449 1066 370 1040 300 C 1014 230 978 171 934 123 C 890 75 838 39 779 14 C 720 -10 658 -23 592 -23 Z M 592 98 C 646 98 694 109 737 131 C 780 153 816 184 846 223 C 876 262 898 309 914 363 C 930 417 938 475 938 539 C 938 597 930 653 916 707 C 901 761 879 808 850 848 C 821 888 785 919 742 943 C 698 967 648 979 592 979 C 537 979 488 968 445 946 C 401 924 365 893 335 854 C 305 815 283 769 267 715 C 251 661 244 602 244 539 C 244 479 251 422 266 368 C 280 314 302 268 331 228 C 359 188 395 157 439 133 C 483 109 534 98 592 98 Z" unicode="ô" />
<glyph horiz-adv-x="1182" d="M 102 0 L 102 0 Z M 592 -23 C 526 -23 463 -10 404 14 C 344 39 292 75 248 123 C 203 171 167 230 141 300 C 115 370 102 449 102 539 C 102 628 115 708 141 778 C 167 848 203 906 247 954 C 291 1002 343 1038 403 1063 C 463 1087 526 1100 592 1100 C 658 1100 720 1087 779 1063 C 838 1038 890 1002 934 954 C 978 906 1014 848 1040 778 C 1066 708 1079 628 1079 539 C 1079 449 1066 370 1040 300 C 1014 230 978 171 934 123 C 890 75 838 39 779 14 C 720 -10 658 -23 592 -23 Z M 592 98 C 646 98 694 109 737 131 C 780 153 816 184 846 223 C 876 262 898 309 914 363 C 930 417 938 475 938 539 C 938 597 930 653 916 707 C 901 761 879 808 850 848 C 821 888 785 919 742 943 C 698 967 648 979 592 979 C 537 979 488 968 445 946 C 401 924 365 893 335 854 C 305 815 283 769 267 715 C 251 661 244 602 244 539 C 244 479 251 422 266 368 C 280 314 302 268 331 228 C 359 188 395 157 439 133 C 483 109 534 98 592 98 Z M 746 1188 C 717 1188 689 1194 662 1206 C 634 1218 608 1231 583 1245 C 557 1259 533 1273 509 1285 C 485 1297 463 1303 443 1303 C 413 1303 391 1293 379 1275 C 366 1257 360 1226 361 1184 L 271 1200 C 271 1272 285 1327 315 1363 C 344 1399 387 1417 443 1417 C 471 1417 499 1411 527 1399 C 554 1387 580 1374 606 1360 C 631 1346 655 1333 679 1321 C 703 1309 725 1303 746 1303 C 775 1303 796 1312 810 1330 C 823 1348 830 1378 830 1421 L 918 1405 C 918 1333 903 1278 874 1242 C 844 1206 802 1188 746 1188 Z" unicode="õ" />
<glyph horiz-adv-x="1182" d="M 102 0 L 102 0 Z M 768 1182 C 741 1182 720 1191 704 1209 C 688 1227 680 1251 680 1282 C 680 1310 688 1333 704 1351 C 720 1369 741 1378 768 1378 C 796 1378 818 1369 834 1351 C 850 1333 858 1310 858 1282 C 858 1251 850 1227 834 1209 C 818 1191 796 1182 768 1182 Z M 408 1182 C 380 1182 359 1191 343 1209 C 327 1227 320 1251 320 1282 C 320 1310 327 1333 343 1351 C 359 1369 380 1378 408 1378 C 435 1378 456 1369 472 1351 C 488 1333 496 1310 496 1282 C 496 1251 488 1227 472 1209 C 456 1191 435 1182 408 1182 Z M 592 -23 C 526 -23 463 -10 404 14 C 344 39 292 75 248 123 C 203 171 167 230 141 300 C 115 370 102 449 102 539 C 102 628 115 708 141 778 C 167 848 203 906 247 954 C 291 1002 343 1038 403 1063 C 463 1087 526 1100 592 1100 C 658 1100 720 1087 779 1063 C 838 1038 890 1002 934 954 C 978 906 1014 848 1040 778 C 1066 708 1079 628 1079 539 C 1079 449 1066 370 1040 300 C 1014 230 978 171 934 123 C 890 75 838 39 779 14 C 720 -10 658 -23 592 -23 Z M 592 98 C 646 98 694 109 737 131 C 780 153 816 184 846 223 C 876 262 898 309 914 363 C 930 417 938 475 938 539 C 938 597 930 653 916 707 C 901 761 879 808 850 848 C 821 888 785 919 742 943 C 698 967 648 979 592 979 C 537 979 488 968 445 946 C 401 924 365 893 335 854 C 305 815 283 769 267 715 C 251 661 244 602 244 539 C 244 479 251 422 266 368 C 280 314 302 268 331 228 C 359 188 395 157 439 133 C 483 109 534 98 592 98 Z" unicode="ö" />
<glyph horiz-adv-x="1303" d="M 645 934 C 616 934 593 943 577 961 C 561 979 553 1003 553 1034 C 553 1064 561 1089 577 1107 C 593 1125 616 1135 645 1135 C 673 1135 696 1125 714 1107 C 732 1089 741 1064 741 1034 C 741 1003 732 979 714 961 C 696 943 673 934 645 934 Z M 1169 612 L 133 612 L 133 735 L 1169 735 L 1169 612 Z M 645 207 C 616 207 593 216 577 234 C 561 252 553 277 553 309 C 553 339 561 364 577 382 C 593 400 616 410 645 410 C 673 410 696 400 714 382 C 732 364 741 339 741 309 C 741 277 732 252 714 234 C 696 216 673 207 645 207 Z" unicode="÷" />
<glyph horiz-adv-x="1182" d="M 322 244 L 803 905 C 775 929 744 948 708 961 C 672 974 634 981 592 981 C 537 981 488 970 445 948 C 401 926 365 895 335 856 C 305 817 282 771 266 717 C 250 663 242 604 242 541 C 242 485 248 431 262 379 C 275 327 295 282 322 244 Z M 862 831 L 381 172 C 407 147 438 128 473 114 C 508 100 548 94 592 94 C 646 94 694 105 738 127 C 781 149 817 180 847 220 C 877 259 900 306 916 361 C 932 416 940 476 940 541 C 940 595 933 647 920 698 C 906 748 887 793 862 831 Z M 1059 1083 L 950 940 C 990 892 1021 834 1044 767 C 1067 699 1079 623 1079 539 C 1079 449 1066 370 1040 300 C 1014 230 978 171 934 123 C 890 75 838 39 779 14 C 720 -10 658 -23 592 -23 C 538 -23 487 -15 439 1 C 391 17 347 40 307 70 L 203 -68 L 127 -8 L 236 137 C 194 185 161 242 137 310 C 113 378 102 454 102 539 C 102 628 115 708 141 778 C 167 848 203 906 247 954 C 291 1002 343 1038 403 1063 C 463 1087 526 1100 592 1100 C 644 1100 694 1092 743 1077 C 791 1061 836 1038 877 1008 L 979 1147 L 1059 1083 Z" unicode="ø" />
<glyph horiz-adv-x="1190" d="M 154 0 L 154 0 Z M 477 -23 C 370 -23 289 5 235 61 C 181 117 154 195 154 295 L 154 1077 L 295 1077 L 295 324 C 295 248 312 192 346 154 C 380 116 434 98 510 98 C 578 98 642 115 703 149 C 764 183 825 229 887 287 L 887 1077 L 1028 1077 L 1028 0 L 901 0 L 887 170 C 859 144 830 119 800 96 C 769 72 737 52 703 34 C 669 16 633 2 595 -7 C 557 -17 517 -23 477 -23 Z M 574 1194 L 285 1513 L 471 1513 L 666 1194 L 574 1194 Z" unicode="ù" />
<glyph horiz-adv-x="1190" d="M 154 0 L 154 0 Z M 518 1194 L 713 1513 L 899 1513 L 610 1194 L 518 1194 Z M 477 -23 C 370 -23 289 5 235 61 C 181 117 154 195 154 295 L 154 1077 L 295 1077 L 295 324 C 295 248 312 192 346 154 C 380 116 434 98 510 98 C 578 98 642 115 703 149 C 764 183 825 229 887 287 L 887 1077 L 1028 1077 L 1028 0 L 901 0 L 887 170 C 859 144 830 119 800 96 C 769 72 737 52 703 34 C 669 16 633 2 595 -7 C 557 -17 517 -23 477 -23 Z" unicode="ú" />
<glyph horiz-adv-x="1190" d="M 154 0 L 154 0 Z M 273 1188 L 537 1513 L 643 1513 L 908 1188 L 818 1188 L 588 1389 L 359 1188 L 273 1188 Z M 477 -23 C 370 -23 289 5 235 61 C 181 117 154 195 154 295 L 154 1077 L 295 1077 L 295 324 C 295 248 312 192 346 154 C 380 116 434 98 510 98 C 578 98 642 115 703 149 C 764 183 825 229 887 287 L 887 1077 L 1028 1077 L 1028 0 L 901 0 L 887 170 C 859 144 830 119 800 96 C 769 72 737 52 703 34 C 669 16 633 2 595 -7 C 557 -17 517 -23 477 -23 Z" unicode="û" />
<glyph horiz-adv-x="1190" d="M 154 0 L 154 0 Z M 772 1182 C 745 1182 724 1191 708 1209 C 692 1227 684 1251 684 1282 C 684 1310 692 1333 708 1351 C 724 1369 745 1378 772 1378 C 800 1378 822 1369 838 1351 C 854 1333 862 1310 862 1282 C 862 1251 854 1227 838 1209 C 822 1191 800 1182 772 1182 Z M 412 1182 C 384 1182 363 1191 347 1209 C 331 1227 324 1251 324 1282 C 324 1310 331 1333 347 1351 C 363 1369 384 1378 412 1378 C 439 1378 460 1369 476 1351 C 492 1333 500 1310 500 1282 C 500 1251 492 1227 476 1209 C 460 1191 439 1182 412 1182 Z M 477 -23 C 370 -23 289 5 235 61 C 181 117 154 195 154 295 L 154 1077 L 295 1077 L 295 324 C 295 248 312 192 346 154 C 380 116 434 98 510 98 C 578 98 642 115 703 149 C 764 183 825 229 887 287 L 887 1077 L 1028 1077 L 1028 0 L 901 0 L 887 170 C 859 144 830 119 800 96 C 769 72 737 52 703 34 C 669 16 633 2 595 -7 C 557 -17 517 -23 477 -23 Z" unicode="ü" />
<glyph horiz-adv-x="1079" d="M 47 0 L 47 0 Z M 201 -412 C 171 -412 144 -410 121 -408 C 97 -406 76 -402 57 -397 L 47 -274 C 65 -278 87 -283 113 -287 C 138 -291 168 -293 203 -293 C 262 -293 308 -279 342 -252 C 375 -224 403 -182 426 -125 L 471 -6 L 59 1065 L 201 1092 L 541 168 L 545 168 L 879 1077 L 1026 1077 L 561 -125 C 542 -173 522 -215 502 -251 C 482 -287 458 -316 431 -340 C 403 -364 371 -382 334 -394 C 296 -406 252 -412 201 -412 Z M 469 1194 L 664 1513 L 850 1513 L 561 1194 L 469 1194 Z" unicode="ý" />
<glyph horiz-adv-x="1214" d="M 645 100 C 689 100 731 108 771 125 C 811 142 845 168 874 204 C 903 240 926 285 943 341 C 960 397 969 463 969 539 C 969 613 960 677 943 733 C 925 788 902 834 872 870 C 842 906 808 934 768 952 C 728 970 685 979 641 979 C 575 979 516 963 464 931 C 412 899 359 857 305 803 L 305 274 C 360 218 414 175 468 145 C 522 115 581 100 645 100 Z M 305 -399 L 164 -420 L 164 1505 L 305 1526 L 305 926 C 326 949 349 971 375 993 C 400 1014 427 1032 457 1048 C 486 1064 518 1076 553 1086 C 588 1095 626 1100 666 1100 C 727 1100 785 1088 839 1065 C 893 1042 940 1008 980 962 C 1020 916 1051 857 1075 787 C 1098 717 1110 635 1110 541 C 1110 447 1098 364 1074 294 C 1050 224 1018 166 978 120 C 938 74 890 39 836 16 C 781 -6 723 -18 662 -18 C 588 -18 522 -2 464 28 C 406 58 353 98 305 147 L 305 -399 Z" unicode="þ" />
<glyph horiz-adv-x="1079" d="M 47 0 L 47 0 Z M 201 -412 C 171 -412 144 -410 121 -408 C 97 -406 76 -402 57 -397 L 47 -274 C 65 -278 87 -283 113 -287 C 138 -291 168 -293 203 -293 C 262 -293 308 -279 342 -252 C 375 -224 403 -182 426 -125 L 471 -6 L 59 1065 L 201 1092 L 541 168 L 545 168 L 879 1077 L 1026 1077 L 561 -125 C 542 -173 522 -215 502 -251 C 482 -287 458 -316 431 -340 C 403 -364 371 -382 334 -394 C 296 -406 252 -412 201 -412 Z M 721 1182 C 694 1182 673 1191 657 1209 C 641 1227 633 1251 633 1282 C 633 1310 641 1333 657 1351 C 673 1369 694 1378 721 1378 C 749 1378 771 1369 787 1351 C 803 1333 811 1310 811 1282 C 811 1251 803 1227 787 1209 C 771 1191 749 1182 721 1182 Z M 361 1182 C 333 1182 312 1191 296 1209 C 280 1227 273 1251 273 1282 C 273 1310 280 1333 296 1351 C 312 1369 333 1378 361 1378 C 388 1378 409 1369 425 1351 C 441 1333 449 1310 449 1282 C 449 1251 441 1227 425 1209 C 409 1191 388 1182 361 1182 Z" unicode="ÿ" />
<glyph horiz-adv-x="1376" d="" unicode="Ā" />
<glyph horiz-adv-x="1120" d="" unicode="ā" />
<glyph horiz-adv-x="1376" d="" unicode="Ă" />
<glyph horiz-adv-x="1120" d="" unicode="ă" />
<glyph horiz-adv-x="1376" d="" unicode="Ą" />
<glyph horiz-adv-x="1120" d="" unicode="ą" />
<glyph horiz-adv-x="1432" d="" unicode="Ć" />
<glyph horiz-adv-x="1087" d="" unicode="ć" />
<glyph horiz-adv-x="1432" d="" unicode="Ĉ" />
<glyph horiz-adv-x="1087" d="" unicode="ĉ" />
<glyph horiz-adv-x="1432" d="" unicode="Ċ" />
<glyph horiz-adv-x="1087" d="" unicode="ċ" />
<glyph horiz-adv-x="1432" d="" unicode="Č" />
<glyph horiz-adv-x="1087" d="" unicode="č" />
<glyph horiz-adv-x="1452" d="" unicode="Ď" />
<glyph horiz-adv-x="1214" d="" unicode="ď" />
<glyph horiz-adv-x="1452" d="" unicode="Đ" />
<glyph horiz-adv-x="1214" d="" unicode="đ" />
<glyph horiz-adv-x="1237" d="" unicode="Ē" />
<glyph horiz-adv-x="1118" d="" unicode="ē" />
<glyph horiz-adv-x="1237" d="" unicode="Ĕ" />
<glyph horiz-adv-x="1118" d="" unicode="ĕ" />
<glyph horiz-adv-x="1237" d="" unicode="Ė" />
<glyph horiz-adv-x="1118" d="" unicode="ė" />
<glyph horiz-adv-x="1237" d="" unicode="Ę" />
<glyph horiz-adv-x="1118" d="" unicode="ę" />
<glyph horiz-adv-x="1237" d="" unicode="Ě" />
<glyph horiz-adv-x="1118" d="" unicode="ě" />
<glyph horiz-adv-x="1481" d="" unicode="Ĝ" />
<glyph horiz-adv-x="1159" d="" unicode="ĝ" />
<glyph horiz-adv-x="1481" d="" unicode="Ğ" />
<glyph horiz-adv-x="1159" d="" unicode="ğ" />
<glyph horiz-adv-x="1481" d="" unicode="Ġ" />
<glyph horiz-adv-x="1159" d="" unicode="ġ" />
<glyph horiz-adv-x="1481" d="" unicode="Ģ" />
<glyph horiz-adv-x="1159" d="" unicode="ģ" />
<glyph horiz-adv-x="1499" d="" unicode="Ĥ" />
<glyph horiz-adv-x="1190" d="" unicode="ĥ" />
<glyph horiz-adv-x="1499" d="" unicode="Ħ" />
<glyph horiz-adv-x="1190" d="" unicode="ħ" />
<glyph horiz-adv-x="575" d="" unicode="Ĩ" />
<glyph horiz-adv-x="492" d="" unicode="ĩ" />
<glyph horiz-adv-x="575" d="" unicode="Ī" />
<glyph horiz-adv-x="492" d="" unicode="ī" />
<glyph horiz-adv-x="575" d="" unicode="Ĭ" />
<glyph horiz-adv-x="492" d="" unicode="ĭ" />
<glyph horiz-adv-x="575" d="" unicode="Į" />
<glyph horiz-adv-x="492" d="" unicode="į" />
<glyph horiz-adv-x="575" d="" unicode="İ" />
<glyph horiz-adv-x="492" d="M 317 0 L 176 0 L 176 1077 L 317 1077 L 317 0 Z" unicode="ı" />
<glyph horiz-adv-x="1516" d="" unicode="Ĳ" />
<glyph horiz-adv-x="985" d="" unicode="ĳ" />
<glyph horiz-adv-x="1020" d="" unicode="Ĵ" />
<glyph horiz-adv-x="492" d="" unicode="ĵ" />
<glyph horiz-adv-x="1368" d="" unicode="Ķ" />
<glyph horiz-adv-x="1085" d="" unicode="ķ" />
<glyph horiz-adv-x="1085" d="" unicode="ĸ" />
<glyph horiz-adv-x="1157" d="" unicode="Ĺ" />
<glyph horiz-adv-x="492" d="" unicode="ĺ" />
<glyph horiz-adv-x="1157" d="" unicode="Ļ" />
<glyph horiz-adv-x="492" d="" unicode="ļ" />
<glyph horiz-adv-x="1157" d="" unicode="Ľ" />
<glyph horiz-adv-x="492" d="" unicode="ľ" />
<glyph horiz-adv-x="1171" d="" unicode="Ŀ" />
<glyph horiz-adv-x="680" d="" unicode="ŀ" />
<glyph horiz-adv-x="1157" d="" unicode="Ł" />
<glyph horiz-adv-x="606" d="" unicode="ł" />
<glyph horiz-adv-x="1522" d="" unicode="Ń" />
<glyph horiz-adv-x="1190" d="" unicode="ń" />
<glyph horiz-adv-x="1522" d="" unicode="Ņ" />
<glyph horiz-adv-x="1190" d="" unicode="ņ" />
<glyph horiz-adv-x="1522" d="" unicode="Ň" />
<glyph horiz-adv-x="1190" d="" unicode="ň" />
<glyph horiz-adv-x="1522" d="" unicode="Ŋ" />
<glyph horiz-adv-x="1190" d="" unicode="ŋ" />
<glyph horiz-adv-x="1520" d="" unicode="Ō" />
<glyph horiz-adv-x="1182" d="" unicode="ō" />
<glyph horiz-adv-x="1520" d="" unicode="Ŏ" />
<glyph horiz-adv-x="1182" d="" unicode="ŏ" />
<glyph horiz-adv-x="1520" d="" unicode="Ő" />
<glyph horiz-adv-x="1182" d="" unicode="ő" />
<glyph horiz-adv-x="2292" d="M 760 102 C 830 102 896 117 956 147 C 1016 177 1068 220 1112 276 C 1155 332 1189 400 1214 482 C 1238 564 1251 656 1251 758 C 1251 860 1238 951 1214 1032 C 1189 1113 1155 1182 1112 1238 C 1068 1294 1016 1336 956 1366 C 896 1396 830 1411 760 1411 C 688 1411 622 1396 562 1366 C 501 1336 449 1294 405 1238 C 361 1182 327 1113 303 1032 C 278 951 266 860 266 758 C 266 656 278 564 303 482 C 327 400 361 332 405 276 C 449 220 501 177 562 147 C 622 117 688 102 760 102 Z M 758 -29 C 666 -29 581 -10 503 27 C 425 65 357 118 301 186 C 245 254 201 337 169 435 C 137 532 121 640 121 758 C 121 876 137 983 169 1081 C 201 1178 246 1261 303 1329 C 359 1397 427 1449 505 1487 C 583 1525 668 1544 760 1544 C 818 1544 873 1536 924 1521 C 975 1505 1021 1484 1063 1456 C 1105 1428 1142 1394 1175 1355 C 1208 1315 1236 1272 1260 1225 L 1260 1516 L 2154 1516 L 2154 1380 L 1395 1380 L 1395 866 L 1950 866 L 1972 735 L 1395 735 L 1395 133 L 2198 133 L 2198 0 L 1260 0 L 1260 301 C 1236 253 1208 208 1175 168 C 1142 128 1105 93 1063 64 C 1021 34 974 11 923 -4 C 871 -20 816 -29 758 -29 Z" unicode="Œ" />
<glyph horiz-adv-x="1937" d="M 588 -23 C 522 -23 459 -10 400 14 C 341 39 290 75 246 123 C 202 171 167 230 141 300 C 115 370 102 449 102 539 C 102 628 114 708 140 778 C 166 848 201 906 245 954 C 289 1002 340 1038 400 1063 C 459 1087 522 1100 588 1100 C 636 1100 681 1093 724 1079 C 767 1065 806 1046 841 1021 C 875 996 906 966 933 931 C 960 895 982 857 999 815 C 1015 857 1037 895 1065 931 C 1092 966 1123 996 1157 1021 C 1191 1046 1228 1065 1270 1079 C 1311 1093 1354 1100 1399 1100 C 1461 1100 1518 1088 1572 1064 C 1626 1040 1672 1004 1711 957 C 1749 910 1780 851 1802 781 C 1824 711 1835 630 1835 539 L 1835 516 L 1069 516 C 1069 448 1079 388 1098 336 C 1116 283 1141 239 1173 204 C 1205 168 1242 141 1285 123 C 1328 105 1374 96 1423 96 C 1490 96 1551 109 1606 137 C 1660 164 1714 204 1767 256 L 1837 164 C 1775 102 1711 55 1645 24 C 1579 -7 1502 -23 1413 -23 C 1367 -23 1322 -16 1279 -2 C 1236 11 1197 30 1161 55 C 1125 80 1092 110 1064 146 C 1036 181 1013 220 997 262 C 980 220 958 181 932 146 C 905 110 874 80 840 55 C 805 30 766 11 724 -2 C 681 -16 636 -23 588 -23 Z M 1071 625 L 1698 625 C 1694 677 1684 724 1670 768 C 1656 812 1636 849 1612 881 C 1588 912 1558 936 1522 954 C 1486 972 1444 981 1397 981 C 1358 981 1320 973 1284 959 C 1247 945 1214 923 1185 894 C 1156 865 1131 828 1111 783 C 1091 738 1077 685 1071 625 Z M 588 98 C 642 98 690 109 733 131 C 775 153 811 183 841 222 C 870 260 892 307 908 361 C 924 415 932 475 932 539 C 932 597 924 653 910 707 C 896 761 874 808 846 848 C 817 888 781 919 738 943 C 694 967 644 979 588 979 C 534 979 485 968 443 946 C 400 924 364 893 335 855 C 305 816 283 770 267 716 C 251 662 244 603 244 539 C 244 479 251 423 265 369 C 279 315 300 269 329 229 C 357 189 393 157 436 133 C 479 109 530 98 588 98 Z" unicode="œ" />
<glyph horiz-adv-x="1374" d="" unicode="Ŕ" />
<glyph horiz-adv-x="807" d="" unicode="ŕ" />
<glyph horiz-adv-x="1374" d="" unicode="Ŗ" />
<glyph horiz-adv-x="807" d="" unicode="ŗ" />
<glyph horiz-adv-x="1374" d="" unicode="Ř" />
<glyph horiz-adv-x="807" d="" unicode="ř" />
<glyph horiz-adv-x="1329" d="" unicode="Ś" />
<glyph horiz-adv-x="1036" d="" unicode="ś" />
<glyph horiz-adv-x="1329" d="" unicode="Ŝ" />
<glyph horiz-adv-x="1036" d="" unicode="ŝ" />
<glyph horiz-adv-x="1329" d="" unicode="Ş" />
<glyph horiz-adv-x="1036" d="" unicode="ş" />
<glyph horiz-adv-x="1329" d="M 74 0 L 74 0 Z M 610 1628 L 346 1954 L 436 1954 L 665 1751 L 895 1954 L 981 1954 L 716 1628 L 610 1628 Z M 678 -29 C 552 -29 439 -7 338 35 C 237 78 149 137 74 213 L 158 322 C 221 258 297 205 386 164 C 475 122 572 102 676 102 C 734 102 786 108 834 121 C 881 133 921 151 955 175 C 988 199 1014 227 1032 261 C 1050 295 1059 333 1059 375 C 1059 414 1053 449 1041 480 C 1029 511 1009 540 979 566 C 949 592 909 617 857 641 C 805 665 739 689 659 715 C 578 740 507 765 445 791 C 383 817 332 846 291 879 C 250 912 219 951 199 995 C 178 1039 168 1093 168 1155 C 168 1209 179 1259 203 1307 C 226 1355 258 1396 300 1431 C 341 1465 391 1493 449 1513 C 507 1533 570 1544 639 1544 C 753 1544 854 1523 942 1483 C 1030 1442 1108 1391 1178 1329 L 1104 1214 C 1036 1275 964 1323 889 1359 C 813 1395 730 1413 639 1413 C 588 1413 542 1406 501 1393 C 460 1379 426 1361 398 1339 C 370 1317 348 1290 333 1260 C 318 1230 311 1198 311 1165 C 311 1123 318 1086 332 1056 C 346 1025 369 998 402 974 C 434 950 478 927 532 905 C 586 883 652 860 731 836 C 809 810 878 784 938 757 C 997 730 1046 699 1085 665 C 1123 630 1152 590 1172 544 C 1192 498 1202 445 1202 383 C 1202 321 1188 264 1162 213 C 1136 162 1099 119 1053 83 C 1007 47 951 20 887 0 C 823 -19 753 -29 678 -29 Z" unicode="Š" />
<glyph horiz-adv-x="1036" d="M 90 0 L 90 0 Z M 465 1196 L 201 1522 L 291 1522 L 520 1319 L 750 1522 L 836 1522 L 571 1196 L 465 1196 Z M 512 -18 C 462 -18 416 -13 374 -3 C 332 7 293 20 258 37 C 223 54 191 74 163 97 C 135 120 110 145 90 172 L 168 258 C 210 209 260 170 316 140 C 372 110 438 96 514 96 C 605 96 675 112 723 146 C 771 180 795 225 795 283 C 795 341 773 386 729 417 C 685 448 608 476 498 502 C 433 518 377 534 330 552 C 282 569 243 590 213 614 C 182 638 159 666 145 699 C 130 731 123 771 123 817 C 123 855 131 891 147 926 C 163 960 187 990 218 1016 C 249 1042 287 1062 333 1077 C 379 1092 431 1100 489 1100 C 579 1100 655 1086 719 1058 C 783 1030 839 994 887 948 L 815 850 C 771 892 723 924 672 948 C 620 971 561 983 494 983 C 453 983 418 978 388 970 C 358 961 334 949 315 934 C 296 919 282 902 273 883 C 264 863 260 843 260 823 C 260 798 264 776 272 757 C 280 738 294 721 314 707 C 334 692 360 679 394 667 C 427 655 468 643 518 631 C 589 614 651 596 703 578 C 755 559 798 537 832 512 C 866 487 891 457 907 422 C 923 386 932 343 932 293 C 932 243 921 199 900 160 C 879 121 850 88 813 62 C 776 36 732 16 680 2 C 628 -11 572 -18 512 -18 Z" unicode="š" />
<glyph horiz-adv-x="1264" d="" unicode="Ť" />
<glyph horiz-adv-x="745" d="" unicode="ť" />
<glyph horiz-adv-x="1264" d="" unicode="Ŧ" />
<glyph horiz-adv-x="745" d="" unicode="ŧ" />
<glyph horiz-adv-x="1464" d="" unicode="Ũ" />
<glyph horiz-adv-x="1190" d="" unicode="ũ" />
<glyph horiz-adv-x="1464" d="" unicode="Ū" />
<glyph horiz-adv-x="1190" d="" unicode="ū" />
<glyph horiz-adv-x="1464" d="" unicode="Ŭ" />
<glyph horiz-adv-x="1190" d="" unicode="ŭ" />
<glyph horiz-adv-x="1464" d="" unicode="Ů" />
<glyph horiz-adv-x="1190" d="" unicode="ů" />
<glyph horiz-adv-x="1464" d="" unicode="Ű" />
<glyph horiz-adv-x="1190" d="" unicode="ű" />
<glyph horiz-adv-x="1464" d="" unicode="Ų" />
<glyph horiz-adv-x="1190" d="" unicode="ų" />
<glyph horiz-adv-x="1894" d="" unicode="Ŵ" />
<glyph horiz-adv-x="1530" d="" unicode="ŵ" />
<glyph horiz-adv-x="1266" d="" unicode="Ŷ" />
<glyph horiz-adv-x="1079" d="" unicode="ŷ" />
<glyph horiz-adv-x="1266" d="M 59 0 L 59 0 Z M 705 0 L 559 0 L 559 668 L 59 1503 L 201 1528 L 635 793 L 1061 1516 L 1212 1516 L 705 668 L 705 0 Z M 811 1598 C 784 1598 763 1607 747 1625 C 731 1643 723 1667 723 1698 C 723 1726 731 1749 747 1767 C 763 1785 784 1794 811 1794 C 839 1794 861 1785 877 1767 C 893 1749 901 1726 901 1698 C 901 1667 893 1643 877 1625 C 861 1607 839 1598 811 1598 Z M 451 1598 C 423 1598 402 1607 386 1625 C 370 1643 363 1667 363 1698 C 363 1726 370 1749 386 1767 C 402 1785 423 1794 451 1794 C 478 1794 499 1785 515 1767 C 531 1749 539 1726 539 1698 C 539 1667 531 1643 515 1625 C 499 1607 478 1598 451 1598 Z" unicode="Ÿ" />
<glyph horiz-adv-x="1276" d="" unicode="Ź" />
<glyph horiz-adv-x="1036" d="" unicode="ź" />
<glyph horiz-adv-x="1276" d="" unicode="Ż" />
<glyph horiz-adv-x="1036" d="" unicode="ż" />
<glyph horiz-adv-x="1276" d="M 86 0 L 86 0 Z M 588 1628 L 324 1954 L 414 1954 L 643 1751 L 873 1954 L 959 1954 L 694 1628 L 588 1628 Z M 1184 0 L 86 0 L 86 104 L 995 1393 L 158 1393 L 133 1516 L 1171 1516 L 1171 1409 L 266 123 L 1159 123 L 1184 0 Z" unicode="Ž" />
<glyph horiz-adv-x="1036" d="M 84 0 L 84 0 Z M 467 1196 L 203 1522 L 293 1522 L 522 1319 L 752 1522 L 838 1522 L 573 1196 L 467 1196 Z M 958 0 L 84 0 L 84 90 L 741 961 L 147 961 L 127 1077 L 920 1077 L 920 987 L 262 117 L 938 117 L 958 0 Z" unicode="ž" />
<glyph horiz-adv-x="682" d="M -197 -408 L -178 -293 C -171 -295 -161 -296 -147 -296 C -133 -296 -121 -297 -111 -297 C -57 -297 -11 -284 26 -259 C 63 -234 85 -193 92 -135 L 231 850 L 43 850 L 57 965 L 246 965 L 283 1241 C 295 1333 329 1403 387 1449 C 445 1495 526 1518 631 1518 C 643 1518 658 1517 674 1516 C 690 1515 703 1514 713 1513 L 694 1399 C 687 1399 677 1400 663 1400 C 649 1400 637 1401 625 1401 C 573 1401 529 1389 492 1366 C 454 1343 432 1303 424 1245 L 387 965 L 625 965 L 610 850 L 373 850 L 231 -141 C 219 -231 184 -298 127 -344 C 70 -389 -11 -412 -117 -412 C -129 -412 -143 -411 -159 -410 C -175 -409 -188 -408 -197 -408 Z" unicode="ƒ" />
<glyph horiz-adv-x="1329" d="" unicode="Ș" />
<glyph horiz-adv-x="1036" d="" unicode="ș" />
<glyph horiz-adv-x="1264" d="" unicode="Ț" />
<glyph horiz-adv-x="745" d="" unicode="ț" />
<glyph horiz-adv-x="1118" d="" unicode="ə" />
<glyph horiz-adv-x="549" d="" unicode="ʻ" />
<glyph horiz-adv-x="549" d="" unicode="ʼ" />
<glyph horiz-adv-x="1044" d="M 205 1188 L 469 1513 L 575 1513 L 840 1188 L 750 1188 L 520 1389 L 291 1188 L 205 1188 Z" unicode="ˆ" />
<glyph horiz-adv-x="1044" d="M 469 1196 L 205 1522 L 295 1522 L 524 1319 L 754 1522 L 840 1522 L 575 1196 L 469 1196 Z" unicode="ˇ" />
<glyph horiz-adv-x="1024" d="" unicode="ˉ" />
<glyph horiz-adv-x="1024" d="" unicode="˘" />
<glyph horiz-adv-x="1024" d="" unicode="˙" />
<glyph horiz-adv-x="1106" d="M 553 1180 C 499 1180 454 1197 419 1233 C 384 1269 367 1313 367 1366 C 367 1419 384 1463 419 1499 C 454 1534 499 1552 553 1552 C 607 1552 651 1534 686 1499 C 721 1463 739 1419 739 1366 C 739 1313 721 1269 686 1233 C 651 1197 607 1180 553 1180 Z M 553 1251 C 584 1251 610 1261 631 1283 C 651 1304 662 1332 662 1366 C 662 1398 651 1426 631 1448 C 610 1470 584 1481 553 1481 C 521 1481 494 1470 474 1448 C 454 1426 444 1398 444 1366 C 444 1332 454 1304 474 1283 C 494 1261 521 1251 553 1251 Z" unicode="˚" />
<glyph horiz-adv-x="1024" d="" unicode="˛" />
<glyph horiz-adv-x="1032" d="M 668 1188 C 639 1188 611 1194 584 1206 C 556 1218 530 1231 505 1245 C 479 1259 455 1273 431 1285 C 407 1297 385 1303 365 1303 C 335 1303 313 1293 301 1275 C 288 1257 282 1226 283 1184 L 193 1200 C 193 1272 207 1327 237 1363 C 266 1399 309 1417 365 1417 C 393 1417 421 1411 449 1399 C 476 1387 502 1374 528 1360 C 553 1346 577 1333 601 1321 C 625 1309 647 1303 668 1303 C 697 1303 718 1312 732 1330 C 745 1348 752 1378 752 1421 L 840 1405 C 840 1333 825 1278 796 1242 C 766 1206 724 1188 668 1188 Z" unicode="˜" />
<glyph horiz-adv-x="1034" d="" unicode="˝" />
<glyph horiz-adv-x="1370" d="" unicode="Δ" />
<glyph horiz-adv-x="1520" d="" unicode="Ω" />
<glyph horiz-adv-x="1200" d="M 305 -410 L 164 -410 L 164 1077 L 305 1077 L 305 324 C 305 248 322 192 356 154 C 390 116 444 98 520 98 C 588 98 652 114 713 148 C 774 182 835 227 897 285 L 897 1077 L 1038 1077 L 1038 0 L 897 0 L 897 176 C 869 150 841 125 811 102 C 781 79 751 59 719 41 C 687 23 654 9 619 -1 C 584 -11 548 -17 510 -18 C 466 -18 426 -14 392 -4 C 357 6 328 25 305 55 L 305 -410 Z" unicode="μ" />
<glyph horiz-adv-x="1317" d="" unicode="π" />
<glyph horiz-adv-x="1894" d="" unicode="Ẁ" />
<glyph horiz-adv-x="1530" d="" unicode="ẁ" />
<glyph horiz-adv-x="1894" d="" unicode="Ẃ" />
<glyph horiz-adv-x="1530" d="" unicode="ẃ" />
<glyph horiz-adv-x="1894" d="" unicode="Ẅ" />
<glyph horiz-adv-x="1530" d="" unicode="ẅ" />
<glyph horiz-adv-x="1266" d="" unicode="Ỳ" />
<glyph horiz-adv-x="1079" d="" unicode="ỳ" />
<glyph horiz-adv-x="1024" d="" unicode=" " />
<glyph horiz-adv-x="2048" d="" unicode=" " />
<glyph horiz-adv-x="1024" d="" unicode=" " />
<glyph horiz-adv-x="2048" d="" unicode=" " />
<glyph horiz-adv-x="682" d="" unicode=" " />
<glyph horiz-adv-x="512" d="" unicode=" " />
<glyph horiz-adv-x="1331" d="" unicode=" " />
<glyph horiz-adv-x="410" d="" unicode=" " />
<glyph horiz-adv-x="205" d="" unicode=" " />
<glyph horiz-adv-x="0" d="" unicode="​" />
<glyph horiz-adv-x="731" d="M 596 582 L 135 582 L 135 705 L 596 705 L 596 582 Z" unicode="‐" />
<glyph horiz-adv-x="731" d="M 596 582 L 135 582 L 135 705 L 596 705 L 596 582 Z" unicode="‑" />
<glyph horiz-adv-x="1331" d="M 141 578 L 141 707 L 1190 707 L 1190 578 L 141 578 Z" unicode="‒" />
<glyph horiz-adv-x="1325" d="M 1188 578 L 137 578 L 137 707 L 1188 707 L 1188 578 Z" unicode="–" />
<glyph horiz-adv-x="1892" d="M 1755 578 L 137 578 L 137 707 L 1755 707 L 1755 578 Z" unicode="—" />
<glyph horiz-adv-x="2048" d="M 0 578 L 0 707 L 2048 707 L 2048 578 L 0 578 Z" unicode="―" />
<glyph horiz-adv-x="549" d="M 307 1516 L 393 1516 L 340 1116 L 164 1116 L 307 1516 Z" unicode="‘" />
<glyph horiz-adv-x="549" d="M 250 1116 L 164 1116 L 217 1516 L 393 1516 L 250 1116 Z" unicode="’" />
<glyph horiz-adv-x="549" d="M 162 0 L 162 0 Z M 248 -207 L 162 -207 L 215 193 L 391 193 L 248 -207 Z" unicode="‚" />
<glyph horiz-adv-x="926" d="M 307 1516 L 393 1516 L 340 1116 L 164 1116 L 307 1516 Z M 682 1516 L 766 1516 L 715 1116 L 539 1116 L 682 1516 Z" unicode="“" />
<glyph horiz-adv-x="926" d="M 623 1116 L 539 1116 L 590 1516 L 766 1516 L 623 1116 Z M 250 1116 L 164 1116 L 217 1516 L 393 1516 L 250 1116 Z" unicode="”" />
<glyph horiz-adv-x="926" d="M 162 0 L 162 0 Z M 621 -207 L 537 -207 L 588 193 L 764 193 L 621 -207 Z M 248 -207 L 162 -207 L 215 193 L 391 193 L 248 -207 Z" unicode="„" />
<glyph horiz-adv-x="1139" d="M 647 -410 L 492 -410 L 518 866 L 100 846 L 100 983 L 518 961 L 492 1516 L 647 1516 L 621 961 L 1038 983 L 1038 846 L 621 866 L 647 -410 Z" unicode="†" />
<glyph horiz-adv-x="1139" d="M 647 -410 L 492 -410 L 518 80 L 117 57 L 117 193 L 518 170 L 500 557 L 518 938 L 117 915 L 117 1051 L 518 1028 L 492 1516 L 647 1516 L 621 1028 L 1022 1051 L 1022 915 L 621 938 L 639 557 L 621 170 L 1022 193 L 1022 57 L 621 80 L 647 -410 Z" unicode="‡" />
<glyph horiz-adv-x="948" d="M 473 477 C 438 477 406 483 377 495 C 347 507 322 523 301 545 C 279 566 263 591 251 621 C 239 650 233 682 233 717 C 233 752 239 784 251 814 C 263 844 279 869 301 890 C 322 911 347 928 377 940 C 406 952 438 958 473 958 C 508 958 540 952 570 940 C 600 928 625 911 647 890 C 668 869 685 844 697 814 C 709 784 715 752 715 717 C 715 682 709 650 697 621 C 685 591 668 566 647 545 C 625 523 600 507 570 495 C 540 483 508 477 473 477 Z" unicode="•" />
<glyph horiz-adv-x="1647" d="M 174 0 L 174 0 Z M 274 -10 C 242 -10 218 0 200 19 C 182 39 174 65 174 98 C 174 130 182 155 200 174 C 218 193 242 203 274 203 C 304 203 329 193 347 174 C 365 155 375 130 375 98 C 375 65 365 39 347 19 C 329 0 304 -10 274 -10 Z M 823 -10 C 791 -10 767 0 749 19 C 731 39 723 65 723 98 C 723 130 731 155 749 174 C 767 193 791 203 823 203 C 853 203 878 193 896 174 C 914 155 924 130 924 98 C 924 65 914 39 896 19 C 878 0 853 -10 823 -10 Z M 1372 -10 C 1340 -10 1316 0 1298 19 C 1280 39 1272 65 1272 98 C 1272 130 1280 155 1298 174 C 1316 193 1340 203 1372 203 C 1402 203 1427 193 1445 174 C 1463 155 1473 130 1473 98 C 1473 65 1463 39 1445 19 C 1427 0 1402 -10 1372 -10 Z" unicode="…" />
<glyph horiz-adv-x="2822" d="M 467 627 C 412 627 363 638 321 660 C 279 682 243 712 215 752 C 186 791 164 838 149 894 C 134 950 127 1011 127 1077 C 127 1147 135 1211 151 1268 C 167 1324 189 1372 219 1412 C 249 1452 285 1482 327 1504 C 369 1525 417 1536 469 1536 C 521 1536 568 1525 610 1504 C 652 1482 687 1452 716 1413 C 745 1374 767 1327 783 1271 C 799 1215 807 1153 807 1085 C 807 1019 799 957 784 901 C 768 845 746 796 717 756 C 688 716 652 684 610 661 C 568 638 520 627 467 627 Z M 606 0 L 475 0 L 1380 1516 L 1511 1516 L 606 0 Z M 469 737 C 502 737 532 746 558 764 C 584 782 606 806 624 837 C 642 867 655 904 664 946 C 673 988 678 1033 678 1081 C 678 1131 673 1178 664 1221 C 654 1263 641 1300 623 1330 C 605 1360 582 1383 556 1400 C 530 1416 500 1425 467 1425 C 433 1425 402 1416 376 1398 C 350 1380 328 1356 310 1326 C 292 1296 279 1260 270 1218 C 260 1176 256 1132 256 1085 C 256 1033 260 986 270 943 C 279 900 293 863 311 833 C 329 803 351 779 378 762 C 404 745 435 737 469 737 Z M 2355 -20 C 2301 -20 2252 -9 2210 13 C 2168 35 2132 65 2103 105 C 2074 144 2052 191 2037 247 C 2022 303 2015 364 2015 430 C 2015 500 2023 563 2039 620 C 2055 676 2078 724 2108 764 C 2138 804 2174 834 2217 856 C 2259 878 2307 889 2359 889 C 2411 889 2458 878 2500 857 C 2542 835 2577 805 2606 766 C 2635 727 2657 679 2673 623 C 2689 567 2697 504 2697 436 C 2697 370 2689 309 2673 253 C 2657 197 2635 149 2606 109 C 2577 69 2541 37 2499 14 C 2456 -8 2408 -20 2355 -20 Z M 1518 -20 C 1464 -20 1415 -9 1373 13 C 1330 35 1294 65 1266 105 C 1237 144 1215 191 1200 247 C 1185 303 1178 364 1178 430 C 1178 500 1186 563 1202 620 C 1218 676 1241 724 1271 764 C 1301 804 1337 834 1380 856 C 1422 878 1470 889 1522 889 C 1574 889 1621 878 1663 857 C 1705 835 1740 805 1769 766 C 1798 727 1820 679 1836 623 C 1852 567 1860 504 1860 436 C 1860 370 1852 309 1837 253 C 1821 197 1799 149 1770 109 C 1741 69 1705 37 1663 14 C 1620 -8 1572 -20 1518 -20 Z M 2357 90 C 2391 90 2421 99 2447 117 C 2473 135 2495 159 2513 190 C 2530 220 2543 257 2552 299 C 2561 341 2566 386 2566 434 C 2566 484 2561 531 2552 574 C 2542 616 2529 653 2511 683 C 2493 713 2471 736 2445 753 C 2419 769 2389 778 2355 778 C 2321 778 2290 769 2264 751 C 2238 733 2216 709 2199 679 C 2181 649 2168 613 2159 571 C 2150 529 2146 484 2146 436 C 2146 385 2150 338 2160 296 C 2169 253 2182 216 2200 186 C 2218 156 2240 132 2266 115 C 2292 98 2323 90 2357 90 Z M 1520 90 C 1554 90 1584 99 1610 117 C 1636 135 1658 159 1676 190 C 1693 220 1706 257 1715 299 C 1724 341 1729 386 1729 434 C 1729 484 1724 531 1715 574 C 1705 616 1692 653 1674 683 C 1656 713 1634 736 1608 753 C 1582 769 1552 778 1518 778 C 1484 778 1453 769 1427 751 C 1401 733 1379 709 1362 679 C 1344 649 1331 613 1322 571 C 1313 529 1309 484 1309 436 C 1309 385 1313 338 1322 296 C 1331 253 1344 216 1362 186 C 1380 156 1402 132 1429 115 C 1455 98 1486 90 1520 90 Z" unicode="‰" />
<glyph horiz-adv-x="477" d="M 147 1001 L 182 1403 L 203 1516 L 344 1516 L 219 1001 L 147 1001 Z" unicode="′" />
<glyph horiz-adv-x="829" d="M 500 1001 L 535 1403 L 555 1516 L 696 1516 L 571 1001 L 500 1001 Z M 147 1001 L 182 1403 L 203 1516 L 344 1516 L 219 1001 L 147 1001 Z" unicode="″" />
<glyph horiz-adv-x="664" d="M 543 0 L 395 0 L 92 541 L 395 1077 L 543 1077 L 246 541 L 543 0 Z" unicode="‹" />
<glyph horiz-adv-x="664" d="M 266 0 L 121 0 L 418 541 L 121 1077 L 266 1077 L 571 541 L 266 0 Z" unicode="›" />
<glyph horiz-adv-x="954" d="M 102 0 L -31 0 L 852 1516 L 985 1516 L 102 0 Z" unicode="⁄" />
<glyph horiz-adv-x="967" d="M 485 553 C 427 553 375 564 331 587 C 286 609 249 642 219 684 C 189 726 166 777 150 837 C 134 897 127 965 127 1040 C 127 1113 134 1180 150 1241 C 166 1301 189 1353 219 1396 C 249 1439 286 1472 331 1496 C 375 1520 427 1532 485 1532 C 541 1532 591 1520 635 1496 C 679 1472 717 1439 747 1396 C 777 1353 800 1301 816 1241 C 832 1180 840 1113 840 1040 C 840 965 832 897 816 837 C 800 777 777 726 747 684 C 717 642 679 609 635 587 C 591 564 541 553 485 553 Z M 485 657 C 558 657 615 689 657 754 C 698 819 719 914 719 1040 C 719 1162 697 1257 655 1325 C 613 1393 556 1427 485 1427 C 409 1427 350 1393 309 1325 C 268 1257 248 1162 248 1040 C 248 914 269 819 311 754 C 353 689 411 657 485 657 Z" unicode="⁰" />
<glyph horiz-adv-x="897" d="M 547 569 L 547 797 L 113 797 L 113 877 L 537 1516 L 666 1516 L 666 903 L 815 903 L 823 797 L 666 797 L 666 569 L 547 569 Z M 252 901 L 549 901 L 549 1352 L 252 901 Z" unicode="⁴" />
<glyph horiz-adv-x="872" d="M 426 553 C 354 553 291 569 237 603 C 183 637 138 681 102 735 L 184 803 C 212 759 247 723 287 696 C 327 668 374 655 428 655 C 464 655 495 661 523 673 C 550 685 573 702 591 722 C 609 742 622 766 631 793 C 640 819 645 847 645 877 C 645 947 626 1000 589 1038 C 551 1075 505 1094 449 1094 C 403 1094 366 1085 338 1068 C 309 1051 282 1025 258 991 L 156 1030 L 188 1516 L 705 1516 L 707 1407 L 291 1407 L 268 1116 C 286 1138 312 1157 344 1172 C 376 1186 419 1194 471 1194 C 511 1194 549 1186 585 1172 C 621 1158 652 1137 678 1111 C 704 1084 725 1051 741 1012 C 756 973 764 929 764 881 C 764 831 756 785 740 745 C 724 704 701 669 672 641 C 643 613 608 591 566 576 C 524 560 477 553 426 553 Z" unicode="⁵" />
<glyph horiz-adv-x="909" d="M 473 553 C 423 553 377 562 335 581 C 293 600 256 629 226 668 C 195 707 171 757 153 817 C 135 877 127 948 127 1030 C 127 1104 135 1173 152 1235 C 169 1297 194 1349 226 1393 C 258 1437 297 1471 344 1495 C 391 1519 444 1532 504 1532 C 564 1532 616 1522 662 1504 C 707 1486 744 1463 774 1436 L 711 1350 C 678 1374 646 1394 616 1408 C 586 1422 548 1430 502 1430 C 422 1430 360 1397 315 1333 C 270 1268 246 1177 244 1059 C 274 1090 310 1117 351 1141 C 392 1164 442 1176 500 1176 C 550 1176 595 1168 633 1153 C 671 1138 703 1117 728 1091 C 753 1065 772 1033 784 996 C 796 958 803 918 803 874 C 803 828 795 786 780 747 C 764 707 742 673 714 645 C 686 616 651 593 610 577 C 569 561 523 553 473 553 Z M 475 655 C 537 655 587 674 625 712 C 663 750 682 804 682 872 C 682 932 666 980 634 1018 C 602 1056 552 1075 483 1075 C 435 1075 391 1062 352 1038 C 312 1013 278 982 250 944 C 254 894 263 851 277 815 C 290 778 307 748 327 725 C 347 701 369 684 395 672 C 420 660 447 655 475 655 Z" unicode="⁶" />
<glyph horiz-adv-x="829" d="M 199 569 L 584 1405 L 121 1405 L 113 1516 L 717 1516 L 717 1421 L 326 569 L 199 569 Z" unicode="⁷" />
<glyph horiz-adv-x="903" d="M 451 553 C 396 553 347 559 304 572 C 260 585 224 603 195 626 C 165 648 143 675 127 706 C 111 736 104 769 104 805 C 104 869 124 921 165 961 C 205 1001 261 1037 332 1069 C 272 1096 227 1127 195 1161 C 163 1195 147 1240 147 1296 C 147 1326 153 1356 167 1385 C 181 1413 201 1438 227 1460 C 253 1482 285 1499 323 1512 C 361 1525 403 1532 451 1532 C 499 1532 543 1525 581 1512 C 619 1498 651 1481 677 1459 C 703 1437 722 1412 736 1384 C 749 1355 756 1326 756 1296 C 756 1242 738 1198 703 1165 C 667 1132 620 1102 561 1075 C 633 1041 691 1004 734 964 C 777 924 799 871 799 805 C 799 770 791 737 775 707 C 759 676 737 649 707 627 C 677 604 641 586 598 573 C 554 559 505 553 451 553 Z M 457 1118 C 519 1146 564 1172 594 1195 C 624 1218 639 1250 639 1290 C 639 1308 635 1325 627 1343 C 619 1360 608 1375 593 1389 C 578 1402 559 1413 535 1421 C 511 1429 484 1434 453 1434 C 422 1434 395 1430 372 1422 C 348 1414 329 1403 313 1390 C 297 1377 286 1362 278 1345 C 270 1328 266 1311 266 1294 C 266 1273 269 1255 277 1240 C 284 1224 295 1210 311 1197 C 326 1184 346 1171 370 1159 C 394 1146 423 1132 457 1118 Z M 451 649 C 517 649 571 663 613 693 C 655 722 676 761 676 809 C 676 857 654 897 612 930 C 569 963 511 995 438 1026 C 362 992 307 958 273 926 C 239 894 223 855 223 809 C 223 762 244 724 287 694 C 329 664 384 649 451 649 Z" unicode="⁸" />
<glyph horiz-adv-x="909" d="M 426 1010 C 474 1010 517 1022 557 1047 C 596 1071 630 1103 659 1141 C 654 1190 645 1233 632 1269 C 618 1305 602 1335 582 1359 C 562 1383 539 1400 514 1412 C 488 1424 462 1430 434 1430 C 372 1430 322 1410 284 1372 C 246 1334 227 1280 227 1212 C 227 1152 242 1103 274 1066 C 306 1028 356 1010 426 1010 Z M 406 553 C 346 553 293 562 248 580 C 202 598 165 621 135 649 L 199 735 C 231 709 263 690 293 677 C 323 663 362 657 408 657 C 487 657 549 688 594 752 C 638 815 662 906 666 1026 C 635 994 599 967 558 943 C 517 919 468 907 410 907 C 359 907 314 914 276 930 C 238 945 206 966 181 993 C 156 1020 137 1052 125 1089 C 112 1126 106 1166 106 1210 C 106 1255 113 1297 129 1337 C 144 1377 166 1411 194 1440 C 222 1468 257 1491 298 1507 C 339 1523 385 1532 436 1532 C 485 1532 531 1522 573 1503 C 615 1484 652 1455 683 1416 C 713 1377 737 1328 755 1268 C 773 1208 782 1137 782 1057 C 782 982 773 913 756 851 C 738 789 713 736 681 692 C 649 648 609 613 563 589 C 516 565 464 553 406 553 Z" unicode="⁹" />
<glyph horiz-adv-x="967" d="M 127 0 L 127 0 Z M 485 -426 C 427 -426 375 -414 331 -392 C 286 -369 249 -337 219 -295 C 189 -253 166 -201 150 -141 C 134 -81 127 -13 127 61 C 127 134 134 201 150 262 C 166 322 189 374 219 417 C 249 460 286 493 331 517 C 375 541 427 553 485 553 C 541 553 591 541 635 517 C 679 493 717 460 747 417 C 777 374 800 322 816 262 C 832 201 840 134 840 61 C 840 -13 832 -81 816 -141 C 800 -201 777 -253 747 -295 C 717 -337 679 -369 635 -392 C 591 -414 541 -426 485 -426 Z M 485 -322 C 558 -322 615 -289 657 -224 C 698 -159 719 -64 719 61 C 719 183 697 278 655 346 C 613 414 556 448 485 448 C 409 448 350 414 309 346 C 268 278 248 183 248 61 C 248 -64 269 -159 311 -224 C 353 -289 411 -322 485 -322 Z" unicode="₀" />
<glyph horiz-adv-x="729" d="M 156 0 L 156 0 Z M 453 -410 L 330 -410 L 330 416 L 178 373 L 156 475 L 365 537 L 453 537 L 453 -410 Z" unicode="₁" />
<glyph horiz-adv-x="913" d="M 137 0 L 137 0 Z M 137 -408 L 137 -369 C 137 -335 141 -301 151 -267 C 160 -233 176 -200 200 -166 C 224 -132 256 -97 297 -61 C 337 -25 389 13 451 53 C 516 93 563 130 592 164 C 620 197 635 237 635 285 C 635 333 620 371 592 401 C 564 431 522 446 467 446 C 420 446 379 433 344 407 C 308 381 276 339 248 281 L 150 336 C 186 410 231 465 285 502 C 339 538 401 557 471 557 C 515 557 555 550 591 537 C 627 523 657 505 682 482 C 706 458 725 430 738 397 C 751 364 758 328 758 289 C 758 225 739 168 702 118 C 665 68 600 15 508 -41 C 433 -87 377 -132 340 -175 C 302 -218 280 -258 274 -295 L 762 -295 L 762 -408 L 137 -408 Z" unicode="₂" />
<glyph horiz-adv-x="913" d="M 115 0 L 115 0 Z M 453 -426 C 382 -426 318 -409 260 -375 C 202 -341 153 -293 115 -229 L 205 -164 C 239 -220 277 -259 319 -281 C 361 -303 405 -315 451 -315 C 515 -315 564 -299 599 -267 C 633 -235 651 -194 651 -143 C 651 -82 630 -35 589 -3 C 548 28 478 45 379 45 L 326 45 L 326 143 L 385 143 C 472 143 535 156 574 183 C 613 209 633 249 633 301 C 633 343 619 377 591 405 C 563 432 519 446 459 446 C 415 446 375 435 339 415 C 303 394 270 365 240 328 L 156 397 C 196 446 241 485 292 514 C 342 542 399 557 463 557 C 514 557 558 550 596 536 C 633 522 664 504 688 482 C 712 459 729 433 741 403 C 752 373 758 342 758 311 C 758 260 744 216 718 178 C 691 140 651 113 598 96 C 661 76 707 47 735 7 C 763 -33 778 -83 778 -143 C 778 -183 770 -220 755 -255 C 739 -290 718 -320 690 -345 C 662 -370 628 -390 588 -404 C 548 -418 503 -426 453 -426 Z" unicode="₃" />
<glyph horiz-adv-x="897" d="M 113 0 L 113 0 Z M 547 -410 L 547 -182 L 113 -182 L 113 -102 L 537 537 L 666 537 L 666 -76 L 815 -76 L 823 -182 L 666 -182 L 666 -410 L 547 -410 Z M 252 -78 L 549 -78 L 549 373 L 252 -78 Z" unicode="₄" />
<glyph horiz-adv-x="872" d="M 102 0 L 102 0 Z M 426 -426 C 354 -426 291 -409 237 -375 C 183 -341 138 -298 102 -244 L 184 -176 C 212 -220 247 -255 287 -283 C 327 -310 374 -324 428 -324 C 464 -324 495 -317 523 -305 C 550 -293 573 -276 591 -256 C 609 -236 622 -212 631 -186 C 640 -159 645 -131 645 -102 C 645 -32 626 21 589 59 C 551 96 505 115 449 115 C 403 115 366 106 338 89 C 309 72 282 46 258 12 L 156 51 L 188 537 L 705 537 L 707 428 L 291 428 L 268 137 C 286 159 312 178 344 193 C 376 207 419 215 471 215 C 511 215 549 207 585 193 C 621 179 652 158 678 132 C 704 105 725 72 741 33 C 756 -5 764 -49 764 -98 C 764 -148 756 -193 740 -234 C 724 -274 701 -309 672 -337 C 643 -365 608 -387 566 -403 C 524 -418 477 -426 426 -426 Z" unicode="₅" />
<glyph horiz-adv-x="909" d="M 127 0 L 127 0 Z M 473 -426 C 423 -426 377 -416 335 -397 C 293 -378 256 -349 226 -310 C 195 -271 171 -221 153 -161 C 135 -101 127 -30 127 51 C 127 125 135 194 152 256 C 169 318 194 370 226 414 C 258 458 297 492 344 516 C 391 540 444 553 504 553 C 564 553 616 543 662 525 C 707 507 744 484 774 457 L 711 371 C 678 395 646 415 616 429 C 586 443 548 451 502 451 C 422 451 360 418 315 354 C 270 289 246 198 244 80 C 274 111 310 138 351 162 C 392 185 442 197 500 197 C 550 197 595 189 633 174 C 671 159 703 138 728 112 C 753 86 772 54 784 17 C 796 -20 803 -61 803 -105 C 803 -150 795 -192 780 -232 C 764 -271 742 -305 714 -334 C 686 -362 651 -385 610 -401 C 569 -417 523 -426 473 -426 Z M 475 -324 C 537 -324 587 -304 625 -266 C 663 -228 682 -175 682 -107 C 682 -47 666 1 634 39 C 602 77 552 96 483 96 C 435 96 391 83 352 59 C 312 34 278 3 250 -35 C 254 -84 263 -127 277 -164 C 290 -200 307 -230 327 -254 C 347 -277 369 -294 395 -306 C 420 -318 447 -324 475 -324 Z" unicode="₆" />
<glyph horiz-adv-x="829" d="M 113 0 L 113 0 Z M 199 -410 L 584 426 L 121 426 L 113 537 L 717 537 L 717 442 L 326 -410 L 199 -410 Z" unicode="₇" />
<glyph horiz-adv-x="903" d="M 104 0 L 104 0 Z M 451 -426 C 396 -426 347 -419 304 -406 C 260 -393 224 -375 195 -353 C 165 -330 143 -303 127 -273 C 111 -242 104 -209 104 -174 C 104 -110 124 -57 165 -17 C 205 22 261 58 332 90 C 272 117 227 148 195 182 C 163 216 147 261 147 317 C 147 347 153 377 167 406 C 181 434 201 459 227 481 C 253 503 285 520 323 533 C 361 546 403 553 451 553 C 499 553 543 546 581 533 C 619 519 651 502 677 480 C 703 458 722 433 736 405 C 749 376 756 347 756 317 C 756 263 738 219 703 186 C 667 153 620 123 561 96 C 633 62 691 25 734 -14 C 777 -54 799 -108 799 -174 C 799 -208 791 -241 775 -272 C 759 -302 737 -329 707 -352 C 677 -374 641 -392 598 -406 C 554 -419 505 -426 451 -426 Z M 457 139 C 519 167 564 193 594 216 C 624 239 639 271 639 311 C 639 329 635 346 627 364 C 619 381 608 396 593 410 C 578 423 559 434 535 442 C 511 450 484 455 453 455 C 422 455 395 451 372 443 C 348 435 329 424 313 411 C 297 398 286 383 278 366 C 270 349 266 332 266 315 C 266 294 269 276 277 261 C 284 245 295 231 311 218 C 326 205 346 192 370 180 C 394 167 423 153 457 139 Z M 451 -330 C 517 -330 571 -315 613 -286 C 655 -256 676 -218 676 -170 C 676 -122 654 -81 612 -48 C 569 -15 511 16 438 47 C 362 13 307 -20 273 -52 C 239 -84 223 -124 223 -170 C 223 -216 244 -255 287 -285 C 329 -315 384 -330 451 -330 Z" unicode="₈" />
<glyph horiz-adv-x="909" d="M 106 0 L 106 0 Z M 426 31 C 474 31 517 43 557 68 C 596 92 630 124 659 162 C 654 211 645 254 632 290 C 618 326 602 356 582 380 C 562 404 539 421 514 433 C 488 445 462 451 434 451 C 372 451 322 431 284 393 C 246 355 227 301 227 233 C 227 173 242 124 274 87 C 306 49 356 31 426 31 Z M 406 -426 C 346 -426 293 -416 248 -398 C 202 -380 165 -357 135 -330 L 199 -244 C 231 -269 263 -288 293 -302 C 323 -315 362 -322 408 -322 C 487 -322 549 -290 594 -227 C 638 -163 662 -72 666 47 C 635 15 599 -12 558 -36 C 517 -60 468 -72 410 -72 C 359 -72 314 -64 276 -49 C 238 -33 206 -12 181 14 C 156 41 137 73 125 110 C 112 147 106 187 106 231 C 106 276 113 318 129 358 C 144 398 166 432 194 461 C 222 489 257 512 298 528 C 339 544 385 553 436 553 C 485 553 531 543 573 524 C 615 505 652 476 683 437 C 713 398 737 349 755 289 C 773 229 782 158 782 78 C 782 3 773 -65 756 -127 C 738 -189 713 -243 681 -287 C 649 -331 609 -365 563 -389 C 516 -413 464 -426 406 -426 Z" unicode="₉" />
<glyph horiz-adv-x="1468" d="M 287 766 C 287 778 287 793 288 811 C 288 828 289 842 289 854 L 43 854 L 43 967 L 301 967 C 315 1066 340 1152 376 1225 C 412 1298 454 1358 503 1405 C 552 1452 607 1487 667 1510 C 727 1532 790 1544 854 1544 C 922 1544 982 1533 1035 1513 C 1087 1493 1133 1464 1171 1428 C 1209 1392 1242 1348 1269 1298 C 1295 1248 1317 1193 1335 1135 L 1204 1085 C 1188 1136 1171 1182 1153 1223 C 1134 1264 1111 1299 1085 1327 C 1058 1355 1026 1377 988 1392 C 950 1407 904 1415 852 1415 C 802 1415 755 1406 711 1388 C 666 1370 626 1343 590 1307 C 554 1270 523 1223 497 1167 C 471 1110 453 1043 442 967 L 907 967 L 907 854 L 430 854 C 429 842 428 829 428 813 C 428 797 428 784 428 774 C 428 753 428 733 429 714 C 430 694 431 676 432 659 L 907 659 L 907 543 L 444 543 C 466 397 513 286 585 211 C 657 135 747 98 856 98 C 958 98 1038 128 1095 188 C 1152 248 1196 334 1227 446 L 1356 395 C 1337 333 1313 276 1284 224 C 1254 172 1219 127 1178 90 C 1137 52 1090 23 1036 2 C 982 -18 921 -29 854 -29 C 785 -29 720 -17 660 6 C 599 29 545 64 497 111 C 449 158 409 218 375 290 C 341 362 317 446 303 543 L 43 543 L 43 659 L 291 659 C 290 675 289 693 288 711 C 287 729 287 747 287 766 Z" unicode="€" />
<glyph horiz-adv-x="1767" d="" unicode="℗" />
<glyph horiz-adv-x="1794" d="M 440 649 L 332 649 L 332 1419 L 61 1419 L 61 1516 L 709 1516 L 709 1419 L 440 1419 L 440 649 Z M 963 649 L 862 649 L 862 1516 L 1004 1516 L 1264 793 L 1528 1516 L 1671 1516 L 1671 649 L 1561 649 L 1561 1329 L 1309 649 L 1217 649 L 963 1329 L 963 649 Z" unicode="™" />
<glyph horiz-adv-x="1520" d="" unicode="Ω" />
<glyph horiz-adv-x="1427" d="" unicode="℮" />
<glyph horiz-adv-x="2124" d="" unicode="⅓" />
<glyph horiz-adv-x="2294" d="" unicode="⅔" />
<glyph horiz-adv-x="2099" d="" unicode="⅛" />
<glyph horiz-adv-x="2189" d="" unicode="⅜" />
<glyph horiz-adv-x="2152" d="" unicode="⅝" />
<glyph horiz-adv-x="1960" d="" unicode="⅞" />
<glyph horiz-adv-x="1167" d="" unicode="∂" />
<glyph horiz-adv-x="1370" d="" unicode="∆" />
<glyph horiz-adv-x="1485" d="" unicode="∏" />
<glyph horiz-adv-x="1210" d="" unicode="∑" />
<glyph horiz-adv-x="1303" d="" unicode="−" />
<glyph horiz-adv-x="954" d="" unicode="∕" />
<glyph horiz-adv-x="551" d="" unicode="∙" />
<glyph horiz-adv-x="1339" d="" unicode="√" />
<glyph horiz-adv-x="1561" d="" unicode="∞" />
<glyph horiz-adv-x="676" d="" unicode="∫" />
<glyph horiz-adv-x="1221" d="" unicode="≈" />
<glyph horiz-adv-x="1303" d="" unicode="≠" />
<glyph horiz-adv-x="1303" d="" unicode="≤" />
<glyph horiz-adv-x="1303" d="" unicode="≥" />
<glyph horiz-adv-x="1331" d="" unicode="◊" />
<glyph horiz-adv-x="1184" d="M 592 -6 L 451 -6 L 53 1077 L 205 1077 L 524 168 L 528 168 L 1004 1516 L 1149 1516 L 592 -6 Z" unicode="✓" />
<glyph horiz-adv-x="549" d="" unicode="" />
<glyph horiz-adv-x="1556" d="M 831 1051 L 831 809 L 1071 809 L 1061 1038 L 831 1051 Z M 500 1040 L 487 809 L 727 809 L 727 1051 L 500 1040 Z M 831 705 L 831 467 L 1059 477 L 1071 705 L 831 705 Z M 498 479 L 727 467 L 727 705 L 487 705 L 498 479 Z M 856 0 L 700 0 L 727 385 L 504 373 L 508 303 L 381 303 L 385 365 L 326 360 L 326 487 L 393 485 L 406 705 L 20 678 L 20 834 L 406 809 L 393 1034 L 326 1030 L 326 1155 L 385 1153 L 381 1210 L 508 1210 L 506 1145 L 727 1133 L 700 1516 L 856 1516 L 831 1133 L 1055 1145 L 1051 1210 L 1176 1210 L 1174 1151 L 1233 1155 L 1233 1030 L 1165 1032 L 1153 809 L 1536 834 L 1536 678 L 1153 705 L 1165 483 L 1233 487 L 1233 360 L 1171 365 L 1176 303 L 1051 303 L 1053 373 L 831 385 L 856 0 Z" unicode="" />
<glyph horiz-adv-x="1280" d="M 383 0 L 242 0 L 242 958 L 55 958 L 55 1077 L 242 1077 L 242 1241 C 242 1331 268 1400 320 1447 C 372 1494 447 1518 545 1518 C 557 1518 570 1517 584 1516 C 598 1515 610 1514 618 1513 L 629 1399 C 619 1399 607 1400 593 1400 C 579 1400 566 1401 555 1401 C 503 1401 461 1388 430 1364 C 398 1340 383 1300 383 1245 L 383 1077 L 842 1077 L 842 1241 C 842 1331 868 1400 921 1447 C 973 1494 1051 1518 1153 1518 C 1164 1518 1177 1517 1193 1516 C 1208 1515 1220 1514 1229 1513 L 1239 1399 C 1230 1399 1218 1400 1203 1400 C 1187 1400 1173 1401 1161 1401 C 1110 1401 1068 1389 1034 1366 C 1000 1343 983 1303 983 1245 L 983 1077 L 1221 1077 L 1221 958 L 983 958 L 983 0 L 842 0 L 842 958 L 383 958 L 383 0 Z" unicode="ﬀ" />
<glyph horiz-adv-x="1176" d="M 913 1315 C 886 1315 865 1323 850 1339 C 834 1355 827 1377 827 1405 C 827 1431 834 1452 850 1468 C 865 1483 886 1491 913 1491 C 939 1491 960 1483 976 1468 C 991 1452 999 1431 999 1405 C 999 1377 991 1355 976 1339 C 960 1323 939 1315 913 1315 Z M 242 1077 L 242 1241 C 242 1331 267 1400 319 1447 C 370 1494 445 1518 545 1518 C 557 1518 570 1517 585 1516 C 600 1515 611 1514 618 1513 L 633 1397 C 623 1399 611 1400 595 1400 C 579 1400 566 1401 555 1401 C 505 1401 463 1389 431 1366 C 399 1343 383 1303 383 1245 L 383 1077 L 612 1077 L 612 958 L 383 958 L 383 0 L 242 0 L 242 958 L 55 958 L 55 1077 L 242 1077 Z M 985 0 L 844 0 L 844 1077 L 985 1077 L 985 0 Z" unicode="ﬁ" />
<glyph horiz-adv-x="1176" d="M 985 0 L 844 0 L 844 1505 L 985 1526 L 985 0 Z M 242 1077 L 242 1241 C 242 1331 267 1400 319 1447 C 370 1494 445 1518 545 1518 C 557 1518 570 1517 585 1516 C 600 1515 611 1514 618 1513 L 633 1397 C 623 1399 611 1400 595 1400 C 579 1400 566 1401 555 1401 C 505 1401 463 1389 431 1366 C 399 1343 383 1303 383 1245 L 383 1077 L 612 1077 L 612 958 L 383 958 L 383 0 L 242 0 L 242 958 L 55 958 L 55 1077 L 242 1077 Z" unicode="ﬂ" />
<glyph horiz-adv-x="1759" d="M 1513 1315 C 1486 1315 1465 1323 1450 1339 C 1434 1355 1427 1377 1427 1405 C 1427 1431 1434 1452 1450 1468 C 1465 1483 1486 1491 1513 1491 C 1539 1491 1560 1483 1576 1468 C 1591 1452 1599 1431 1599 1405 C 1599 1377 1591 1355 1576 1339 C 1560 1323 1539 1315 1513 1315 Z M 1585 0 L 1444 0 L 1444 1077 L 1585 1077 L 1585 0 Z M 983 1077 L 1214 1077 L 1214 958 L 983 958 L 983 0 L 842 0 L 842 958 L 383 958 L 383 0 L 242 0 L 242 958 L 55 958 L 55 1077 L 242 1077 L 242 1241 C 242 1331 267 1400 319 1447 C 370 1494 445 1518 545 1518 C 547 1518 552 1517 560 1517 C 568 1517 576 1516 584 1516 C 592 1516 600 1515 607 1515 C 613 1514 617 1513 618 1513 L 633 1397 C 623 1399 611 1400 595 1400 C 579 1400 566 1401 555 1401 C 505 1401 463 1389 431 1366 C 399 1343 383 1303 383 1245 L 383 1077 L 842 1077 L 842 1241 C 842 1331 867 1400 919 1447 C 971 1494 1047 1518 1147 1518 C 1149 1518 1155 1517 1163 1517 C 1171 1517 1179 1516 1187 1516 C 1195 1516 1202 1515 1208 1515 C 1214 1514 1218 1513 1219 1513 L 1235 1397 C 1226 1399 1214 1400 1198 1400 C 1182 1400 1167 1401 1155 1401 C 1105 1401 1063 1389 1031 1366 C 999 1343 983 1303 983 1245 L 983 1077 Z" unicode="ﬃ" />
<glyph horiz-adv-x="1759" d="M 1583 0 L 1442 0 L 1442 1505 L 1583 1526 L 1583 0 Z M 983 1077 L 1214 1077 L 1214 958 L 983 958 L 983 0 L 842 0 L 842 958 L 383 958 L 383 0 L 242 0 L 242 958 L 55 958 L 55 1077 L 242 1077 L 242 1241 C 242 1331 267 1400 319 1447 C 370 1494 445 1518 545 1518 C 557 1518 570 1517 585 1516 C 600 1515 611 1514 618 1513 L 633 1397 C 623 1399 611 1400 595 1400 C 579 1400 566 1401 555 1401 C 505 1401 463 1389 431 1366 C 399 1343 383 1303 383 1245 L 383 1077 L 842 1077 L 842 1241 C 842 1331 867 1400 919 1447 C 971 1494 1047 1518 1147 1518 C 1157 1518 1170 1517 1185 1516 C 1200 1515 1211 1514 1219 1513 L 1235 1397 C 1226 1399 1214 1400 1198 1400 C 1182 1400 1167 1401 1155 1401 C 1105 1401 1063 1389 1031 1366 C 999 1343 983 1303 983 1245 L 983 1077 Z" unicode="ﬄ" />
<glyph horiz-adv-x="0" d="" unicode="﻿" />
</font>
</defs>
</svg>
