<?xml version="1.0" encoding="utf-8" ?><svg version="1.1" xmlns = 'http://www.w3.org/2000/svg'><defs><font id='web' horiz-adv-x="1000">
<font-face font-family="web" descent="-436" cap-height="1516" units-per-em="2048" bbox="-199,-457,2605,1952" x-height="1075" ascent="1612" />
<missing-glyph horiz-adv-x="1024" d="" /><glyph horiz-adv-x="442" d="" unicode=" " />
<glyph horiz-adv-x="621" d="M 334 397 L 287 397 L 250 1516 L 371 1516 L 334 397 Z M 309 -8 C 285 -8 266 0 252 16 C 238 32 231 54 231 84 C 231 112 238 134 252 150 C 266 166 285 174 309 174 C 332 174 351 166 366 150 C 381 134 389 112 389 84 C 389 54 381 32 366 16 C 351 0 332 -8 309 -8 Z" unicode="!" />
<glyph horiz-adv-x="803" d="M 592 1010 L 551 1010 L 516 1411 L 516 1516 L 627 1516 L 627 1411 L 592 1010 Z M 252 1010 L 211 1010 L 176 1411 L 176 1516 L 287 1516 L 287 1411 L 252 1010 Z" unicode="&#x22;" />
<glyph horiz-adv-x="1423" d="M 541 969 L 453 547 L 883 547 L 971 969 L 541 969 Z M 338 0 L 244 0 L 340 459 L 98 459 L 98 547 L 358 547 L 446 969 L 186 969 L 186 1057 L 465 1057 L 561 1516 L 655 1516 L 559 1057 L 989 1057 L 1085 1516 L 1180 1516 L 1083 1057 L 1325 1057 L 1325 969 L 1065 969 L 977 547 L 1237 547 L 1237 459 L 958 459 L 862 0 L 768 0 L 864 459 L 434 459 L 338 0 Z" unicode="#" />
<glyph horiz-adv-x="1309" d="M 608 856 L 608 1434 C 551 1431 502 1422 460 1407 C 418 1391 383 1372 356 1348 C 329 1324 309 1296 296 1264 C 282 1232 276 1199 276 1165 C 276 1120 284 1081 302 1049 C 320 1016 344 988 374 965 C 404 941 440 921 480 904 C 520 886 563 870 608 856 Z M 694 729 L 694 86 C 743 88 790 95 836 107 C 882 118 922 135 957 158 C 991 181 1019 211 1040 247 C 1060 283 1071 328 1071 381 C 1071 435 1060 480 1039 518 C 1018 556 990 587 956 613 C 921 639 881 661 836 679 C 790 697 743 713 694 729 Z M 606 -190 L 606 -6 C 538 -2 478 9 425 29 C 371 49 325 72 287 99 C 248 126 215 155 189 186 C 163 216 143 245 129 272 L 211 324 C 255 253 308 196 370 154 C 432 112 511 88 608 84 L 608 756 C 549 774 493 793 441 815 C 388 837 342 863 303 893 C 263 923 232 960 209 1003 C 185 1046 174 1098 174 1159 C 174 1206 183 1251 202 1295 C 221 1339 249 1377 285 1410 C 321 1443 367 1470 421 1491 C 475 1511 536 1523 606 1526 L 606 1677 L 696 1677 L 696 1524 C 752 1519 801 1509 845 1493 C 889 1477 927 1457 960 1434 C 992 1411 1021 1386 1045 1358 C 1069 1330 1089 1301 1106 1272 L 1024 1217 C 1004 1248 983 1276 963 1302 C 942 1327 919 1349 893 1367 C 867 1385 838 1399 806 1410 C 774 1421 736 1428 694 1432 L 694 829 C 752 811 809 792 867 771 C 925 749 976 722 1021 690 C 1066 658 1103 617 1131 569 C 1159 520 1174 459 1174 387 C 1174 329 1162 277 1140 230 C 1117 182 1085 142 1043 108 C 1001 74 951 47 892 27 C 833 7 768 -4 696 -8 L 696 -190 L 606 -190 Z" unicode="$" />
<glyph horiz-adv-x="1921" d="M 459 645 C 407 645 360 655 320 677 C 280 699 246 729 219 768 C 191 806 170 853 156 907 C 142 961 135 1021 135 1085 C 135 1153 142 1216 158 1272 C 174 1328 196 1375 224 1414 C 252 1453 287 1483 328 1504 C 368 1525 413 1536 463 1536 C 512 1536 557 1525 597 1505 C 637 1484 670 1454 698 1416 C 725 1378 746 1331 761 1277 C 776 1222 784 1161 784 1094 C 784 1030 776 970 762 915 C 747 859 726 812 699 772 C 671 732 637 701 597 679 C 556 656 510 645 459 645 Z M 557 0 L 459 0 L 1364 1516 L 1462 1516 L 557 0 Z M 461 733 C 497 733 529 742 557 761 C 585 780 608 806 627 838 C 646 870 661 908 671 952 C 681 995 686 1041 686 1090 C 686 1142 681 1190 671 1234 C 661 1278 646 1316 627 1348 C 607 1379 583 1403 555 1421 C 527 1439 495 1448 459 1448 C 423 1448 390 1438 362 1420 C 334 1401 310 1376 291 1344 C 272 1312 258 1274 248 1231 C 238 1187 233 1142 233 1094 C 233 1041 238 992 248 948 C 258 904 272 866 292 834 C 311 802 335 778 364 760 C 392 742 425 733 461 733 Z M 1460 -20 C 1408 -20 1361 -9 1321 12 C 1281 34 1247 64 1220 103 C 1192 141 1172 188 1158 242 C 1144 296 1137 356 1137 420 C 1137 488 1144 550 1160 606 C 1176 662 1198 709 1226 748 C 1254 787 1289 817 1329 838 C 1369 859 1414 870 1464 870 C 1513 870 1558 859 1598 839 C 1638 818 1671 788 1699 750 C 1727 712 1748 665 1763 611 C 1778 556 1786 495 1786 428 C 1786 364 1778 304 1764 249 C 1749 194 1728 147 1700 107 C 1672 67 1638 36 1598 14 C 1557 -8 1511 -20 1460 -20 Z M 1462 68 C 1498 68 1530 77 1558 96 C 1586 115 1610 141 1629 173 C 1648 205 1663 242 1673 286 C 1683 329 1688 375 1688 424 C 1688 476 1683 525 1673 569 C 1663 613 1648 650 1629 682 C 1609 713 1585 737 1557 755 C 1528 773 1496 782 1460 782 C 1424 782 1392 772 1364 754 C 1336 735 1312 710 1293 678 C 1274 646 1260 608 1250 565 C 1240 522 1235 476 1235 428 C 1235 375 1240 326 1250 282 C 1260 238 1274 200 1294 168 C 1313 136 1337 112 1365 94 C 1393 76 1426 68 1462 68 Z" unicode="%" />
<glyph horiz-adv-x="1466" d="M 543 887 C 587 909 630 933 671 959 C 712 984 748 1011 778 1041 C 808 1070 833 1102 851 1138 C 869 1174 879 1213 879 1257 C 879 1282 875 1306 868 1330 C 860 1354 849 1375 833 1393 C 817 1411 796 1425 770 1436 C 744 1446 714 1452 678 1452 C 639 1452 605 1445 576 1432 C 546 1418 522 1400 503 1378 C 484 1355 470 1328 460 1297 C 450 1266 446 1233 446 1198 C 446 1144 453 1092 468 1044 C 483 996 508 943 543 887 Z M 588 63 C 662 63 730 75 794 101 C 857 127 913 163 961 209 C 917 251 870 300 820 358 C 770 416 714 483 653 559 C 622 597 593 634 567 669 C 541 703 517 736 496 768 C 450 743 409 716 372 687 C 335 658 303 627 277 595 C 251 562 230 527 216 491 C 202 455 195 417 195 377 C 195 281 227 204 293 148 C 358 91 456 63 588 63 Z M 586 -29 C 502 -29 429 -19 367 0 C 305 18 253 45 213 80 C 172 115 142 158 122 208 C 102 258 92 313 92 375 C 92 428 101 477 120 523 C 138 568 164 610 196 648 C 228 686 267 721 311 753 C 355 785 401 814 451 842 C 415 903 388 962 370 1019 C 352 1075 344 1134 344 1194 C 344 1239 351 1283 365 1325 C 379 1367 401 1405 429 1437 C 457 1469 492 1495 534 1515 C 576 1534 625 1544 680 1544 C 728 1544 770 1536 808 1522 C 846 1508 877 1488 903 1463 C 928 1438 947 1408 961 1374 C 974 1339 981 1302 981 1262 C 981 1211 970 1164 950 1122 C 930 1079 902 1040 867 1004 C 832 968 790 934 742 903 C 694 872 642 843 588 815 C 607 785 629 753 655 719 C 680 685 708 648 739 608 C 793 538 843 475 891 420 C 939 365 983 318 1024 279 C 1070 339 1108 409 1138 490 C 1167 570 1187 658 1198 752 L 1303 752 C 1288 648 1263 550 1227 458 C 1191 366 1146 287 1092 219 C 1151 169 1205 133 1255 111 C 1305 89 1353 78 1401 78 L 1413 -20 C 1342 -16 1276 -1 1216 23 C 1156 47 1092 90 1024 150 C 966 94 900 51 827 19 C 753 -13 673 -29 586 -29 Z" unicode="&#x26;" />
<glyph horiz-adv-x="463" d="M 252 1010 L 211 1010 L 176 1411 L 176 1516 L 287 1516 L 287 1411 L 252 1010 Z" unicode="'" />
<glyph horiz-adv-x="811" d="M 688 -369 L 645 -420 C 479 -280 352 -130 266 28 C 180 187 137 362 137 553 C 137 743 180 918 266 1077 C 352 1236 479 1386 645 1526 L 688 1475 C 622 1416 561 1352 507 1283 C 453 1213 407 1140 369 1063 C 331 985 301 904 281 818 C 260 732 250 644 250 553 C 250 461 260 373 281 287 C 301 201 331 120 369 43 C 407 -34 453 -107 507 -177 C 561 -246 622 -310 688 -369 Z" unicode="(" />
<glyph horiz-adv-x="811" d="M 166 -420 L 123 -369 C 189 -310 249 -246 303 -177 C 357 -107 404 -34 442 43 C 480 120 509 201 530 287 C 550 373 561 461 561 553 C 561 644 550 732 530 818 C 509 904 480 985 442 1063 C 404 1140 357 1213 303 1283 C 249 1352 189 1416 123 1475 L 166 1526 C 332 1386 458 1236 544 1077 C 630 918 674 743 674 553 C 674 362 630 187 544 28 C 458 -130 332 -280 166 -420 Z" unicode=")" />
<glyph horiz-adv-x="1040" d="M 520 1094 L 354 745 L 268 797 L 487 1112 L 102 1085 L 102 1180 L 487 1153 L 268 1468 L 354 1520 L 520 1171 L 686 1520 L 772 1468 L 553 1153 L 938 1180 L 938 1085 L 553 1112 L 772 797 L 686 745 L 520 1094 Z" unicode="*" />
<glyph horiz-adv-x="1298" d="M 696 147 L 602 147 L 602 618 L 133 618 L 133 709 L 602 709 L 602 1180 L 696 1180 L 696 709 L 1165 709 L 1165 618 L 696 618 L 696 147 Z" unicode="+" />
<glyph horiz-adv-x="543" d="M 242 -199 L 182 -199 L 233 164 L 369 164 L 242 -199 Z" unicode="," />
<glyph horiz-adv-x="731" d="M 588 594 L 143 594 L 143 692 L 588 692 L 588 594 Z" unicode="-" />
<glyph horiz-adv-x="543" d="M 270 -8 C 246 -8 228 0 214 16 C 200 32 193 54 193 84 C 193 112 200 134 214 150 C 228 166 246 174 270 174 C 293 174 312 166 327 150 C 342 134 350 112 350 84 C 350 54 342 32 327 16 C 312 0 293 -8 270 -8 Z" unicode="." />
<glyph horiz-adv-x="1081" d="M 154 0 L 47 0 L 928 1516 L 1034 1516 L 154 0 Z" unicode="/" />
<glyph horiz-adv-x="1317" d="M 659 -29 C 573 -29 496 -10 429 27 C 361 65 305 118 260 187 C 214 255 180 338 156 436 C 132 533 121 640 121 758 C 121 875 132 982 156 1080 C 180 1177 214 1260 260 1328 C 305 1396 361 1449 429 1487 C 496 1525 573 1544 659 1544 C 745 1544 821 1525 889 1487 C 956 1449 1012 1396 1057 1328 C 1102 1260 1136 1177 1160 1080 C 1184 982 1196 875 1196 758 C 1196 640 1184 533 1160 436 C 1136 338 1102 255 1057 187 C 1012 118 956 65 889 27 C 821 -10 745 -29 659 -29 Z M 659 61 C 726 61 787 76 841 107 C 895 138 941 183 979 242 C 1016 300 1045 373 1065 460 C 1085 547 1096 646 1096 758 C 1096 868 1085 967 1064 1054 C 1043 1141 1014 1214 976 1273 C 938 1331 892 1376 838 1407 C 784 1438 724 1454 659 1454 C 591 1454 530 1438 476 1407 C 421 1376 375 1331 338 1273 C 300 1214 271 1141 251 1054 C 231 967 221 868 221 758 C 221 646 231 547 252 460 C 273 373 303 300 341 242 C 379 183 425 138 479 107 C 533 76 593 61 659 61 Z" unicode="0" />
<glyph horiz-adv-x="872" d="M 565 0 L 465 0 L 465 1419 L 174 1313 L 160 1401 L 473 1516 L 565 1516 L 565 0 Z" unicode="1" />
<glyph horiz-adv-x="1190" d="M 1061 0 L 109 0 L 109 33 C 109 87 117 141 134 194 C 150 247 179 301 219 355 C 259 409 312 464 379 522 C 446 580 529 641 629 705 C 741 776 821 844 871 908 C 921 972 946 1046 946 1128 C 946 1176 938 1220 924 1260 C 910 1300 889 1335 861 1363 C 833 1391 797 1414 755 1430 C 713 1446 664 1454 610 1454 C 521 1454 446 1431 384 1386 C 322 1340 269 1271 225 1178 L 141 1219 C 190 1325 255 1405 337 1461 C 418 1516 510 1544 614 1544 C 680 1544 740 1533 794 1513 C 848 1493 893 1464 931 1428 C 968 1392 997 1348 1017 1298 C 1037 1248 1047 1193 1047 1135 C 1047 1081 1039 1032 1024 988 C 1009 943 986 900 954 859 C 922 818 880 777 829 736 C 777 695 715 652 643 606 C 500 515 393 425 323 337 C 253 248 217 167 215 94 L 1044 94 L 1061 0 Z" unicode="2" />
<glyph horiz-adv-x="1194" d="M 575 -29 C 521 -29 470 -22 420 -9 C 370 3 324 22 281 47 C 238 71 199 102 163 138 C 127 174 96 214 70 260 L 154 311 C 208 223 271 160 341 120 C 411 80 490 61 578 61 C 636 61 689 69 737 86 C 785 103 825 126 858 156 C 891 186 916 221 934 263 C 952 305 961 350 961 399 C 961 457 952 509 934 555 C 916 600 888 638 848 669 C 808 699 755 722 690 738 C 624 754 544 762 449 762 L 395 762 L 395 852 L 461 852 C 626 852 745 877 819 929 C 893 981 930 1058 930 1161 C 930 1201 923 1240 910 1276 C 897 1312 877 1343 849 1369 C 821 1395 786 1415 742 1431 C 698 1446 646 1454 586 1454 C 504 1454 434 1435 374 1397 C 314 1359 263 1312 221 1255 L 139 1309 C 164 1341 192 1372 224 1401 C 255 1429 289 1454 326 1475 C 362 1496 402 1513 446 1525 C 490 1537 537 1544 588 1544 C 666 1544 734 1533 790 1511 C 846 1489 892 1461 928 1426 C 963 1390 989 1350 1005 1305 C 1021 1259 1030 1213 1030 1167 C 1030 1117 1022 1072 1008 1031 C 993 990 972 954 946 924 C 919 894 886 869 848 849 C 810 829 767 815 721 807 C 833 783 918 739 975 673 C 1032 607 1061 517 1061 403 C 1061 343 1049 287 1027 235 C 1005 182 973 136 931 97 C 889 58 838 27 778 5 C 718 -17 650 -29 575 -29 Z" unicode="3" />
<glyph horiz-adv-x="1208" d="M 899 0 L 801 0 L 801 389 L 74 389 L 74 461 L 764 1516 L 899 1516 L 899 481 L 1147 481 L 1165 389 L 899 389 L 899 0 Z M 797 1399 L 195 481 L 801 481 L 801 1399 L 797 1399 Z" unicode="4" />
<glyph horiz-adv-x="1180" d="M 575 -29 C 521 -29 470 -21 422 -7 C 373 6 328 26 288 52 C 247 77 210 107 177 143 C 143 179 115 218 92 260 L 176 311 C 198 274 222 240 249 210 C 275 179 305 153 338 131 C 370 109 407 91 447 79 C 487 67 530 61 578 61 C 646 61 705 73 755 98 C 805 123 847 156 880 197 C 912 237 937 284 953 336 C 969 388 977 440 977 494 C 977 559 967 617 949 668 C 930 718 904 761 872 795 C 839 829 800 856 756 874 C 711 892 663 901 612 901 C 527 901 456 882 399 844 C 341 806 292 756 250 694 L 166 729 L 223 1516 L 977 1516 L 995 1417 L 315 1417 L 270 840 C 310 886 357 923 411 950 C 465 977 532 991 614 991 C 679 991 740 979 797 956 C 853 933 902 901 944 859 C 985 817 1017 765 1041 704 C 1065 643 1077 575 1077 500 C 1077 425 1065 355 1042 291 C 1018 226 985 170 942 123 C 899 76 846 39 784 12 C 722 -15 652 -29 575 -29 Z" unicode="5" />
<glyph horiz-adv-x="1231" d="M 639 -29 C 569 -29 503 -14 440 16 C 377 46 322 91 275 153 C 228 215 191 294 163 390 C 135 486 121 600 121 731 C 121 840 134 944 161 1043 C 188 1142 226 1228 276 1302 C 325 1376 385 1434 455 1478 C 525 1522 604 1544 690 1544 C 773 1544 842 1533 898 1512 C 953 1491 1000 1464 1040 1432 L 983 1352 C 963 1368 943 1382 923 1395 C 903 1407 881 1418 859 1427 C 836 1435 811 1442 783 1447 C 755 1451 723 1454 688 1454 C 614 1454 548 1434 490 1396 C 431 1357 381 1305 341 1239 C 301 1173 270 1095 249 1006 C 228 917 218 823 219 723 C 242 750 269 777 299 804 C 329 830 363 854 400 874 C 437 894 478 911 522 923 C 566 935 613 942 664 942 C 746 942 816 929 876 904 C 935 879 984 845 1022 803 C 1060 760 1088 710 1106 653 C 1124 595 1133 535 1133 471 C 1133 401 1121 335 1099 274 C 1076 213 1043 160 1001 116 C 959 71 907 36 846 10 C 784 -16 715 -29 639 -29 Z M 645 61 C 701 61 753 70 801 88 C 848 106 888 132 922 167 C 956 201 982 244 1001 295 C 1020 346 1030 405 1030 471 C 1030 525 1022 576 1008 623 C 994 670 971 710 941 744 C 911 778 872 804 825 823 C 777 842 721 852 657 852 C 613 852 570 845 529 833 C 488 821 449 803 413 781 C 377 759 343 732 311 701 C 279 669 250 635 225 598 C 233 505 250 425 276 357 C 302 289 333 233 371 189 C 408 145 450 113 498 92 C 545 71 594 61 645 61 Z" unicode="6" />
<glyph horiz-adv-x="1128" d="M 369 0 L 262 0 L 913 1417 L 129 1417 L 113 1516 L 1022 1516 L 1022 1423 L 369 0 Z" unicode="7" />
<glyph horiz-adv-x="1229" d="M 614 -29 C 531 -29 457 -18 392 2 C 327 23 272 51 228 87 C 183 123 149 164 125 211 C 101 258 90 308 90 360 C 90 414 99 462 118 505 C 136 548 163 587 199 622 C 234 656 277 689 329 719 C 381 749 440 778 506 807 C 399 853 315 905 253 962 C 191 1018 160 1092 160 1184 C 160 1230 170 1274 191 1318 C 212 1362 242 1400 282 1434 C 321 1467 369 1494 425 1514 C 481 1534 544 1544 614 1544 C 686 1544 750 1533 807 1513 C 863 1493 911 1466 950 1433 C 988 1399 1018 1361 1038 1318 C 1058 1274 1069 1230 1069 1184 C 1069 1137 1061 1096 1045 1061 C 1029 1025 1007 993 977 965 C 947 936 911 909 867 885 C 823 860 773 835 717 811 C 784 781 844 751 897 721 C 950 691 994 658 1030 624 C 1065 589 1092 550 1111 507 C 1129 464 1139 415 1139 360 C 1139 310 1127 261 1103 214 C 1079 166 1045 125 1001 89 C 956 53 901 25 836 3 C 770 -18 696 -29 614 -29 Z M 616 854 C 678 880 731 905 776 929 C 821 952 858 976 886 1001 C 914 1026 935 1053 949 1083 C 962 1112 969 1146 969 1184 C 969 1216 961 1249 947 1281 C 933 1313 911 1342 883 1368 C 854 1393 817 1414 772 1430 C 727 1446 674 1454 614 1454 C 556 1454 505 1446 461 1431 C 417 1415 380 1395 350 1370 C 320 1345 298 1317 283 1285 C 267 1253 260 1222 260 1190 C 260 1152 266 1118 280 1089 C 294 1059 315 1032 344 1006 C 373 980 410 955 455 931 C 500 907 554 881 616 854 Z M 614 61 C 674 61 731 68 783 83 C 835 97 879 118 917 144 C 955 170 984 203 1006 241 C 1027 279 1038 321 1038 367 C 1038 412 1028 453 1009 489 C 990 525 962 559 926 590 C 890 621 845 651 792 679 C 738 707 678 735 610 764 C 537 732 474 701 421 672 C 367 642 324 612 290 582 C 256 552 230 519 214 484 C 198 449 190 410 190 367 C 190 322 200 281 222 243 C 243 205 272 173 310 146 C 348 119 393 98 445 83 C 497 68 553 61 614 61 Z" unicode="8" />
<glyph horiz-adv-x="1231" d="M 573 664 C 617 664 659 670 701 682 C 742 694 781 712 817 734 C 853 756 888 783 920 815 C 952 846 980 880 1006 918 C 997 1010 980 1090 954 1158 C 928 1226 897 1281 860 1325 C 822 1369 780 1401 733 1422 C 685 1443 636 1454 586 1454 C 529 1454 477 1445 430 1427 C 382 1409 342 1382 308 1348 C 274 1314 247 1271 229 1220 C 210 1168 201 1110 201 1044 C 201 989 208 938 222 891 C 236 844 259 804 289 771 C 319 737 358 711 405 692 C 452 673 508 664 573 664 Z M 541 -29 C 451 -29 376 -15 314 11 C 252 37 200 71 156 111 L 211 188 C 234 168 257 151 279 135 C 301 119 325 105 351 95 C 377 84 405 76 436 70 C 467 64 503 61 543 61 C 616 61 682 80 741 119 C 799 157 849 209 889 275 C 929 341 960 418 981 508 C 1002 597 1012 692 1012 793 C 988 765 961 738 931 712 C 901 685 867 661 830 641 C 793 621 753 604 709 592 C 665 579 617 573 567 573 C 485 573 414 585 355 610 C 295 635 247 669 209 712 C 171 754 143 804 125 862 C 107 919 98 980 98 1044 C 98 1114 109 1179 132 1240 C 154 1301 187 1354 229 1399 C 271 1443 323 1479 385 1505 C 446 1531 515 1544 592 1544 C 661 1544 727 1529 790 1499 C 853 1469 908 1423 955 1361 C 1002 1299 1040 1221 1068 1125 C 1096 1029 1110 915 1110 784 C 1110 674 1096 570 1069 471 C 1042 372 1004 286 955 212 C 905 138 845 80 775 36 C 705 -7 627 -29 541 -29 Z" unicode="9" />
<glyph horiz-adv-x="543" d="M 270 901 C 246 901 228 909 214 925 C 200 941 193 963 193 993 C 193 1021 200 1043 214 1059 C 228 1075 246 1083 270 1083 C 293 1083 312 1075 327 1059 C 342 1043 350 1021 350 993 C 350 963 342 941 327 925 C 312 909 293 901 270 901 Z M 270 -8 C 246 -8 228 0 214 16 C 200 32 193 54 193 84 C 193 112 200 134 214 150 C 228 166 246 174 270 174 C 293 174 312 166 327 150 C 342 134 350 112 350 84 C 350 54 342 32 327 16 C 312 0 293 -8 270 -8 Z" unicode=":" />
<glyph horiz-adv-x="543" d="M 270 901 C 246 901 228 909 214 925 C 200 941 193 963 193 993 C 193 1021 200 1043 214 1059 C 228 1075 246 1083 270 1083 C 293 1083 312 1075 327 1059 C 342 1043 350 1021 350 993 C 350 963 342 941 327 925 C 312 909 293 901 270 901 Z M 242 -199 L 182 -199 L 233 164 L 369 164 L 242 -199 Z" unicode=";" />
<glyph horiz-adv-x="1298" d="M 1184 260 L 1184 160 L 100 621 L 100 707 L 1184 1167 L 1184 1067 L 221 664 L 1184 260 Z" unicode="&#x3C;" />
<glyph horiz-adv-x="1298" d="M 1165 850 L 131 850 L 131 944 L 1165 944 L 1165 850 Z M 1165 383 L 131 383 L 131 477 L 1165 477 L 1165 383 Z" unicode="=" />
<glyph horiz-adv-x="1298" d="M 1198 621 L 115 160 L 115 260 L 1077 664 L 115 1067 L 115 1167 L 1198 707 L 1198 621 Z" unicode="&#x3E;" />
<glyph horiz-adv-x="1077" d="M 518 397 L 438 397 C 437 415 436 436 435 460 C 434 483 434 506 434 530 C 434 599 446 657 471 704 C 495 751 542 796 610 838 C 654 864 692 889 724 912 C 756 935 782 959 803 984 C 823 1008 839 1036 849 1066 C 859 1096 864 1132 864 1174 C 864 1259 834 1327 775 1377 C 716 1427 636 1452 535 1452 C 443 1452 364 1432 300 1393 C 235 1354 181 1305 137 1245 L 66 1309 C 92 1342 121 1373 153 1402 C 185 1431 220 1456 258 1477 C 296 1497 339 1514 385 1526 C 431 1538 482 1544 537 1544 C 599 1544 657 1535 710 1517 C 762 1499 808 1474 846 1442 C 884 1410 913 1371 935 1326 C 956 1281 967 1232 967 1178 C 967 1127 960 1083 946 1045 C 932 1007 914 973 890 943 C 866 913 837 887 805 863 C 772 839 737 815 700 793 C 658 767 624 743 600 720 C 576 696 558 670 546 642 C 534 614 526 580 523 541 C 519 502 518 454 518 397 Z M 477 -8 C 453 -8 434 0 420 16 C 406 32 399 54 399 84 C 399 112 406 134 420 150 C 434 166 453 174 477 174 C 500 174 519 166 534 150 C 549 134 557 112 557 84 C 557 54 549 32 534 16 C 519 0 500 -8 477 -8 Z" unicode="?" />
<glyph horiz-adv-x="1778" d="M 889 -29 C 775 -29 670 -10 574 27 C 477 65 394 118 324 187 C 254 255 200 338 161 436 C 121 533 102 640 102 758 C 102 875 122 982 162 1080 C 202 1177 258 1260 328 1328 C 398 1396 481 1449 577 1487 C 673 1525 777 1544 889 1544 C 999 1544 1103 1525 1199 1488 C 1295 1450 1379 1398 1449 1331 C 1519 1263 1574 1182 1614 1088 C 1654 994 1675 890 1675 778 C 1675 705 1666 640 1649 584 C 1631 527 1608 479 1578 441 C 1548 402 1513 372 1473 352 C 1433 332 1390 322 1346 322 C 1314 322 1286 326 1260 334 C 1234 342 1211 354 1191 368 C 1171 382 1155 399 1142 418 C 1128 436 1118 456 1112 477 C 1060 431 1005 393 948 365 C 890 336 830 322 766 322 C 721 322 679 328 641 342 C 602 355 569 375 541 402 C 513 429 491 463 475 505 C 459 547 451 596 451 653 C 451 728 461 799 482 867 C 503 935 533 994 571 1045 C 609 1095 656 1135 710 1165 C 764 1195 823 1210 889 1210 C 948 1210 1000 1199 1044 1178 C 1088 1156 1127 1129 1161 1096 L 1176 1192 L 1264 1192 L 1178 590 C 1174 562 1174 537 1180 513 C 1186 489 1196 469 1211 451 C 1226 433 1245 420 1269 410 C 1292 400 1319 395 1350 395 C 1384 395 1416 402 1447 418 C 1477 433 1504 456 1527 487 C 1550 518 1568 558 1582 606 C 1595 654 1602 712 1602 778 C 1602 880 1583 974 1547 1060 C 1511 1146 1461 1219 1398 1281 C 1334 1342 1259 1390 1172 1424 C 1084 1458 990 1475 889 1475 C 787 1475 693 1457 606 1422 C 518 1387 443 1338 380 1275 C 317 1212 268 1136 232 1048 C 196 960 178 863 178 758 C 178 652 196 555 232 467 C 268 379 317 303 380 240 C 443 177 518 128 606 93 C 693 58 787 41 889 41 C 971 41 1046 50 1114 70 C 1181 89 1247 116 1313 150 L 1343 88 C 1277 53 1206 25 1129 3 C 1052 -18 972 -29 889 -29 Z M 762 401 C 820 401 874 411 924 433 C 974 454 1027 491 1083 545 L 1149 999 C 1111 1044 1069 1077 1024 1097 C 979 1117 927 1128 868 1128 C 820 1128 777 1115 737 1090 C 697 1065 662 1031 634 989 C 605 947 583 897 567 840 C 551 783 543 723 543 659 C 543 567 563 501 604 461 C 645 421 698 401 762 401 Z" unicode="@" />
<glyph horiz-adv-x="1358" d="M 186 0 L 82 0 L 618 1522 L 739 1522 L 1274 10 L 1171 -10 L 991 508 L 362 508 L 186 0 Z M 674 1407 L 395 600 L 958 600 L 678 1407 L 674 1407 Z" unicode="A" />
<glyph horiz-adv-x="1391" d="M 760 0 L 203 0 L 203 1516 L 711 1516 C 800 1516 877 1506 941 1487 C 1005 1468 1058 1442 1099 1408 C 1140 1374 1170 1334 1190 1287 C 1209 1240 1219 1189 1219 1133 C 1219 1083 1211 1038 1195 998 C 1179 958 1157 924 1131 895 C 1104 866 1073 842 1038 823 C 1002 804 965 790 926 782 L 926 778 C 972 769 1017 755 1059 735 C 1101 715 1137 690 1169 660 C 1201 630 1226 594 1244 552 C 1262 510 1272 462 1272 410 C 1272 354 1262 301 1243 251 C 1223 201 1193 157 1152 120 C 1111 83 1058 54 993 32 C 928 10 850 0 760 0 Z M 305 1421 L 305 825 L 702 825 C 766 825 824 831 876 843 C 927 855 970 874 1006 899 C 1041 923 1068 955 1087 993 C 1106 1031 1116 1075 1116 1126 C 1116 1226 1083 1301 1017 1349 C 951 1397 848 1421 709 1421 L 305 1421 Z M 305 733 L 305 94 L 766 94 C 904 94 1005 121 1071 177 C 1136 233 1169 310 1169 410 C 1169 464 1158 512 1136 553 C 1114 594 1084 628 1045 654 C 1006 680 958 700 902 713 C 846 726 783 733 715 733 L 305 733 Z" unicode="B" />
<glyph horiz-adv-x="1417" d="M 745 -29 C 651 -29 565 -9 489 29 C 413 68 348 122 295 192 C 242 262 201 346 172 444 C 143 542 129 649 129 766 C 129 874 143 976 172 1072 C 201 1167 242 1249 296 1319 C 349 1389 414 1444 490 1484 C 566 1524 651 1544 745 1544 C 867 1544 970 1515 1054 1457 C 1137 1399 1201 1319 1245 1217 L 1155 1176 C 1117 1267 1065 1336 1000 1382 C 934 1428 849 1452 743 1452 C 666 1452 596 1435 533 1402 C 470 1369 416 1323 372 1263 C 327 1203 292 1131 268 1047 C 243 963 231 870 231 770 C 231 659 243 560 268 472 C 293 384 328 310 373 250 C 418 190 472 143 536 111 C 600 79 670 63 748 63 C 852 63 942 89 1016 143 C 1090 196 1148 273 1188 375 L 1278 336 C 1232 221 1163 131 1071 67 C 979 3 871 -29 745 -29 Z" unicode="C" />
<glyph horiz-adv-x="1438" d="M 567 0 L 203 0 L 203 1516 L 567 1516 C 691 1516 800 1499 894 1466 C 987 1432 1064 1384 1125 1320 C 1186 1256 1232 1176 1263 1082 C 1293 987 1309 879 1309 758 C 1309 637 1293 529 1262 435 C 1231 341 1185 261 1123 197 C 1061 133 984 84 891 50 C 797 16 689 0 567 0 Z M 305 1421 L 305 94 L 590 94 C 686 94 772 107 849 133 C 925 159 990 200 1043 254 C 1095 308 1136 377 1164 461 C 1192 545 1206 644 1206 758 C 1206 870 1191 968 1163 1052 C 1135 1135 1094 1204 1041 1259 C 988 1313 923 1354 846 1381 C 769 1407 682 1421 586 1421 L 305 1421 Z" unicode="D" />
<glyph horiz-adv-x="1223" d="M 1124 0 L 203 0 L 203 1516 L 1079 1516 L 1079 1421 L 305 1421 L 305 852 L 879 852 L 895 758 L 305 758 L 305 94 L 1124 94 L 1124 0 Z" unicode="E" />
<glyph horiz-adv-x="1147" d="M 305 0 L 203 0 L 203 1516 L 1065 1516 L 1065 1421 L 305 1421 L 305 852 L 864 852 L 881 758 L 305 758 L 305 0 Z" unicode="F" />
<glyph horiz-adv-x="1462" d="M 743 -29 C 647 -29 561 -8 485 31 C 409 71 344 127 292 197 C 240 267 199 351 171 449 C 143 546 129 651 129 764 C 129 882 144 989 176 1086 C 208 1182 251 1264 306 1332 C 361 1399 427 1451 503 1488 C 579 1525 662 1544 750 1544 C 874 1544 977 1512 1061 1450 C 1145 1388 1208 1302 1251 1192 L 1157 1151 C 1119 1251 1067 1326 1003 1376 C 939 1426 854 1452 748 1452 C 674 1452 606 1436 543 1405 C 479 1373 425 1328 379 1270 C 333 1212 296 1140 270 1056 C 244 971 231 876 231 770 C 231 664 243 568 267 481 C 291 393 325 319 369 257 C 413 195 468 148 532 114 C 596 80 668 63 748 63 C 816 63 878 75 934 100 C 990 124 1037 160 1076 206 C 1115 252 1145 309 1166 377 C 1186 444 1196 520 1194 604 L 811 604 L 795 698 L 1294 698 L 1294 0 L 1194 0 L 1194 238 L 1190 238 C 1171 202 1148 167 1122 135 C 1096 103 1065 74 1029 50 C 993 26 952 6 904 -7 C 856 -21 803 -29 743 -29 Z" unicode="G" />
<glyph horiz-adv-x="1483" d="M 305 0 L 203 0 L 203 1516 L 305 1516 L 305 850 L 1178 850 L 1178 1516 L 1280 1516 L 1280 0 L 1178 0 L 1178 756 L 305 756 L 305 0 Z" unicode="H" />
<glyph horiz-adv-x="553" d="M 328 0 L 225 0 L 225 1516 L 328 1516 L 328 0 Z" unicode="I" />
<glyph horiz-adv-x="1004" d="M 444 -29 C 362 -29 293 -14 237 15 C 181 44 136 83 100 131 L 166 201 C 196 157 234 123 279 99 C 323 75 378 63 442 63 C 480 63 516 68 549 80 C 582 92 610 111 634 137 C 657 163 675 196 689 238 C 702 280 709 330 709 389 L 709 1516 L 811 1516 L 811 399 C 811 327 802 265 785 211 C 767 157 743 113 711 78 C 679 42 640 16 595 -2 C 549 -20 499 -29 444 -29 Z" unicode="J" />
<glyph horiz-adv-x="1346" d="M 305 0 L 203 0 L 203 1516 L 305 1516 L 305 655 L 1081 1516 L 1210 1516 L 688 946 L 1296 10 L 1188 -10 L 616 866 L 305 526 L 305 0 Z" unicode="K" />
<glyph horiz-adv-x="1147" d="M 1071 0 L 203 0 L 203 1516 L 305 1516 L 305 94 L 1055 94 L 1071 0 Z" unicode="L" />
<glyph horiz-adv-x="1767" d="M 301 0 L 203 0 L 203 1516 L 334 1516 L 881 139 L 885 139 L 1434 1516 L 1565 1516 L 1565 0 L 1460 0 L 1460 1325 L 1456 1325 C 1446 1297 1432 1260 1414 1214 C 1396 1168 1378 1121 1360 1075 L 928 0 L 834 0 L 401 1075 C 383 1121 366 1163 352 1200 C 337 1236 321 1278 305 1325 L 301 1325 L 301 0 Z" unicode="M" />
<glyph horiz-adv-x="1505" d="M 301 0 L 203 0 L 203 1516 L 319 1516 L 1200 201 L 1204 201 L 1204 1516 L 1303 1516 L 1303 0 L 1214 0 L 305 1360 L 301 1360 L 301 0 Z" unicode="N" />
<glyph horiz-adv-x="1501" d="M 752 -29 C 660 -29 576 -9 500 29 C 423 67 357 121 303 191 C 248 260 205 343 175 440 C 144 536 129 642 129 758 C 129 873 144 979 175 1076 C 205 1172 248 1255 303 1324 C 357 1393 423 1447 500 1486 C 576 1524 660 1544 752 1544 C 842 1544 926 1524 1002 1486 C 1078 1447 1144 1393 1198 1324 C 1252 1255 1295 1172 1326 1076 C 1356 979 1372 873 1372 758 C 1372 642 1356 536 1326 440 C 1295 343 1252 260 1198 191 C 1144 121 1078 67 1002 29 C 926 -9 842 -29 752 -29 Z M 752 63 C 826 63 894 79 958 111 C 1021 143 1076 188 1122 248 C 1168 307 1204 380 1230 466 C 1256 552 1270 650 1270 758 C 1270 866 1256 963 1230 1049 C 1204 1135 1168 1208 1122 1268 C 1076 1327 1021 1372 958 1404 C 894 1436 826 1452 752 1452 C 677 1452 608 1436 544 1404 C 480 1372 425 1327 379 1268 C 333 1208 296 1135 270 1049 C 244 963 231 866 231 758 C 231 650 244 552 270 466 C 296 380 333 307 379 248 C 425 188 480 143 544 111 C 608 79 677 63 752 63 Z" unicode="O" />
<glyph horiz-adv-x="1300" d="M 305 0 L 203 0 L 203 1516 L 696 1516 C 860 1516 986 1481 1074 1412 C 1162 1343 1206 1246 1206 1122 C 1206 1052 1193 990 1169 938 C 1144 886 1109 843 1064 809 C 1019 775 964 750 899 734 C 833 717 760 709 680 709 L 305 709 L 305 0 Z M 305 1421 L 305 803 L 688 803 C 818 803 920 826 994 873 C 1067 919 1104 1001 1104 1118 C 1104 1228 1067 1306 994 1352 C 921 1398 818 1421 686 1421 L 305 1421 Z" unicode="P" />
<glyph horiz-adv-x="1501" d="M 1235 -375 L 1137 -375 C 1062 -375 997 -366 942 -348 C 886 -330 840 -306 804 -276 C 768 -245 741 -208 723 -166 C 705 -123 696 -77 696 -27 C 612 -19 535 5 465 47 C 395 89 335 144 285 212 C 235 280 197 361 170 454 C 142 547 129 648 129 758 C 129 873 144 979 175 1076 C 205 1172 248 1255 303 1324 C 357 1393 423 1447 500 1486 C 576 1524 660 1544 752 1544 C 842 1544 926 1524 1002 1486 C 1078 1447 1144 1393 1198 1324 C 1252 1255 1295 1172 1326 1076 C 1356 979 1372 873 1372 758 C 1372 648 1358 546 1330 452 C 1302 358 1263 277 1213 209 C 1163 141 1102 86 1032 45 C 961 3 883 -20 799 -27 C 801 -75 812 -115 830 -148 C 848 -180 872 -206 902 -226 C 932 -246 967 -260 1007 -268 C 1047 -276 1091 -281 1139 -281 L 1251 -281 L 1235 -375 Z M 752 63 C 826 63 894 79 958 111 C 1021 143 1076 188 1122 248 C 1168 307 1204 380 1230 466 C 1256 552 1270 650 1270 758 C 1270 866 1256 963 1230 1049 C 1204 1135 1168 1208 1122 1268 C 1076 1327 1021 1372 958 1404 C 894 1436 826 1452 752 1452 C 677 1452 608 1436 544 1404 C 480 1372 425 1327 379 1268 C 333 1208 296 1135 270 1049 C 244 963 231 866 231 758 C 231 650 244 552 270 466 C 296 380 333 307 379 248 C 425 188 480 143 544 111 C 608 79 677 63 752 63 Z" unicode="Q" />
<glyph horiz-adv-x="1358" d="M 305 0 L 203 0 L 203 1516 L 696 1516 C 860 1516 986 1481 1074 1412 C 1162 1343 1206 1246 1206 1122 C 1206 1061 1197 1008 1179 962 C 1161 916 1135 876 1103 844 C 1071 812 1032 786 986 766 C 940 746 890 732 836 723 L 1231 10 L 1122 -10 L 723 711 L 305 711 L 305 0 Z M 305 1421 L 305 803 L 688 803 C 818 803 920 826 994 873 C 1067 919 1104 1001 1104 1118 C 1104 1228 1067 1306 994 1352 C 921 1398 818 1421 686 1421 L 305 1421 Z" unicode="R" />
<glyph horiz-adv-x="1309" d="M 666 -29 C 544 -29 433 -8 335 31 C 236 71 149 130 74 207 L 137 283 C 202 217 279 163 368 123 C 456 83 555 63 664 63 C 726 63 783 70 833 85 C 883 99 926 120 961 146 C 996 172 1023 204 1042 242 C 1061 280 1071 321 1071 367 C 1071 409 1065 446 1054 479 C 1043 512 1022 543 992 572 C 962 600 919 628 864 654 C 809 680 738 707 651 735 C 567 762 494 789 434 816 C 373 842 323 872 285 905 C 247 938 219 976 201 1018 C 183 1060 174 1111 174 1169 C 174 1219 185 1267 207 1313 C 229 1359 261 1399 301 1433 C 341 1467 389 1494 445 1514 C 501 1534 562 1544 629 1544 C 743 1544 843 1524 927 1485 C 1011 1445 1087 1394 1155 1331 L 1100 1251 C 1029 1315 956 1364 882 1399 C 807 1434 722 1452 627 1452 C 573 1452 524 1444 480 1429 C 436 1414 400 1394 370 1369 C 340 1344 316 1315 300 1282 C 284 1248 276 1213 276 1176 C 276 1130 283 1091 297 1059 C 311 1026 334 997 368 971 C 402 945 447 920 505 896 C 563 872 635 847 721 819 C 802 792 871 765 929 737 C 987 709 1034 677 1070 643 C 1106 608 1132 569 1149 525 C 1165 481 1174 430 1174 373 C 1174 310 1160 254 1134 204 C 1107 154 1071 111 1025 77 C 979 43 925 16 863 -1 C 801 -19 735 -29 666 -29 Z" unicode="S" />
<glyph horiz-adv-x="1249" d="M 676 0 L 573 0 L 573 1421 L 76 1421 L 76 1516 L 1165 1516 L 1182 1421 L 676 1421 L 676 0 Z" unicode="T" />
<glyph horiz-adv-x="1460" d="M 729 -29 C 640 -29 562 -14 495 13 C 427 41 371 79 327 127 C 283 175 249 230 227 294 C 204 358 193 425 193 496 L 193 1516 L 295 1516 L 295 520 C 295 456 303 397 320 341 C 337 285 363 237 399 196 C 434 155 479 123 535 99 C 590 75 655 63 731 63 C 805 63 870 74 925 97 C 979 120 1024 152 1060 192 C 1095 232 1121 280 1139 336 C 1156 392 1165 452 1165 516 L 1165 1516 L 1268 1516 L 1268 502 C 1268 431 1256 363 1234 299 C 1211 234 1177 177 1133 129 C 1088 81 1032 42 964 14 C 896 -14 818 -29 729 -29 Z" unicode="U" />
<glyph horiz-adv-x="1331" d="M 713 -6 L 618 -6 L 86 1505 L 186 1526 L 666 137 L 670 137 L 1147 1516 L 1249 1516 L 713 -6 Z" unicode="V" />
<glyph horiz-adv-x="1880" d="M 596 0 L 494 0 L 92 1505 L 193 1526 L 449 543 C 458 507 467 470 476 434 C 485 398 494 363 502 329 C 510 295 518 264 525 234 C 532 204 539 176 545 152 L 549 152 C 553 176 559 203 566 233 C 573 263 580 294 588 328 C 596 362 604 397 613 433 C 622 469 631 505 641 541 L 883 1516 L 1001 1516 L 1245 532 C 1262 462 1279 394 1295 330 C 1311 265 1325 206 1335 152 L 1339 152 C 1352 210 1366 269 1382 330 C 1398 391 1414 456 1432 524 L 1690 1516 L 1790 1516 L 1386 0 L 1282 0 L 942 1374 L 938 1374 L 596 0 Z" unicode="W" />
<glyph horiz-adv-x="1315" d="M 170 0 L 66 0 L 604 815 L 145 1505 L 250 1526 L 659 897 L 1063 1516 L 1176 1516 L 713 817 L 1243 10 L 1147 -10 L 657 737 L 170 0 Z" unicode="X" />
<glyph horiz-adv-x="1231" d="M 666 0 L 563 0 L 563 674 L 66 1505 L 168 1526 L 618 762 L 1061 1516 L 1171 1516 L 666 674 L 666 0 Z" unicode="Y" />
<glyph horiz-adv-x="1260" d="M 1159 0 L 92 0 L 92 76 L 1028 1427 L 164 1427 L 143 1516 L 1149 1516 L 1149 1440 L 213 88 L 1139 88 L 1159 0 Z" unicode="Z" />
<glyph horiz-adv-x="770" d="M 666 -410 L 188 -410 L 188 1516 L 666 1516 L 666 1434 L 289 1434 L 289 -328 L 666 -328 L 666 -410 Z" unicode="[" />
<glyph horiz-adv-x="1081" d="M 1034 0 L 928 0 L 47 1516 L 154 1516 L 1034 0 Z" unicode="\" />
<glyph horiz-adv-x="770" d="M 582 -410 L 104 -410 L 104 -328 L 481 -328 L 481 1432 L 104 1432 L 104 1516 L 582 1516 L 582 -410 Z" unicode="]" />
<glyph horiz-adv-x="1298" d="M 145 698 L 606 1516 L 692 1516 L 1153 698 L 1053 698 L 649 1413 L 246 698 L 145 698 Z" unicode="^" />
<glyph horiz-adv-x="1024" d="M 1024 -244 L 0 -244 L 0 -154 L 1024 -154 L 1024 -244 Z" unicode="_" />
<glyph horiz-adv-x="1024" d="M 604 1192 L 319 1501 L 473 1501 L 668 1192 L 604 1192 Z" unicode="`" />
<glyph horiz-adv-x="1106" d="M 420 68 C 499 68 575 84 647 117 C 719 150 786 196 848 256 L 848 627 C 717 604 610 579 527 551 C 443 523 378 494 331 463 C 283 431 251 398 233 363 C 215 328 207 292 207 254 C 207 194 226 148 264 116 C 302 84 354 68 420 68 Z M 412 -18 C 314 -18 239 6 187 54 C 135 102 109 166 109 248 C 109 298 121 346 145 391 C 169 436 209 477 266 515 C 323 553 399 587 494 618 C 589 649 707 676 848 700 L 848 766 C 848 847 827 908 786 950 C 744 991 687 1012 614 1012 C 525 1012 448 995 384 963 C 319 931 257 888 197 834 L 139 895 C 205 956 275 1005 350 1042 C 424 1079 513 1098 616 1098 C 672 1098 720 1090 762 1075 C 803 1059 837 1037 865 1009 C 892 981 912 946 926 906 C 939 866 946 821 946 772 L 946 0 L 860 0 L 848 160 C 782 104 713 60 641 29 C 568 -2 492 -18 412 -18 Z" unicode="a" />
<glyph horiz-adv-x="1200" d="M 633 -18 C 559 -18 493 -1 435 32 C 376 66 321 108 270 158 L 270 0 L 172 0 L 172 1507 L 270 1524 L 270 913 C 292 938 317 962 343 984 C 369 1006 397 1026 427 1043 C 457 1059 489 1073 524 1083 C 559 1093 597 1098 637 1098 C 699 1098 757 1086 812 1063 C 866 1040 914 1005 955 959 C 995 913 1027 854 1051 784 C 1075 714 1087 632 1087 539 C 1087 445 1075 363 1051 293 C 1027 223 994 165 953 119 C 912 73 864 38 809 16 C 753 -6 695 -18 633 -18 Z M 639 68 C 685 68 730 77 773 95 C 815 113 852 140 884 178 C 916 216 941 264 960 324 C 979 384 989 455 989 537 C 989 617 979 688 960 748 C 940 808 914 857 882 896 C 850 935 812 964 769 983 C 726 1002 681 1012 635 1012 C 562 1012 498 995 443 961 C 387 927 330 880 270 819 L 270 260 C 330 198 389 151 447 118 C 505 84 569 68 639 68 Z" unicode="b" />
<glyph horiz-adv-x="1077" d="M 561 -23 C 499 -23 441 -9 387 16 C 332 42 284 80 244 128 C 203 176 171 235 147 305 C 123 374 111 451 111 537 C 111 630 124 712 150 783 C 176 853 210 912 253 958 C 295 1004 345 1039 401 1063 C 457 1086 515 1098 575 1098 C 624 1098 668 1091 708 1078 C 748 1064 783 1046 814 1024 C 844 1002 871 975 895 945 C 918 914 938 882 956 848 L 877 799 C 845 866 805 918 758 956 C 710 993 648 1012 571 1012 C 529 1012 487 1003 444 987 C 401 970 362 943 328 906 C 293 869 264 820 242 760 C 220 700 209 626 209 539 C 209 464 218 397 237 338 C 256 278 282 228 314 188 C 346 147 384 116 428 95 C 472 73 518 63 567 63 C 643 63 705 81 753 117 C 800 153 843 206 881 276 L 954 229 C 910 149 857 87 795 43 C 733 0 655 -23 561 -23 Z" unicode="c" />
<glyph horiz-adv-x="1200" d="M 565 68 C 637 68 701 84 757 118 C 812 151 870 198 930 260 L 930 819 C 870 880 810 927 752 961 C 694 995 630 1012 561 1012 C 514 1012 469 1002 427 984 C 384 965 347 936 315 898 C 283 860 258 811 239 751 C 220 691 211 621 211 539 C 211 457 220 387 240 328 C 259 268 285 219 317 181 C 349 143 387 114 430 96 C 473 77 518 68 565 68 Z M 563 -18 C 501 -18 442 -6 388 16 C 333 38 285 72 245 118 C 204 164 172 221 148 291 C 124 361 113 443 113 537 C 113 630 125 712 149 783 C 173 853 205 912 246 958 C 287 1004 335 1039 391 1063 C 446 1086 505 1098 567 1098 C 603 1098 639 1093 674 1083 C 708 1073 741 1060 772 1044 C 802 1027 831 1008 858 986 C 884 964 908 942 930 918 L 930 1507 L 1028 1524 L 1028 0 L 942 0 L 930 162 C 907 138 883 115 857 93 C 831 71 803 52 773 36 C 743 19 710 6 675 -3 C 640 -13 603 -18 563 -18 Z" unicode="d" />
<glyph horiz-adv-x="1104" d="M 590 -23 C 523 -23 460 -10 402 15 C 343 40 292 77 250 125 C 207 173 173 232 148 302 C 123 372 111 451 111 539 C 111 631 124 713 150 783 C 176 853 210 911 253 958 C 295 1004 344 1039 399 1063 C 454 1086 510 1098 567 1098 C 630 1098 688 1085 740 1059 C 792 1033 837 997 875 949 C 912 901 941 843 962 775 C 982 707 993 631 993 547 L 993 532 L 209 532 C 209 459 218 393 238 335 C 257 277 283 228 317 188 C 351 148 391 117 437 95 C 483 73 534 63 588 63 C 660 63 723 77 777 105 C 831 133 884 176 936 233 L 993 170 C 935 106 875 57 814 25 C 753 -6 678 -23 590 -23 Z M 211 614 L 891 614 C 887 669 878 721 863 770 C 848 818 827 860 800 896 C 773 932 740 960 701 981 C 661 1001 616 1012 565 1012 C 523 1012 482 1003 442 987 C 402 970 367 945 335 913 C 303 880 276 839 254 789 C 232 739 217 680 211 614 Z" unicode="e" />
<glyph horiz-adv-x="641" d="M 344 0 L 246 0 L 246 987 L 57 987 L 57 1075 L 246 1075 L 246 1257 C 246 1348 272 1414 326 1455 C 380 1495 451 1516 541 1516 L 588 1516 L 602 1425 C 592 1426 580 1427 566 1427 C 552 1427 539 1427 528 1427 C 474 1427 429 1414 395 1390 C 361 1365 344 1324 344 1266 L 344 1075 L 582 1075 L 582 987 L 344 987 L 344 0 Z" unicode="f" />
<glyph horiz-adv-x="1137" d="M 537 410 C 584 410 627 417 666 431 C 705 445 738 466 766 492 C 793 518 814 549 829 586 C 844 623 852 664 852 709 C 852 755 844 796 830 834 C 816 872 795 904 768 930 C 741 956 708 977 669 992 C 629 1006 585 1014 535 1014 C 487 1014 443 1006 404 991 C 365 976 332 955 305 929 C 277 902 256 870 241 832 C 226 794 219 753 219 709 C 219 664 226 623 242 586 C 257 549 278 518 306 492 C 334 466 367 445 407 431 C 446 417 489 410 537 410 Z M 559 -410 C 389 -410 263 -385 179 -337 C 95 -288 53 -222 53 -139 C 53 -83 71 -33 107 9 C 143 52 194 87 260 113 C 225 125 199 143 183 166 C 166 189 158 218 158 252 C 158 281 169 308 192 333 C 214 358 245 380 283 399 C 233 431 194 474 166 528 C 137 581 123 641 123 709 C 123 766 133 819 155 867 C 177 915 206 956 243 990 C 280 1024 324 1050 374 1069 C 424 1088 478 1098 535 1098 C 593 1098 647 1088 698 1069 C 749 1050 793 1023 831 987 C 861 1007 898 1027 941 1046 C 983 1065 1025 1077 1067 1083 L 1083 977 C 1047 977 1010 974 974 968 C 937 962 904 952 874 938 C 898 907 916 873 929 835 C 941 797 948 755 948 709 C 948 649 936 595 914 548 C 892 500 862 460 825 427 C 787 394 744 369 694 352 C 644 334 591 326 537 326 C 504 326 472 329 441 335 C 409 341 380 349 352 360 C 323 349 300 335 282 319 C 264 302 256 282 256 260 C 256 236 268 217 293 203 C 317 188 362 178 428 172 L 680 150 C 790 139 877 112 941 68 C 1004 24 1036 -37 1036 -117 C 1036 -163 1024 -204 1000 -241 C 976 -277 944 -308 902 -333 C 860 -358 809 -377 751 -390 C 692 -403 628 -410 559 -410 Z M 563 -328 C 680 -328 772 -309 839 -271 C 906 -233 940 -184 940 -125 C 940 -69 915 -25 867 5 C 818 36 741 56 637 66 L 414 84 C 404 84 395 85 386 87 C 377 88 368 89 360 90 C 290 68 238 38 203 -1 C 167 -41 150 -84 150 -131 C 150 -190 182 -238 248 -274 C 313 -310 418 -328 563 -328 Z" unicode="g" />
<glyph horiz-adv-x="1174" d="M 270 0 L 172 0 L 172 1507 L 270 1524 L 270 897 C 299 925 330 951 363 976 C 395 1000 429 1022 463 1040 C 497 1058 533 1072 571 1082 C 608 1092 646 1098 686 1098 C 796 1098 878 1069 932 1012 C 985 954 1012 877 1012 780 L 1012 0 L 913 0 L 913 768 C 913 849 894 910 856 951 C 818 991 759 1012 678 1012 C 603 1012 533 993 467 957 C 401 920 336 870 270 807 L 270 0 Z" unicode="h" />
<glyph horiz-adv-x="467" d="M 233 1341 C 214 1341 199 1347 187 1360 C 175 1372 170 1390 170 1413 C 170 1435 175 1453 187 1465 C 199 1477 214 1483 233 1483 C 251 1483 267 1477 279 1465 C 291 1453 297 1435 297 1413 C 297 1390 291 1372 279 1360 C 267 1347 251 1341 233 1341 Z M 283 0 L 184 0 L 184 1075 L 283 1075 L 283 0 Z" unicode="i" />
<glyph horiz-adv-x="467" d="M 233 1341 C 214 1341 199 1347 187 1360 C 175 1372 170 1390 170 1413 C 170 1435 175 1453 187 1465 C 199 1477 214 1483 233 1483 C 251 1483 267 1477 279 1465 C 291 1453 297 1435 297 1413 C 297 1390 291 1372 279 1360 C 267 1347 251 1341 233 1341 Z M 86 -410 C 80 -410 70 -409 58 -408 C 46 -407 37 -406 31 -406 L 20 -317 C 29 -319 39 -321 50 -322 C 60 -323 72 -324 86 -324 C 114 -324 138 -314 156 -296 C 174 -278 184 -249 184 -211 L 184 1075 L 283 1075 L 283 -199 C 283 -271 266 -324 233 -358 C 200 -392 151 -410 86 -410 Z" unicode="j" />
<glyph horiz-adv-x="1059" d="M 270 0 L 172 0 L 172 1507 L 270 1524 L 270 469 L 825 1075 L 948 1075 L 596 700 L 989 10 L 891 -10 L 526 625 L 270 350 L 270 0 Z" unicode="k" />
<glyph horiz-adv-x="467" d="M 283 0 L 184 0 L 184 1507 L 283 1524 L 283 0 Z" unicode="l" />
<glyph horiz-adv-x="1862" d="M 270 0 L 172 0 L 172 1075 L 258 1075 L 270 897 C 299 925 329 951 361 976 C 392 1000 424 1022 457 1040 C 490 1058 525 1072 561 1082 C 597 1092 634 1098 674 1098 C 764 1098 833 1079 880 1041 C 926 1003 957 954 973 895 C 1003 923 1035 949 1068 974 C 1100 999 1134 1021 1168 1039 C 1202 1057 1238 1071 1275 1082 C 1312 1092 1350 1098 1389 1098 C 1499 1098 1578 1069 1627 1012 C 1675 954 1700 877 1700 780 L 1700 0 L 1602 0 L 1602 768 C 1602 849 1585 910 1551 951 C 1517 991 1459 1012 1378 1012 C 1308 1012 1241 993 1178 957 C 1115 920 1051 870 985 807 L 985 0 L 887 0 L 887 768 C 887 849 870 910 837 951 C 803 991 746 1012 664 1012 C 594 1012 528 993 464 957 C 400 920 336 870 270 807 L 270 0 Z" unicode="m" />
<glyph horiz-adv-x="1174" d="M 270 0 L 172 0 L 172 1075 L 258 1075 L 270 897 C 299 925 330 951 363 976 C 395 1000 429 1022 463 1040 C 497 1058 533 1072 571 1082 C 608 1092 646 1098 686 1098 C 796 1098 878 1069 932 1012 C 985 954 1012 877 1012 780 L 1012 0 L 913 0 L 913 768 C 913 849 894 910 856 951 C 818 991 759 1012 678 1012 C 603 1012 533 993 467 957 C 401 920 336 870 270 807 L 270 0 Z" unicode="n" />
<glyph horiz-adv-x="1167" d="M 584 -23 C 518 -23 456 -9 398 16 C 340 42 290 80 248 128 C 206 176 172 235 148 305 C 123 374 111 451 111 537 C 111 623 123 700 147 770 C 171 840 205 899 247 947 C 289 995 339 1033 397 1059 C 455 1085 517 1098 584 1098 C 650 1098 711 1085 769 1059 C 827 1033 877 995 919 947 C 961 899 995 840 1020 770 C 1044 700 1057 623 1057 537 C 1057 451 1044 374 1020 305 C 995 235 961 176 919 128 C 877 80 827 42 769 16 C 711 -9 650 -23 584 -23 Z M 584 63 C 641 63 693 75 739 99 C 785 123 825 156 857 198 C 889 240 914 291 932 349 C 949 407 958 471 958 539 C 958 601 949 660 933 718 C 917 775 893 825 862 869 C 830 912 791 947 745 973 C 698 999 644 1012 584 1012 C 526 1012 473 999 427 975 C 381 951 341 918 309 876 C 277 834 252 784 235 726 C 217 668 209 605 209 539 C 209 476 217 416 233 358 C 249 300 272 250 304 206 C 335 162 374 128 421 102 C 468 76 522 63 584 63 Z" unicode="o" />
<glyph horiz-adv-x="1200" d="M 639 68 C 685 68 730 77 773 95 C 815 113 852 140 884 178 C 916 216 941 264 960 324 C 979 384 989 455 989 537 C 989 617 979 688 960 748 C 940 808 914 857 882 896 C 850 935 812 964 769 983 C 726 1002 681 1012 635 1012 C 562 1012 498 995 443 961 C 387 927 330 880 270 819 L 270 260 C 330 198 389 151 447 118 C 505 84 569 68 639 68 Z M 270 -401 L 172 -418 L 172 1075 L 258 1075 L 270 918 C 292 942 317 964 343 986 C 369 1008 397 1027 427 1044 C 457 1060 489 1073 524 1083 C 559 1093 597 1098 637 1098 C 699 1098 757 1086 812 1063 C 866 1040 914 1005 955 959 C 995 913 1027 854 1051 784 C 1075 714 1087 632 1087 539 C 1087 445 1075 363 1051 293 C 1027 223 994 165 953 119 C 912 73 864 38 809 16 C 753 -6 695 -18 633 -18 C 559 -18 493 -1 435 32 C 376 66 321 108 270 158 L 270 -401 Z" unicode="p" />
<glyph horiz-adv-x="1200" d="M 930 -418 L 930 162 C 907 138 883 115 857 93 C 831 71 803 52 773 36 C 743 19 710 6 675 -3 C 640 -13 603 -18 563 -18 C 501 -18 442 -6 388 16 C 333 38 285 72 245 118 C 204 164 172 221 148 291 C 124 361 113 443 113 537 C 113 630 125 712 149 783 C 173 853 205 912 246 958 C 287 1004 335 1039 391 1063 C 446 1086 505 1098 567 1098 C 640 1098 706 1081 765 1047 C 823 1013 878 972 930 922 L 942 1075 L 1028 1075 L 1028 -401 L 930 -418 Z M 565 68 C 637 68 701 84 757 118 C 812 151 870 198 930 260 L 930 819 C 870 880 810 927 752 961 C 694 995 630 1012 561 1012 C 514 1012 469 1002 427 984 C 384 965 347 936 315 898 C 283 860 258 811 239 751 C 220 691 211 621 211 539 C 211 457 220 387 240 328 C 259 268 285 219 317 181 C 349 143 387 114 430 96 C 473 77 518 68 565 68 Z" unicode="q" />
<glyph horiz-adv-x="795" d="M 270 0 L 172 0 L 172 1075 L 258 1075 L 270 850 L 274 850 C 296 885 322 918 351 948 C 380 978 413 1005 449 1027 C 485 1049 525 1066 570 1079 C 614 1091 663 1098 717 1098 L 731 1098 L 739 1006 L 694 1006 C 603 1006 521 980 447 928 C 373 876 314 803 270 709 L 270 0 Z" unicode="r" />
<glyph horiz-adv-x="1024" d="M 502 -18 C 454 -18 410 -12 369 -2 C 328 7 291 21 257 39 C 223 56 193 77 167 101 C 140 125 117 152 98 180 L 170 236 C 210 184 257 143 310 113 C 362 83 427 68 504 68 C 604 68 681 87 733 125 C 785 163 811 215 811 281 C 811 313 805 342 795 366 C 784 390 766 411 742 430 C 717 448 684 465 643 480 C 602 495 552 510 492 524 C 424 540 366 558 320 577 C 273 595 236 616 208 640 C 180 663 159 690 147 721 C 135 751 129 787 129 829 C 129 863 136 896 152 929 C 167 961 189 990 219 1015 C 249 1040 286 1060 330 1075 C 374 1090 425 1098 483 1098 C 569 1098 643 1083 705 1054 C 766 1024 819 986 864 940 L 799 872 C 758 916 713 950 663 975 C 613 999 552 1012 481 1012 C 437 1012 398 1007 366 997 C 334 987 307 973 287 957 C 266 940 251 921 241 900 C 231 878 227 856 227 834 C 227 806 231 781 240 760 C 248 739 263 720 284 704 C 305 688 333 673 368 660 C 403 646 447 633 500 621 C 575 602 639 583 691 563 C 743 543 786 520 818 494 C 850 468 873 438 887 404 C 901 370 909 329 909 281 C 909 235 899 193 879 156 C 859 119 831 88 795 62 C 759 36 717 17 667 3 C 617 -11 562 -18 502 -18 Z" unicode="s" />
<glyph horiz-adv-x="717" d="M 506 -14 C 417 -14 351 5 307 44 C 263 83 242 148 242 240 L 242 987 L 53 987 L 53 1075 L 242 1075 L 242 1458 L 340 1475 L 340 1075 L 621 1075 L 621 987 L 340 987 L 340 254 C 340 196 352 152 376 121 C 400 89 446 74 514 74 C 532 74 551 75 569 77 C 587 79 604 83 618 88 L 633 -4 C 614 -7 594 -9 573 -11 C 551 -13 529 -14 506 -14 Z" unicode="t" />
<glyph horiz-adv-x="1174" d="M 487 -23 C 376 -23 294 5 241 63 C 188 120 162 197 162 295 L 162 1075 L 260 1075 L 260 307 C 260 225 279 164 317 124 C 355 83 414 63 496 63 C 570 63 639 81 705 118 C 771 154 837 204 903 268 L 903 1075 L 1001 1075 L 1001 0 L 915 0 L 903 178 C 873 150 842 123 810 99 C 777 75 743 53 709 35 C 675 17 639 2 602 -7 C 564 -17 526 -23 487 -23 Z" unicode="u" />
<glyph horiz-adv-x="1028" d="M 563 -6 L 465 -6 L 70 1065 L 170 1085 L 514 123 L 518 123 L 856 1075 L 963 1075 L 563 -6 Z" unicode="v" />
<glyph horiz-adv-x="1518" d="M 492 0 L 401 0 L 70 1065 L 170 1085 L 338 510 C 348 474 357 441 366 411 C 375 380 384 350 392 321 C 400 291 409 262 417 232 C 425 202 434 169 444 135 L 449 135 C 459 173 468 208 476 239 C 484 269 491 299 499 327 C 507 355 515 383 523 412 C 531 440 541 472 551 508 L 711 1075 L 811 1075 L 973 496 C 983 462 992 430 1000 402 C 1008 373 1015 345 1023 317 C 1030 289 1037 261 1045 232 C 1053 202 1061 170 1071 135 L 1075 135 C 1085 171 1094 203 1102 233 C 1110 262 1118 290 1126 317 C 1134 344 1142 371 1150 399 C 1158 427 1168 458 1178 492 L 1350 1075 L 1450 1075 L 1116 0 L 1024 0 L 762 938 L 758 938 L 492 0 Z" unicode="w" />
<glyph horiz-adv-x="1030" d="M 182 0 L 72 0 L 463 557 L 106 1065 L 207 1085 L 516 633 L 821 1075 L 932 1075 L 567 559 L 952 10 L 852 -10 L 514 481 L 182 0 Z" unicode="x" />
<glyph horiz-adv-x="1063" d="M 178 -410 C 150 -410 126 -408 106 -406 C 86 -404 67 -400 49 -395 L 41 -307 C 57 -311 78 -315 102 -319 C 126 -322 155 -324 190 -324 C 254 -324 304 -309 340 -279 C 376 -249 407 -202 432 -139 L 483 -6 L 70 1065 L 170 1085 L 530 119 L 535 119 L 891 1075 L 997 1075 L 532 -127 C 514 -175 495 -216 475 -252 C 455 -288 431 -317 404 -340 C 377 -363 345 -380 309 -392 C 272 -404 228 -410 178 -410 Z" unicode="y" />
<glyph horiz-adv-x="1024" d="M 936 0 L 90 0 L 90 68 L 776 989 L 154 989 L 137 1075 L 903 1075 L 903 1008 L 215 86 L 920 86 L 936 0 Z" unicode="z" />
<glyph horiz-adv-x="750" d="M 653 -410 L 563 -410 C 469 -410 403 -386 363 -340 C 323 -293 303 -225 303 -137 L 303 268 C 303 318 298 359 289 391 C 279 423 265 448 247 466 C 228 484 204 497 176 504 C 147 510 114 514 76 514 L 76 592 C 114 592 147 595 176 602 C 204 608 228 621 247 639 C 265 657 279 683 289 715 C 298 747 303 788 303 838 L 303 1243 C 303 1331 323 1399 363 1446 C 403 1492 469 1516 563 1516 L 653 1516 L 653 1434 L 563 1434 C 508 1434 468 1421 442 1395 C 416 1369 403 1330 403 1278 L 403 840 C 403 790 399 748 391 716 C 383 683 372 656 358 636 C 343 615 325 599 303 587 C 281 575 256 564 229 555 L 229 551 C 256 541 281 531 303 519 C 325 507 343 490 358 470 C 372 449 383 422 391 390 C 399 357 403 316 403 266 L 403 -172 C 403 -224 416 -263 442 -289 C 468 -315 508 -328 563 -328 L 653 -328 L 653 -410 Z" unicode="{" />
<glyph horiz-adv-x="680" d="M 387 -410 L 293 -410 L 293 1516 L 387 1516 L 387 -410 Z" unicode="|" />
<glyph horiz-adv-x="750" d="M 186 -410 L 96 -410 L 96 -328 L 186 -328 C 241 -328 281 -315 307 -289 C 333 -263 346 -224 346 -172 L 346 266 C 346 316 350 357 358 390 C 366 422 377 449 392 470 C 406 490 424 507 446 519 C 468 531 492 541 520 551 L 520 555 C 492 564 468 575 446 587 C 424 599 406 615 392 636 C 377 656 366 683 358 716 C 350 748 346 790 346 840 L 346 1278 C 346 1330 334 1370 311 1399 C 288 1427 249 1442 195 1442 L 104 1442 L 96 1516 L 186 1516 C 280 1516 346 1492 386 1446 C 426 1399 446 1331 446 1243 L 446 838 C 446 788 450 747 460 715 C 469 683 483 657 502 639 C 520 621 544 608 573 602 C 602 595 636 592 674 592 L 674 514 C 636 514 602 510 573 504 C 544 497 520 484 502 466 C 483 448 469 423 460 391 C 450 359 446 318 446 268 L 446 -137 C 446 -225 426 -293 386 -340 C 346 -386 280 -410 186 -410 Z" unicode="}" />
<glyph horiz-adv-x="1298" d="M 934 555 C 904 557 861 565 805 581 C 749 596 691 612 631 630 C 571 648 514 664 461 680 C 408 696 370 705 348 707 C 315 709 288 704 266 690 C 244 676 231 650 227 610 L 154 616 C 158 684 180 734 219 764 C 257 794 305 807 362 803 C 391 800 434 791 490 775 C 546 759 605 743 665 725 C 725 707 781 690 834 675 C 887 659 925 651 948 649 C 982 647 1010 653 1032 667 C 1054 681 1066 708 1069 748 L 1145 741 C 1139 673 1116 623 1078 593 C 1039 563 991 550 934 555 Z" unicode="~" />
<glyph horiz-adv-x="442" d="" unicode=" " />
<glyph horiz-adv-x="621" d="M 309 1524 C 332 1524 351 1516 366 1500 C 381 1484 389 1462 389 1434 C 389 1404 381 1381 366 1365 C 351 1349 332 1341 309 1341 C 285 1341 266 1349 252 1365 C 238 1381 231 1404 231 1434 C 231 1462 238 1484 252 1500 C 266 1516 285 1524 309 1524 Z M 287 1118 L 334 1118 L 371 0 L 250 0 L 287 1118 Z" unicode="¡" />
<glyph horiz-adv-x="1077" d="M 381 123 L 621 1010 C 612 1010 604 1011 596 1011 C 588 1011 579 1012 571 1012 C 529 1012 487 1003 444 987 C 401 970 362 943 328 906 C 293 869 264 820 242 760 C 220 700 209 626 209 539 C 209 441 225 356 257 286 C 289 215 330 161 381 123 Z M 272 -264 L 354 35 C 282 77 223 142 178 229 C 133 315 111 418 111 537 C 111 630 124 712 150 783 C 176 853 210 912 253 958 C 295 1004 345 1039 401 1063 C 457 1086 515 1098 575 1098 C 586 1098 597 1097 607 1096 C 617 1095 628 1094 639 1094 L 696 1307 L 778 1307 L 715 1075 C 779 1053 832 1018 874 970 C 916 922 949 869 975 811 L 891 766 C 867 822 839 869 807 908 C 774 947 734 975 688 993 L 444 88 C 463 80 483 73 504 69 C 524 65 545 63 567 63 C 648 63 713 84 763 126 C 813 168 858 229 899 311 L 977 272 C 932 179 877 107 812 55 C 746 3 663 -23 561 -23 C 537 -23 514 -20 492 -16 C 469 -12 447 -6 426 0 L 354 -264 L 272 -264 Z" unicode="¢" />
<glyph horiz-adv-x="1210" d="M 428 762 L 176 762 L 176 852 L 381 852 C 354 902 330 952 310 1004 C 289 1055 279 1110 279 1169 C 279 1224 287 1275 304 1321 C 320 1367 345 1406 377 1439 C 409 1472 448 1498 495 1516 C 541 1534 594 1544 653 1544 C 718 1544 774 1533 821 1511 C 868 1489 907 1461 937 1426 C 967 1391 989 1351 1005 1306 C 1020 1261 1029 1215 1032 1169 L 932 1163 C 929 1204 922 1242 910 1278 C 898 1314 881 1345 859 1371 C 836 1397 807 1417 772 1432 C 737 1446 695 1454 647 1454 C 562 1454 496 1428 449 1378 C 402 1328 379 1259 379 1171 C 379 1115 390 1061 413 1010 C 436 958 461 906 489 852 L 840 852 L 840 762 L 537 762 C 557 717 575 669 590 619 C 604 568 612 513 612 453 C 612 409 609 367 604 329 C 599 291 592 255 584 223 C 605 203 627 183 649 164 C 671 144 693 127 715 112 C 737 96 761 84 785 75 C 809 65 835 61 862 61 C 925 61 972 85 1002 135 C 1032 184 1051 259 1059 360 L 1153 360 C 1150 304 1142 252 1130 204 C 1118 156 1100 115 1077 81 C 1054 47 1025 20 989 0 C 953 -19 910 -29 860 -29 C 829 -29 800 -24 772 -14 C 744 -4 718 8 693 24 C 667 40 643 58 620 79 C 596 99 573 120 551 141 C 521 85 484 42 438 14 C 392 -14 339 -29 281 -29 C 255 -29 230 -24 205 -16 C 180 -8 158 4 138 20 C 118 36 102 57 90 82 C 78 106 72 134 72 166 C 72 197 77 226 87 253 C 97 280 111 303 130 323 C 148 343 171 358 199 370 C 226 381 257 387 293 387 C 333 387 370 378 404 360 C 438 342 472 320 504 295 C 508 316 511 339 513 365 C 515 390 516 417 516 446 C 516 507 507 563 489 615 C 471 667 451 716 428 762 Z M 479 205 C 448 232 417 255 386 274 C 354 293 322 303 289 303 C 250 303 219 290 196 266 C 173 242 162 210 162 170 C 162 133 174 105 198 85 C 222 65 250 55 283 55 C 329 55 368 67 401 91 C 434 115 460 153 479 205 Z" unicode="£" />
<glyph horiz-adv-x="1298" d="M 647 401 C 608 401 571 406 537 417 C 503 428 472 444 444 465 L 227 248 L 168 307 L 383 522 C 361 550 344 582 332 618 C 319 654 313 692 313 733 C 313 773 318 810 330 845 C 342 879 358 910 379 938 L 168 1149 L 227 1208 L 438 997 C 466 1018 498 1035 534 1047 C 569 1059 607 1065 647 1065 C 687 1065 726 1059 762 1047 C 798 1035 830 1018 858 997 L 1069 1208 L 1128 1149 L 918 938 C 938 910 953 879 965 845 C 977 810 983 773 983 733 C 983 692 976 654 964 618 C 951 582 934 550 913 522 L 1128 307 L 1069 248 L 852 465 C 824 444 793 428 758 417 C 722 406 685 401 647 401 Z M 647 479 C 683 479 716 485 747 497 C 778 509 805 527 827 549 C 849 571 867 598 880 630 C 892 661 899 695 899 733 C 899 771 892 805 880 837 C 867 868 849 895 827 917 C 805 939 778 956 747 968 C 716 980 683 987 647 987 C 611 987 578 980 548 968 C 517 956 490 939 468 917 C 446 895 428 868 416 837 C 403 805 397 771 397 733 C 397 695 403 661 416 630 C 428 598 446 571 468 549 C 490 527 517 509 548 497 C 578 485 611 479 647 479 Z" unicode="¤" />
<glyph horiz-adv-x="1231" d="M 666 0 L 563 0 L 563 281 L 166 281 L 166 375 L 563 375 L 563 590 L 166 590 L 166 682 L 559 682 L 59 1516 L 174 1516 L 618 762 L 1061 1516 L 1171 1516 L 670 682 L 1067 682 L 1067 590 L 666 590 L 666 375 L 1067 375 L 1067 281 L 666 281 L 666 0 Z" unicode="¥" />
<glyph horiz-adv-x="680" d="M 387 678 L 293 678 L 293 1516 L 387 1516 L 387 678 Z M 387 -410 L 293 -410 L 293 428 L 387 428 L 387 -410 Z" unicode="¦" />
<glyph horiz-adv-x="1061" d="M 590 246 C 671 280 734 321 780 369 C 825 417 848 472 848 532 C 848 561 842 587 832 611 C 822 635 803 659 776 685 C 749 710 712 738 665 769 C 617 800 557 837 485 881 C 483 881 480 883 478 885 C 475 887 473 888 471 889 C 392 855 329 813 283 765 C 236 716 213 662 213 602 C 213 572 218 546 228 522 C 238 498 257 474 284 449 C 311 424 348 396 395 365 C 442 334 502 297 575 254 C 577 253 580 252 583 250 C 585 248 588 246 590 246 Z M 532 -410 C 474 -410 423 -402 379 -387 C 335 -371 297 -350 267 -324 C 236 -297 211 -265 192 -228 C 172 -191 158 -151 150 -109 L 244 -88 C 262 -160 293 -216 337 -257 C 381 -298 445 -319 530 -319 C 574 -319 611 -313 642 -301 C 673 -289 698 -274 717 -256 C 736 -238 750 -216 759 -192 C 767 -168 772 -143 772 -119 C 772 -94 768 -71 762 -49 C 756 -27 744 -4 726 18 C 708 40 682 64 649 89 C 615 114 572 142 520 174 C 442 220 376 260 324 295 C 272 329 230 362 199 394 C 167 426 145 458 132 490 C 119 522 113 559 113 600 C 113 642 121 680 138 716 C 155 752 177 784 204 812 C 230 840 260 864 293 886 C 325 907 357 925 389 940 C 347 968 312 995 285 1020 C 257 1045 236 1070 220 1094 C 204 1118 193 1142 187 1168 C 181 1193 178 1220 178 1249 C 178 1285 185 1321 201 1357 C 217 1393 240 1424 270 1452 C 300 1479 336 1501 380 1518 C 424 1535 473 1544 528 1544 C 589 1544 642 1536 688 1521 C 733 1505 771 1484 802 1458 C 833 1431 858 1399 877 1362 C 896 1325 910 1285 920 1243 L 825 1223 C 806 1295 775 1351 731 1392 C 687 1433 620 1454 530 1454 C 486 1454 448 1448 417 1436 C 385 1424 359 1409 339 1391 C 319 1372 304 1351 295 1327 C 285 1303 281 1278 281 1253 C 281 1228 284 1205 291 1183 C 298 1161 311 1139 331 1117 C 350 1094 377 1070 411 1045 C 445 1019 488 991 541 961 C 619 915 684 874 736 839 C 788 804 830 771 862 740 C 893 708 915 676 928 644 C 941 612 948 575 948 535 C 948 493 939 454 923 418 C 906 382 885 350 859 322 C 833 294 803 269 771 247 C 738 225 706 207 674 193 C 716 164 750 137 776 113 C 802 88 822 64 837 40 C 851 16 861 -8 866 -33 C 871 -58 874 -85 874 -115 C 874 -151 866 -187 851 -223 C 836 -258 814 -289 786 -317 C 757 -345 721 -367 679 -384 C 636 -401 587 -410 532 -410 Z" unicode="§" />
<glyph horiz-adv-x="1024" d="M 682 1182 C 660 1182 643 1189 630 1204 C 616 1218 610 1239 610 1266 C 610 1291 616 1311 630 1326 C 643 1340 660 1348 682 1348 C 704 1348 722 1340 736 1326 C 749 1311 756 1291 756 1266 C 756 1239 749 1218 736 1204 C 722 1189 704 1182 682 1182 Z M 338 1182 C 316 1182 299 1189 286 1204 C 272 1218 266 1239 266 1266 C 266 1291 272 1311 286 1326 C 299 1340 316 1348 338 1348 C 360 1348 378 1340 392 1326 C 405 1311 412 1291 412 1266 C 412 1239 405 1218 392 1204 C 378 1189 360 1182 338 1182 Z" unicode="¨" />
<glyph horiz-adv-x="1765" d="M 883 -29 C 775 -29 673 -8 578 33 C 482 74 400 130 330 201 C 260 272 204 356 163 452 C 122 548 102 650 102 758 C 102 866 122 968 163 1064 C 204 1160 260 1243 330 1314 C 400 1384 482 1440 578 1482 C 673 1523 775 1544 883 1544 C 991 1544 1092 1523 1188 1482 C 1283 1440 1366 1384 1436 1314 C 1506 1243 1561 1160 1602 1064 C 1642 968 1663 866 1663 758 C 1663 650 1642 548 1602 452 C 1561 356 1506 272 1436 201 C 1366 130 1283 74 1188 33 C 1092 -8 991 -29 883 -29 Z M 883 41 C 981 41 1073 60 1159 98 C 1245 136 1319 187 1383 252 C 1446 316 1496 392 1533 480 C 1570 567 1589 660 1589 758 C 1589 856 1570 948 1533 1036 C 1496 1123 1446 1199 1383 1264 C 1319 1328 1245 1380 1159 1418 C 1073 1456 981 1475 883 1475 C 785 1475 692 1456 606 1418 C 520 1380 445 1328 382 1264 C 318 1199 268 1123 231 1036 C 194 948 176 856 176 758 C 176 660 194 567 231 480 C 268 392 318 316 382 252 C 445 187 520 136 606 98 C 692 60 785 41 883 41 Z M 879 319 C 825 319 776 330 732 352 C 688 374 650 406 620 446 C 589 486 565 534 549 590 C 532 646 524 707 524 774 C 524 836 532 895 549 950 C 565 1004 589 1052 620 1092 C 650 1132 688 1163 732 1186 C 776 1209 825 1221 879 1221 C 963 1221 1031 1196 1082 1148 C 1133 1100 1170 1032 1194 946 L 1120 928 C 1098 1001 1069 1056 1032 1093 C 995 1130 944 1149 879 1149 C 837 1149 799 1139 765 1121 C 731 1103 702 1077 678 1045 C 654 1012 635 973 622 927 C 608 881 602 830 602 776 C 602 716 608 663 622 615 C 635 567 654 526 678 493 C 702 460 731 435 766 417 C 800 399 839 391 881 391 C 945 391 997 410 1039 449 C 1081 488 1112 546 1133 623 C 1133 623 1136 622 1143 620 C 1149 618 1157 616 1165 614 C 1173 612 1182 610 1190 608 C 1198 606 1203 604 1206 604 C 1182 513 1142 443 1086 393 C 1030 343 961 319 879 319 Z" unicode="©" />
<glyph horiz-adv-x="836" d="M 338 836 C 392 836 443 847 492 871 C 541 895 587 926 629 965 L 629 1202 C 541 1187 468 1171 412 1153 C 356 1135 312 1115 280 1094 C 248 1073 227 1051 215 1027 C 203 1003 197 979 197 954 C 197 916 209 886 234 866 C 259 846 294 836 338 836 Z M 332 760 C 260 760 206 777 168 811 C 130 845 111 892 111 950 C 111 986 119 1019 136 1051 C 152 1083 180 1112 220 1138 C 260 1164 313 1189 380 1211 C 446 1233 529 1253 629 1270 L 629 1309 C 629 1361 615 1401 587 1429 C 559 1456 521 1470 473 1470 C 411 1470 359 1459 315 1438 C 271 1417 228 1387 188 1348 L 129 1397 C 179 1443 230 1479 284 1505 C 338 1531 401 1544 475 1544 C 555 1544 615 1523 654 1481 C 693 1439 713 1383 713 1313 L 713 776 L 641 776 L 629 877 C 584 841 537 812 487 791 C 437 770 386 760 332 760 Z" unicode="ª" />
<glyph horiz-adv-x="1016" d="M 506 0 L 397 0 L 102 539 L 397 1075 L 506 1075 L 215 539 L 506 0 Z M 883 0 L 774 0 L 477 539 L 774 1075 L 883 1075 L 590 539 L 883 0 Z" unicode="«" />
<glyph horiz-adv-x="1286" d="M 1151 717 L 1151 160 L 1063 160 L 1063 633 L 133 633 L 133 717 L 1151 717 Z" unicode="¬" />
<glyph horiz-adv-x="731" d="M 588 594 L 143 594 L 143 692 L 588 692 L 588 594 Z" unicode="­" />
<glyph horiz-adv-x="1128" d="M 565 594 C 499 594 437 606 379 631 C 321 656 270 690 228 733 C 186 776 152 827 127 886 C 102 944 90 1007 90 1073 C 90 1139 102 1201 127 1259 C 152 1317 186 1367 228 1410 C 270 1453 321 1487 379 1512 C 437 1537 499 1550 565 1550 C 631 1550 692 1537 750 1512 C 808 1487 858 1453 900 1410 C 942 1367 976 1317 1001 1259 C 1025 1201 1038 1139 1038 1073 C 1038 1007 1025 944 1001 886 C 976 827 942 776 900 733 C 858 690 808 656 750 631 C 692 606 631 594 565 594 Z M 565 649 C 623 649 677 660 728 682 C 779 704 823 735 861 773 C 898 811 928 856 950 908 C 972 960 983 1015 983 1073 C 983 1131 972 1185 950 1237 C 928 1289 898 1334 861 1372 C 823 1410 779 1440 728 1463 C 677 1485 623 1497 565 1497 C 507 1497 453 1485 402 1463 C 351 1440 307 1410 269 1372 C 231 1334 202 1289 180 1237 C 158 1185 147 1131 147 1073 C 147 1015 158 960 180 908 C 202 856 231 811 269 773 C 307 735 351 704 402 682 C 453 660 507 649 565 649 Z M 393 815 L 393 1348 L 571 1348 C 630 1348 676 1335 708 1309 C 740 1283 756 1248 756 1204 C 756 1161 745 1128 723 1105 C 701 1082 673 1067 637 1061 L 768 821 L 707 811 L 573 1053 L 453 1053 L 453 815 L 393 815 Z M 453 1108 L 569 1108 C 607 1108 638 1114 661 1128 C 684 1141 696 1166 696 1202 C 696 1234 684 1257 661 1270 C 638 1283 607 1290 567 1290 L 453 1290 L 453 1108 Z" unicode="®" />
<glyph horiz-adv-x="1024" d="M 274 1192 L 274 1286 L 750 1286 L 750 1192 L 274 1192 Z" unicode="¯" />
<glyph horiz-adv-x="819" d="M 410 991 C 370 991 332 998 298 1012 C 264 1026 234 1045 209 1069 C 184 1093 164 1123 150 1157 C 136 1191 129 1228 129 1268 C 129 1307 136 1344 150 1378 C 164 1412 184 1441 209 1465 C 234 1489 264 1509 298 1523 C 332 1537 370 1544 410 1544 C 449 1544 486 1537 520 1523 C 554 1509 584 1489 609 1465 C 634 1441 654 1412 668 1378 C 682 1344 690 1307 690 1268 C 690 1228 682 1191 668 1157 C 654 1123 634 1093 609 1069 C 584 1045 554 1026 520 1012 C 486 998 449 991 410 991 Z M 410 1069 C 464 1069 510 1087 547 1125 C 583 1162 602 1210 602 1268 C 602 1326 583 1373 547 1410 C 510 1447 464 1466 410 1466 C 354 1466 308 1447 272 1410 C 235 1373 217 1326 217 1268 C 217 1210 235 1162 272 1125 C 308 1087 354 1069 410 1069 Z" unicode="°" />
<glyph horiz-adv-x="1298" d="M 133 119 L 133 209 L 602 209 L 602 680 L 133 680 L 133 770 L 602 770 L 602 1241 L 696 1241 L 696 770 L 1165 770 L 1165 680 L 696 680 L 696 209 L 1165 209 L 1165 119 L 133 119 Z" unicode="±" />
<glyph horiz-adv-x="899" d="M 143 578 L 143 614 C 143 648 148 681 158 714 C 168 746 185 779 210 813 C 234 846 267 880 308 916 C 349 952 401 990 463 1030 C 526 1070 572 1109 601 1145 C 630 1181 645 1224 645 1272 C 645 1324 629 1366 598 1400 C 566 1433 521 1450 461 1450 C 409 1450 366 1436 332 1409 C 298 1382 266 1339 238 1280 L 158 1319 C 191 1392 234 1446 286 1482 C 338 1518 397 1536 463 1536 C 505 1536 543 1529 577 1516 C 611 1503 639 1485 663 1462 C 687 1439 705 1411 718 1379 C 730 1347 737 1312 737 1274 C 737 1240 732 1210 723 1182 C 714 1154 700 1128 680 1102 C 660 1076 635 1051 603 1025 C 571 999 532 972 487 944 C 409 895 350 847 310 800 C 269 752 246 708 242 668 L 733 668 L 750 578 L 143 578 Z" unicode="²" />
<glyph horiz-adv-x="899" d="M 446 559 C 378 559 317 575 261 609 C 205 643 159 692 123 756 L 197 805 C 231 747 269 706 311 682 C 353 658 399 647 449 647 C 515 647 567 664 605 699 C 643 733 662 778 662 834 C 662 900 640 950 596 985 C 552 1020 477 1038 371 1038 L 324 1038 L 324 1116 L 379 1116 C 470 1116 537 1130 579 1159 C 621 1188 643 1232 643 1290 C 643 1334 628 1372 598 1403 C 568 1434 520 1450 453 1450 C 407 1450 366 1438 331 1416 C 296 1393 264 1363 236 1327 L 164 1374 C 200 1423 242 1462 289 1492 C 336 1521 391 1536 455 1536 C 505 1536 548 1529 584 1515 C 620 1501 649 1482 672 1460 C 694 1437 711 1411 721 1382 C 731 1352 737 1323 737 1294 C 737 1242 723 1197 696 1159 C 668 1121 628 1094 575 1077 C 638 1057 684 1028 713 988 C 741 948 756 898 756 836 C 756 798 748 762 734 728 C 720 694 699 665 673 640 C 647 615 614 595 576 581 C 537 566 494 559 446 559 Z" unicode="³" />
<glyph horiz-adv-x="1024" d="M 356 1192 L 551 1501 L 705 1501 L 420 1192 L 356 1192 Z" unicode="´" />
<glyph horiz-adv-x="1184" d="M 172 0 L 172 0 Z M 270 -410 L 172 -410 L 172 1075 L 270 1075 L 270 307 C 270 225 289 164 327 124 C 365 83 424 63 506 63 C 580 63 649 81 715 118 C 781 154 847 204 913 268 L 913 1075 L 1012 1075 L 1012 0 L 913 0 L 913 178 C 883 150 852 123 820 99 C 788 75 754 53 720 35 C 685 17 649 2 612 -7 C 575 -17 537 -23 498 -23 C 448 -23 404 -16 366 -4 C 328 8 296 32 270 66 L 270 -410 Z" unicode="µ" />
<glyph horiz-adv-x="1260" d="M 731 -410 L 633 -410 L 633 702 C 473 705 350 740 264 808 C 178 875 135 974 135 1106 C 135 1164 145 1219 166 1269 C 186 1319 216 1363 256 1399 C 295 1435 344 1464 403 1485 C 461 1505 528 1516 604 1516 L 1051 1516 L 1051 -410 L 952 -410 L 952 1423 L 731 1423 L 731 -410 Z" unicode="¶" />
<glyph horiz-adv-x="543" d="M 270 553 C 246 553 228 561 214 577 C 200 593 193 615 193 645 C 193 673 200 695 214 711 C 228 727 246 735 270 735 C 293 735 312 727 327 711 C 342 695 350 673 350 645 C 350 615 342 593 327 577 C 312 561 293 553 270 553 Z" unicode="·" />
<glyph horiz-adv-x="1024" d="M 508 -395 C 466 -395 424 -388 382 -376 C 340 -363 302 -345 266 -322 L 299 -270 C 329 -290 361 -306 394 -316 C 427 -326 461 -332 496 -332 C 554 -332 595 -322 621 -304 C 646 -285 659 -259 659 -227 C 659 -203 651 -185 637 -172 C 622 -158 599 -152 569 -152 C 545 -152 524 -156 506 -165 C 487 -173 471 -183 457 -195 L 406 -170 L 457 0 L 532 0 L 498 -115 C 512 -105 527 -98 544 -92 C 561 -86 581 -84 604 -84 C 622 -84 640 -87 658 -93 C 676 -99 691 -107 704 -119 C 717 -130 728 -144 736 -161 C 744 -178 748 -198 748 -221 C 748 -252 741 -279 729 -301 C 716 -323 699 -341 677 -355 C 655 -369 630 -379 601 -385 C 571 -391 540 -395 508 -395 Z" unicode="¸" />
<glyph horiz-adv-x="698" d="M 434 578 L 342 578 L 342 1415 L 193 1370 L 172 1456 L 375 1516 L 434 1516 L 434 578 Z" unicode="¹" />
<glyph horiz-adv-x="862" d="M 430 760 C 383 760 339 769 298 787 C 256 805 220 830 190 864 C 160 898 136 939 118 988 C 100 1036 92 1091 92 1151 C 92 1212 100 1267 118 1316 C 135 1364 159 1405 189 1439 C 219 1473 255 1499 297 1517 C 338 1535 382 1544 430 1544 C 477 1544 521 1535 563 1517 C 605 1499 641 1473 671 1439 C 701 1405 725 1364 743 1316 C 761 1267 770 1212 770 1151 C 770 1091 761 1036 743 988 C 725 939 701 898 671 864 C 641 830 605 805 563 787 C 521 769 477 760 430 760 Z M 430 836 C 470 836 505 844 537 860 C 569 876 596 899 618 927 C 640 955 656 988 668 1027 C 680 1066 686 1108 686 1153 C 686 1194 680 1234 669 1272 C 658 1310 642 1344 621 1373 C 599 1402 573 1425 541 1443 C 509 1461 472 1470 430 1470 C 390 1470 355 1461 323 1445 C 291 1429 265 1406 243 1378 C 221 1350 205 1316 193 1277 C 181 1238 176 1197 176 1153 C 176 1111 181 1070 192 1032 C 202 994 218 960 240 931 C 261 902 287 879 319 862 C 351 844 388 836 430 836 Z" unicode="º" />
<glyph horiz-adv-x="1016" d="M 242 0 L 133 0 L 426 539 L 133 1075 L 242 1075 L 539 539 L 242 0 Z M 618 0 L 510 0 L 801 539 L 510 1075 L 618 1075 L 913 539 L 618 0 Z" unicode="»" />
<glyph horiz-adv-x="1858" d="M 412 0 L 1319 1516 L 1417 1516 L 510 0 L 412 0 Z M 475 578 L 383 578 L 383 1419 L 217 1366 L 197 1452 L 416 1516 L 475 1516 L 475 578 Z M 1475 0 L 1475 233 L 1038 233 L 1038 297 L 1460 942 L 1567 942 L 1567 322 L 1720 322 L 1720 233 L 1567 233 L 1567 0 L 1475 0 Z M 1157 322 L 1475 322 L 1475 805 L 1157 322 Z" unicode="¼" />
<glyph horiz-adv-x="1939" d="M 475 578 L 383 578 L 383 1419 L 217 1366 L 197 1452 L 416 1516 L 475 1516 L 475 578 Z M 412 0 L 1319 1516 L 1417 1516 L 510 0 L 412 0 Z M 1180 0 L 1180 37 C 1180 70 1185 103 1195 136 C 1205 169 1222 202 1246 236 C 1270 269 1303 303 1344 339 C 1385 375 1437 413 1499 453 C 1562 493 1608 532 1637 568 C 1666 604 1681 646 1681 694 C 1681 746 1665 788 1634 822 C 1602 855 1557 872 1497 872 C 1446 872 1403 858 1369 831 C 1334 804 1302 761 1274 702 L 1194 741 C 1228 814 1271 868 1323 904 C 1375 940 1433 958 1499 958 C 1541 958 1579 951 1613 938 C 1647 925 1676 907 1700 884 C 1724 861 1742 833 1755 801 C 1767 769 1774 734 1774 696 C 1774 662 1769 632 1760 604 C 1751 576 1737 550 1717 524 C 1697 498 1672 473 1640 448 C 1608 422 1569 395 1524 367 C 1446 317 1387 269 1346 222 C 1305 174 1282 130 1278 90 L 1778 90 L 1778 0 L 1180 0 Z" unicode="½" />
<glyph horiz-adv-x="1907" d="M 504 0 L 1411 1516 L 1509 1516 L 602 0 L 504 0 Z M 1524 0 L 1524 233 L 1087 233 L 1087 297 L 1509 942 L 1616 942 L 1616 322 L 1769 322 L 1769 233 L 1616 233 L 1616 0 L 1524 0 Z M 1206 322 L 1524 322 L 1524 805 L 1206 322 Z M 446 559 C 378 559 317 575 261 609 C 205 643 159 692 123 756 L 197 805 C 231 747 269 706 311 682 C 353 658 399 647 449 647 C 515 647 567 664 605 699 C 643 733 662 778 662 834 C 662 900 640 950 596 985 C 552 1020 477 1038 371 1038 L 324 1038 L 324 1116 L 379 1116 C 470 1116 537 1130 579 1159 C 621 1188 643 1232 643 1290 C 643 1334 628 1372 598 1403 C 568 1434 520 1450 453 1450 C 407 1450 366 1438 331 1416 C 296 1393 264 1363 236 1327 L 164 1374 C 200 1423 242 1462 289 1492 C 336 1521 391 1536 455 1536 C 505 1536 548 1529 584 1515 C 620 1501 649 1482 672 1460 C 694 1437 711 1411 721 1382 C 731 1352 737 1323 737 1294 C 737 1242 723 1197 696 1159 C 668 1121 628 1094 575 1077 C 638 1057 684 1028 713 988 C 741 948 756 898 756 836 C 756 798 748 762 734 728 C 720 694 699 665 673 640 C 647 615 614 595 576 581 C 537 566 494 559 446 559 Z" unicode="¾" />
<glyph horiz-adv-x="1077" d="M 600 1524 C 623 1524 642 1516 656 1500 C 670 1484 678 1461 678 1432 C 678 1403 670 1381 656 1365 C 642 1349 623 1341 600 1341 C 576 1341 557 1349 542 1365 C 527 1381 520 1403 520 1432 C 520 1461 527 1484 542 1500 C 557 1516 576 1524 600 1524 Z M 559 1118 L 639 1118 C 639 1099 640 1078 641 1055 C 642 1031 643 1008 643 985 C 643 915 630 857 606 811 C 581 764 535 720 467 678 C 423 650 385 625 353 602 C 321 579 294 555 274 531 C 253 506 238 479 228 449 C 218 419 213 383 213 342 C 213 256 242 188 301 138 C 360 88 441 63 543 63 C 634 63 712 82 777 121 C 841 160 896 210 940 270 L 1012 207 C 985 173 956 142 924 113 C 892 84 856 59 818 38 C 780 17 738 1 692 -11 C 646 -23 595 -29 541 -29 C 478 -29 420 -20 367 -2 C 314 16 269 41 231 73 C 193 105 164 143 143 189 C 121 234 111 284 111 338 C 111 388 117 433 131 471 C 145 509 163 542 187 572 C 211 602 239 629 272 653 C 304 677 339 700 377 723 C 419 748 452 772 476 795 C 500 818 519 844 531 873 C 543 901 550 935 554 974 C 557 1013 559 1061 559 1118 Z" unicode="¿" />
<glyph horiz-adv-x="1358" d="M 82 0 L 82 0 Z M 186 0 L 82 0 L 618 1522 L 739 1522 L 1274 10 L 1171 -10 L 991 508 L 362 508 L 186 0 Z M 674 1407 L 395 600 L 958 600 L 678 1407 L 674 1407 Z M 645 1612 L 360 1921 L 514 1921 L 709 1612 L 645 1612 Z" unicode="À" />
<glyph horiz-adv-x="1358" d="M 82 0 L 82 0 Z M 186 0 L 82 0 L 618 1522 L 739 1522 L 1274 10 L 1171 -10 L 991 508 L 362 508 L 186 0 Z M 674 1407 L 395 600 L 958 600 L 678 1407 L 674 1407 Z M 651 1612 L 846 1921 L 1000 1921 L 715 1612 L 651 1612 Z" unicode="Á" />
<glyph horiz-adv-x="1358" d="M 82 0 L 82 0 Z M 186 0 L 82 0 L 618 1522 L 739 1522 L 1274 10 L 1171 -10 L 991 508 L 362 508 L 186 0 Z M 674 1407 L 395 600 L 958 600 L 678 1407 L 674 1407 Z M 373 1602 L 637 1921 L 719 1921 L 983 1602 L 916 1602 L 676 1815 L 436 1602 L 373 1602 Z" unicode="Â" />
<glyph horiz-adv-x="1358" d="M 82 0 L 82 0 Z M 186 0 L 82 0 L 618 1522 L 739 1522 L 1274 10 L 1171 -10 L 991 508 L 362 508 L 186 0 Z M 674 1407 L 395 600 L 958 600 L 678 1407 L 674 1407 Z M 830 1608 C 803 1608 776 1614 749 1626 C 721 1638 695 1651 669 1665 C 643 1679 617 1693 593 1705 C 569 1717 546 1723 526 1723 C 495 1723 473 1714 461 1696 C 448 1678 442 1648 442 1606 L 373 1618 C 373 1684 386 1733 412 1766 C 438 1798 478 1815 530 1815 C 556 1815 583 1809 611 1797 C 638 1785 665 1771 691 1757 C 717 1743 742 1730 766 1718 C 790 1706 813 1700 834 1700 C 864 1700 886 1709 899 1727 C 911 1745 918 1775 918 1817 L 987 1804 C 987 1738 973 1688 947 1656 C 921 1624 882 1608 830 1608 Z" unicode="Ã" />
<glyph horiz-adv-x="1358" d="M 82 0 L 82 0 Z M 186 0 L 82 0 L 618 1522 L 739 1522 L 1274 10 L 1171 -10 L 991 508 L 362 508 L 186 0 Z M 674 1407 L 395 600 L 958 600 L 678 1407 L 674 1407 Z M 848 1602 C 826 1602 809 1609 796 1624 C 782 1638 776 1659 776 1686 C 776 1711 782 1731 796 1746 C 809 1760 826 1768 848 1768 C 870 1768 888 1760 902 1746 C 915 1731 922 1711 922 1686 C 922 1659 915 1638 902 1624 C 888 1609 870 1602 848 1602 Z M 504 1602 C 482 1602 465 1609 452 1624 C 438 1638 432 1659 432 1686 C 432 1711 438 1731 452 1746 C 465 1760 482 1768 504 1768 C 526 1768 544 1760 558 1746 C 571 1731 578 1711 578 1686 C 578 1659 571 1638 558 1624 C 544 1609 526 1602 504 1602 Z" unicode="Ä" />
<glyph horiz-adv-x="1358" d="M 82 0 L 604 1481 C 572 1493 547 1514 528 1544 C 509 1573 500 1607 500 1645 C 500 1695 516 1736 550 1770 C 584 1804 626 1821 678 1821 C 728 1821 771 1804 805 1770 C 839 1736 856 1695 856 1645 C 856 1607 846 1573 828 1545 C 809 1516 784 1495 754 1483 L 1274 10 L 1171 -10 L 991 508 L 362 508 L 186 0 L 82 0 Z M 678 1526 C 710 1526 737 1537 759 1559 C 780 1581 791 1610 791 1645 C 791 1678 780 1706 759 1728 C 737 1750 710 1761 678 1761 C 645 1761 618 1750 597 1728 C 575 1706 565 1678 565 1645 C 565 1610 575 1581 597 1559 C 618 1537 645 1526 678 1526 Z M 395 600 L 958 600 L 678 1407 L 674 1407 L 395 600 Z" unicode="Å" />
<glyph horiz-adv-x="2003" d="M 981 1436 L 508 600 L 983 600 L 983 1436 L 981 1436 Z M 166 0 L 61 0 L 924 1516 L 1860 1516 L 1860 1421 L 1085 1421 L 1085 852 L 1659 852 L 1675 758 L 1085 758 L 1085 94 L 1905 94 L 1905 0 L 983 0 L 983 508 L 455 508 L 166 0 Z" unicode="Æ" />
<glyph horiz-adv-x="1417" d="M 129 0 L 129 0 Z M 745 -29 C 651 -29 565 -9 489 29 C 413 68 348 122 295 192 C 242 262 201 346 172 444 C 143 542 129 649 129 766 C 129 874 143 976 172 1072 C 201 1167 242 1249 296 1319 C 349 1389 414 1444 490 1484 C 566 1524 651 1544 745 1544 C 867 1544 970 1515 1054 1457 C 1137 1399 1201 1319 1245 1217 L 1155 1176 C 1117 1267 1065 1336 1000 1382 C 934 1428 849 1452 743 1452 C 666 1452 596 1435 533 1402 C 470 1369 416 1323 372 1263 C 327 1203 292 1131 268 1047 C 243 963 231 870 231 770 C 231 659 243 560 268 472 C 293 384 328 310 373 250 C 418 190 472 143 536 111 C 600 79 670 63 748 63 C 852 63 942 89 1016 143 C 1090 196 1148 273 1188 375 L 1278 336 C 1232 221 1163 131 1071 67 C 979 3 871 -29 745 -29 Z M 766 -395 C 724 -395 682 -388 640 -376 C 598 -363 560 -345 524 -322 L 557 -270 C 587 -290 619 -306 652 -316 C 685 -326 719 -332 754 -332 C 812 -332 853 -322 879 -304 C 904 -285 917 -259 917 -227 C 917 -203 909 -185 895 -172 C 880 -158 857 -152 827 -152 C 803 -152 782 -156 764 -165 C 745 -173 729 -183 715 -195 L 664 -170 L 715 0 L 790 0 L 756 -115 C 770 -105 785 -98 802 -92 C 819 -86 839 -84 862 -84 C 880 -84 898 -87 916 -93 C 934 -99 949 -107 962 -119 C 975 -130 986 -144 994 -161 C 1002 -178 1006 -198 1006 -221 C 1006 -252 999 -279 987 -301 C 974 -323 957 -341 935 -355 C 913 -369 888 -379 859 -385 C 829 -391 798 -395 766 -395 Z" unicode="Ç" />
<glyph horiz-adv-x="1223" d="M 203 0 L 203 0 Z M 1124 0 L 203 0 L 203 1516 L 1079 1516 L 1079 1421 L 305 1421 L 305 852 L 879 852 L 895 758 L 305 758 L 305 94 L 1124 94 L 1124 0 Z M 649 1612 L 364 1921 L 518 1921 L 713 1612 L 649 1612 Z" unicode="È" />
<glyph horiz-adv-x="1223" d="M 203 0 L 203 0 Z M 1124 0 L 203 0 L 203 1516 L 1079 1516 L 1079 1421 L 305 1421 L 305 852 L 879 852 L 895 758 L 305 758 L 305 94 L 1124 94 L 1124 0 Z M 575 1612 L 770 1921 L 924 1921 L 639 1612 L 575 1612 Z" unicode="É" />
<glyph horiz-adv-x="1223" d="M 203 0 L 203 0 Z M 1124 0 L 203 0 L 203 1516 L 1079 1516 L 1079 1421 L 305 1421 L 305 852 L 879 852 L 895 758 L 305 758 L 305 94 L 1124 94 L 1124 0 Z M 334 1602 L 598 1921 L 680 1921 L 944 1602 L 877 1602 L 637 1815 L 397 1602 L 334 1602 Z" unicode="Ê" />
<glyph horiz-adv-x="1223" d="M 203 0 L 203 0 Z M 1124 0 L 203 0 L 203 1516 L 1079 1516 L 1079 1421 L 305 1421 L 305 852 L 879 852 L 895 758 L 305 758 L 305 94 L 1124 94 L 1124 0 Z M 821 1602 C 799 1602 782 1609 769 1624 C 755 1638 749 1659 749 1686 C 749 1711 755 1731 769 1746 C 782 1760 799 1768 821 1768 C 843 1768 861 1760 875 1746 C 888 1731 895 1711 895 1686 C 895 1659 888 1638 875 1624 C 861 1609 843 1602 821 1602 Z M 477 1602 C 455 1602 438 1609 425 1624 C 411 1638 405 1659 405 1686 C 405 1711 411 1731 425 1746 C 438 1760 455 1768 477 1768 C 499 1768 517 1760 531 1746 C 544 1731 551 1711 551 1686 C 551 1659 544 1638 531 1624 C 517 1609 499 1602 477 1602 Z" unicode="Ë" />
<glyph horiz-adv-x="553" d="M 0 0 L 0 0 Z M 328 0 L 225 0 L 225 1516 L 328 1516 L 328 0 Z M 260 1612 L -25 1921 L 129 1921 L 324 1612 L 260 1612 Z" unicode="Ì" />
<glyph horiz-adv-x="553" d="M 225 0 L 225 0 Z M 328 0 L 225 0 L 225 1516 L 328 1516 L 328 0 Z M 254 1612 L 449 1921 L 603 1921 L 318 1612 L 254 1612 Z" unicode="Í" />
<glyph horiz-adv-x="553" d="M 0 0 L 0 0 Z M 328 0 L 225 0 L 225 1516 L 328 1516 L 328 0 Z M -29 1602 L 235 1921 L 317 1921 L 581 1602 L 514 1602 L 274 1815 L 34 1602 L -29 1602 Z" unicode="Î" />
<glyph horiz-adv-x="553" d="M 30 0 L 30 0 Z M 328 0 L 225 0 L 225 1516 L 328 1516 L 328 0 Z M 446 1602 C 424 1602 407 1609 394 1624 C 380 1638 374 1659 374 1686 C 374 1711 380 1731 394 1746 C 407 1760 424 1768 446 1768 C 468 1768 486 1760 500 1746 C 513 1731 520 1711 520 1686 C 520 1659 513 1638 500 1624 C 486 1609 468 1602 446 1602 Z M 102 1602 C 80 1602 63 1609 50 1624 C 36 1638 30 1659 30 1686 C 30 1711 36 1731 50 1746 C 63 1760 80 1768 102 1768 C 124 1768 142 1760 156 1746 C 169 1731 176 1711 176 1686 C 176 1659 169 1638 156 1624 C 142 1609 124 1602 102 1602 Z" unicode="Ï" />
<glyph horiz-adv-x="1438" d="M 567 0 L 203 0 L 203 758 L 25 758 L 25 852 L 203 852 L 203 1516 L 567 1516 C 691 1516 800 1499 894 1466 C 987 1432 1064 1384 1125 1320 C 1186 1256 1232 1176 1263 1082 C 1293 987 1309 879 1309 758 C 1309 637 1293 529 1262 435 C 1231 341 1185 261 1123 197 C 1061 133 984 84 891 50 C 797 16 689 0 567 0 Z M 305 758 L 305 94 L 590 94 C 686 94 772 107 849 133 C 925 159 990 200 1043 254 C 1095 308 1136 377 1164 461 C 1192 545 1206 644 1206 758 C 1206 870 1191 968 1163 1052 C 1135 1135 1094 1204 1041 1259 C 988 1313 923 1354 846 1381 C 769 1407 682 1421 586 1421 L 305 1421 L 305 852 L 637 852 L 637 758 L 305 758 Z" unicode="Ð" />
<glyph horiz-adv-x="1505" d="M 203 0 L 203 0 Z M 301 0 L 203 0 L 203 1516 L 319 1516 L 1200 201 L 1204 201 L 1204 1516 L 1303 1516 L 1303 0 L 1214 0 L 305 1360 L 301 1360 L 301 0 Z M 924 1608 C 897 1608 870 1614 843 1626 C 815 1638 789 1651 763 1665 C 737 1679 711 1693 687 1705 C 663 1717 640 1723 620 1723 C 589 1723 567 1714 555 1696 C 542 1678 536 1648 536 1606 L 467 1618 C 467 1684 480 1733 506 1766 C 532 1798 572 1815 624 1815 C 650 1815 677 1809 705 1797 C 732 1785 759 1771 785 1757 C 811 1743 836 1730 860 1718 C 884 1706 907 1700 928 1700 C 958 1700 980 1709 993 1727 C 1005 1745 1012 1775 1012 1817 L 1081 1804 C 1081 1738 1067 1688 1041 1656 C 1015 1624 976 1608 924 1608 Z" unicode="Ñ" />
<glyph horiz-adv-x="1501" d="M 129 0 L 129 0 Z M 752 -29 C 660 -29 576 -9 500 29 C 423 67 357 121 303 191 C 248 260 205 343 175 440 C 144 536 129 642 129 758 C 129 873 144 979 175 1076 C 205 1172 248 1255 303 1324 C 357 1393 423 1447 500 1486 C 576 1524 660 1544 752 1544 C 842 1544 926 1524 1002 1486 C 1078 1447 1144 1393 1198 1324 C 1252 1255 1295 1172 1326 1076 C 1356 979 1372 873 1372 758 C 1372 642 1356 536 1326 440 C 1295 343 1252 260 1198 191 C 1144 121 1078 67 1002 29 C 926 -9 842 -29 752 -29 Z M 752 63 C 826 63 894 79 958 111 C 1021 143 1076 188 1122 248 C 1168 307 1204 380 1230 466 C 1256 552 1270 650 1270 758 C 1270 866 1256 963 1230 1049 C 1204 1135 1168 1208 1122 1268 C 1076 1327 1021 1372 958 1404 C 894 1436 826 1452 752 1452 C 677 1452 608 1436 544 1404 C 480 1372 425 1327 379 1268 C 333 1208 296 1135 270 1049 C 244 963 231 866 231 758 C 231 650 244 552 270 466 C 296 380 333 307 379 248 C 425 188 480 143 544 111 C 608 79 677 63 752 63 Z M 729 1612 L 444 1921 L 598 1921 L 793 1612 L 729 1612 Z" unicode="Ò" />
<glyph horiz-adv-x="1501" d="M 129 0 L 129 0 Z M 752 -29 C 660 -29 576 -9 500 29 C 423 67 357 121 303 191 C 248 260 205 343 175 440 C 144 536 129 642 129 758 C 129 873 144 979 175 1076 C 205 1172 248 1255 303 1324 C 357 1393 423 1447 500 1486 C 576 1524 660 1544 752 1544 C 842 1544 926 1524 1002 1486 C 1078 1447 1144 1393 1198 1324 C 1252 1255 1295 1172 1326 1076 C 1356 979 1372 873 1372 758 C 1372 642 1356 536 1326 440 C 1295 343 1252 260 1198 191 C 1144 121 1078 67 1002 29 C 926 -9 842 -29 752 -29 Z M 752 63 C 826 63 894 79 958 111 C 1021 143 1076 188 1122 248 C 1168 307 1204 380 1230 466 C 1256 552 1270 650 1270 758 C 1270 866 1256 963 1230 1049 C 1204 1135 1168 1208 1122 1268 C 1076 1327 1021 1372 958 1404 C 894 1436 826 1452 752 1452 C 677 1452 608 1436 544 1404 C 480 1372 425 1327 379 1268 C 333 1208 296 1135 270 1049 C 244 963 231 866 231 758 C 231 650 244 552 270 466 C 296 380 333 307 379 248 C 425 188 480 143 544 111 C 608 79 677 63 752 63 Z M 698 1612 L 893 1921 L 1047 1921 L 762 1612 L 698 1612 Z" unicode="Ó" />
<glyph horiz-adv-x="1501" d="M 129 0 L 129 0 Z M 752 -29 C 660 -29 576 -9 500 29 C 423 67 357 121 303 191 C 248 260 205 343 175 440 C 144 536 129 642 129 758 C 129 873 144 979 175 1076 C 205 1172 248 1255 303 1324 C 357 1393 423 1447 500 1486 C 576 1524 660 1544 752 1544 C 842 1544 926 1524 1002 1486 C 1078 1447 1144 1393 1198 1324 C 1252 1255 1295 1172 1326 1076 C 1356 979 1372 873 1372 758 C 1372 642 1356 536 1326 440 C 1295 343 1252 260 1198 191 C 1144 121 1078 67 1002 29 C 926 -9 842 -29 752 -29 Z M 752 63 C 826 63 894 79 958 111 C 1021 143 1076 188 1122 248 C 1168 307 1204 380 1230 466 C 1256 552 1270 650 1270 758 C 1270 866 1256 963 1230 1049 C 1204 1135 1168 1208 1122 1268 C 1076 1327 1021 1372 958 1404 C 894 1436 826 1452 752 1452 C 677 1452 608 1436 544 1404 C 480 1372 425 1327 379 1268 C 333 1208 296 1135 270 1049 C 244 963 231 866 231 758 C 231 650 244 552 270 466 C 296 380 333 307 379 248 C 425 188 480 143 544 111 C 608 79 677 63 752 63 Z M 445 1602 L 709 1921 L 791 1921 L 1055 1602 L 988 1602 L 748 1815 L 508 1602 L 445 1602 Z" unicode="Ô" />
<glyph horiz-adv-x="1501" d="M 129 0 L 129 0 Z M 752 -29 C 660 -29 576 -9 500 29 C 423 67 357 121 303 191 C 248 260 205 343 175 440 C 144 536 129 642 129 758 C 129 873 144 979 175 1076 C 205 1172 248 1255 303 1324 C 357 1393 423 1447 500 1486 C 576 1524 660 1544 752 1544 C 842 1544 926 1524 1002 1486 C 1078 1447 1144 1393 1198 1324 C 1252 1255 1295 1172 1326 1076 C 1356 979 1372 873 1372 758 C 1372 642 1356 536 1326 440 C 1295 343 1252 260 1198 191 C 1144 121 1078 67 1002 29 C 926 -9 842 -29 752 -29 Z M 752 63 C 826 63 894 79 958 111 C 1021 143 1076 188 1122 248 C 1168 307 1204 380 1230 466 C 1256 552 1270 650 1270 758 C 1270 866 1256 963 1230 1049 C 1204 1135 1168 1208 1122 1268 C 1076 1327 1021 1372 958 1404 C 894 1436 826 1452 752 1452 C 677 1452 608 1436 544 1404 C 480 1372 425 1327 379 1268 C 333 1208 296 1135 270 1049 C 244 963 231 866 231 758 C 231 650 244 552 270 466 C 296 380 333 307 379 248 C 425 188 480 143 544 111 C 608 79 677 63 752 63 Z M 898 1608 C 871 1608 844 1614 817 1626 C 789 1638 763 1651 737 1665 C 711 1679 685 1693 661 1705 C 637 1717 614 1723 594 1723 C 563 1723 541 1714 529 1696 C 516 1678 510 1648 510 1606 L 441 1618 C 441 1684 454 1733 480 1766 C 506 1798 546 1815 598 1815 C 624 1815 651 1809 679 1797 C 706 1785 733 1771 759 1757 C 785 1743 810 1730 834 1718 C 858 1706 881 1700 902 1700 C 932 1700 954 1709 967 1727 C 979 1745 986 1775 986 1817 L 1055 1804 C 1055 1738 1041 1688 1015 1656 C 989 1624 950 1608 898 1608 Z" unicode="Õ" />
<glyph horiz-adv-x="1501" d="M 129 0 L 129 0 Z M 752 -29 C 660 -29 576 -9 500 29 C 423 67 357 121 303 191 C 248 260 205 343 175 440 C 144 536 129 642 129 758 C 129 873 144 979 175 1076 C 205 1172 248 1255 303 1324 C 357 1393 423 1447 500 1486 C 576 1524 660 1544 752 1544 C 842 1544 926 1524 1002 1486 C 1078 1447 1144 1393 1198 1324 C 1252 1255 1295 1172 1326 1076 C 1356 979 1372 873 1372 758 C 1372 642 1356 536 1326 440 C 1295 343 1252 260 1198 191 C 1144 121 1078 67 1002 29 C 926 -9 842 -29 752 -29 Z M 752 63 C 826 63 894 79 958 111 C 1021 143 1076 188 1122 248 C 1168 307 1204 380 1230 466 C 1256 552 1270 650 1270 758 C 1270 866 1256 963 1230 1049 C 1204 1135 1168 1208 1122 1268 C 1076 1327 1021 1372 958 1404 C 894 1436 826 1452 752 1452 C 677 1452 608 1436 544 1404 C 480 1372 425 1327 379 1268 C 333 1208 296 1135 270 1049 C 244 963 231 866 231 758 C 231 650 244 552 270 466 C 296 380 333 307 379 248 C 425 188 480 143 544 111 C 608 79 677 63 752 63 Z M 920 1602 C 898 1602 881 1609 868 1624 C 854 1638 848 1659 848 1686 C 848 1711 854 1731 868 1746 C 881 1760 898 1768 920 1768 C 942 1768 960 1760 974 1746 C 987 1731 994 1711 994 1686 C 994 1659 987 1638 974 1624 C 960 1609 942 1602 920 1602 Z M 576 1602 C 554 1602 537 1609 524 1624 C 510 1638 504 1659 504 1686 C 504 1711 510 1731 524 1746 C 537 1760 554 1768 576 1768 C 598 1768 616 1760 630 1746 C 643 1731 650 1711 650 1686 C 650 1659 643 1638 630 1624 C 616 1609 598 1602 576 1602 Z" unicode="Ö" />
<glyph horiz-adv-x="1298" d="M 647 588 L 289 227 L 229 287 L 588 645 L 229 1006 L 289 1065 L 647 705 L 1008 1065 L 1067 1006 L 707 645 L 1067 287 L 1008 227 L 647 588 Z" unicode="×" />
<glyph horiz-adv-x="1501" d="M 352 287 L 1102 1292 C 1056 1344 1003 1383 943 1411 C 883 1438 820 1452 752 1452 C 677 1452 608 1436 544 1404 C 480 1372 425 1327 379 1268 C 333 1208 296 1135 270 1049 C 244 963 231 866 231 758 C 231 660 241 572 263 493 C 284 413 314 345 352 287 Z M 1151 1227 L 399 225 C 443 173 496 133 557 105 C 617 77 682 63 752 63 C 826 63 894 79 958 111 C 1021 143 1076 188 1122 248 C 1168 307 1204 380 1230 466 C 1256 552 1270 650 1270 758 C 1270 854 1259 942 1238 1021 C 1216 1100 1187 1169 1151 1227 Z M 1358 1501 L 1212 1307 C 1263 1238 1302 1157 1330 1063 C 1358 969 1372 868 1372 758 C 1372 642 1356 536 1326 440 C 1295 343 1252 260 1198 191 C 1144 121 1078 67 1002 29 C 926 -9 842 -29 752 -29 C 671 -29 596 -13 527 16 C 458 46 397 89 344 143 L 213 -31 L 143 14 L 289 209 C 239 277 199 357 171 451 C 143 545 129 647 129 758 C 129 873 144 979 175 1076 C 205 1172 248 1255 303 1324 C 357 1393 423 1447 500 1486 C 576 1524 660 1544 752 1544 C 831 1544 905 1528 974 1498 C 1043 1468 1104 1426 1157 1372 L 1288 1546 L 1358 1501 Z" unicode="Ø" />
<glyph horiz-adv-x="1460" d="M 193 0 L 193 0 Z M 729 -29 C 640 -29 562 -14 495 13 C 427 41 371 79 327 127 C 283 175 249 230 227 294 C 204 358 193 425 193 496 L 193 1516 L 295 1516 L 295 520 C 295 456 303 397 320 341 C 337 285 363 237 399 196 C 434 155 479 123 535 99 C 590 75 655 63 731 63 C 805 63 870 74 925 97 C 979 120 1024 152 1060 192 C 1095 232 1121 280 1139 336 C 1156 392 1165 452 1165 516 L 1165 1516 L 1268 1516 L 1268 502 C 1268 431 1256 363 1234 299 C 1211 234 1177 177 1133 129 C 1088 81 1032 42 964 14 C 896 -14 818 -29 729 -29 Z M 723 1612 L 438 1921 L 592 1921 L 787 1612 L 723 1612 Z" unicode="Ù" />
<glyph horiz-adv-x="1460" d="M 193 0 L 193 0 Z M 729 -29 C 640 -29 562 -14 495 13 C 427 41 371 79 327 127 C 283 175 249 230 227 294 C 204 358 193 425 193 496 L 193 1516 L 295 1516 L 295 520 C 295 456 303 397 320 341 C 337 285 363 237 399 196 C 434 155 479 123 535 99 C 590 75 655 63 731 63 C 805 63 870 74 925 97 C 979 120 1024 152 1060 192 C 1095 232 1121 280 1139 336 C 1156 392 1165 452 1165 516 L 1165 1516 L 1268 1516 L 1268 502 C 1268 431 1256 363 1234 299 C 1211 234 1177 177 1133 129 C 1088 81 1032 42 964 14 C 896 -14 818 -29 729 -29 Z M 659 1612 L 854 1921 L 1008 1921 L 723 1612 L 659 1612 Z" unicode="Ú" />
<glyph horiz-adv-x="1460" d="M 193 0 L 193 0 Z M 729 -29 C 640 -29 562 -14 495 13 C 427 41 371 79 327 127 C 283 175 249 230 227 294 C 204 358 193 425 193 496 L 193 1516 L 295 1516 L 295 520 C 295 456 303 397 320 341 C 337 285 363 237 399 196 C 434 155 479 123 535 99 C 590 75 655 63 731 63 C 805 63 870 74 925 97 C 979 120 1024 152 1060 192 C 1095 232 1121 280 1139 336 C 1156 392 1165 452 1165 516 L 1165 1516 L 1268 1516 L 1268 502 C 1268 431 1256 363 1234 299 C 1211 234 1177 177 1133 129 C 1088 81 1032 42 964 14 C 896 -14 818 -29 729 -29 Z M 424 1602 L 688 1921 L 770 1921 L 1034 1602 L 967 1602 L 727 1815 L 487 1602 L 424 1602 Z" unicode="Û" />
<glyph horiz-adv-x="1460" d="M 193 0 L 193 0 Z M 729 -29 C 640 -29 562 -14 495 13 C 427 41 371 79 327 127 C 283 175 249 230 227 294 C 204 358 193 425 193 496 L 193 1516 L 295 1516 L 295 520 C 295 456 303 397 320 341 C 337 285 363 237 399 196 C 434 155 479 123 535 99 C 590 75 655 63 731 63 C 805 63 870 74 925 97 C 979 120 1024 152 1060 192 C 1095 232 1121 280 1139 336 C 1156 392 1165 452 1165 516 L 1165 1516 L 1268 1516 L 1268 502 C 1268 431 1256 363 1234 299 C 1211 234 1177 177 1133 129 C 1088 81 1032 42 964 14 C 896 -14 818 -29 729 -29 Z M 899 1602 C 877 1602 860 1609 847 1624 C 833 1638 827 1659 827 1686 C 827 1711 833 1731 847 1746 C 860 1760 877 1768 899 1768 C 921 1768 939 1760 953 1746 C 966 1731 973 1711 973 1686 C 973 1659 966 1638 953 1624 C 939 1609 921 1602 899 1602 Z M 555 1602 C 533 1602 516 1609 503 1624 C 489 1638 483 1659 483 1686 C 483 1711 489 1731 503 1746 C 516 1760 533 1768 555 1768 C 577 1768 595 1760 609 1746 C 622 1731 629 1711 629 1686 C 629 1659 622 1638 609 1624 C 595 1609 577 1602 555 1602 Z" unicode="Ü" />
<glyph horiz-adv-x="1231" d="M 66 0 L 66 0 Z M 666 0 L 563 0 L 563 674 L 66 1505 L 168 1526 L 618 762 L 1061 1516 L 1171 1516 L 666 674 L 666 0 Z M 534 1612 L 729 1921 L 883 1921 L 598 1612 L 534 1612 Z" unicode="Ý" />
<glyph horiz-adv-x="1311" d="M 305 0 L 203 0 L 203 1516 L 305 1516 L 305 1214 L 696 1214 C 860 1213 986 1178 1074 1110 C 1162 1042 1206 945 1206 821 C 1206 751 1193 689 1169 637 C 1144 585 1109 542 1064 508 C 1019 474 964 449 899 433 C 833 416 760 408 680 408 L 305 408 L 305 0 Z M 305 1120 L 305 502 L 688 502 C 818 502 920 525 994 572 C 1067 618 1104 700 1104 817 C 1104 927 1067 1005 994 1051 C 921 1097 818 1120 686 1120 L 305 1120 Z" unicode="Þ" />
<glyph horiz-adv-x="1223" d="M 725 -23 C 669 -23 620 -15 578 0 C 535 14 499 32 471 53 L 506 139 C 532 118 563 100 599 85 C 634 70 678 63 731 63 C 771 63 809 71 843 87 C 877 103 907 127 932 158 C 956 188 975 226 989 271 C 1003 315 1010 366 1010 422 C 1010 556 967 653 883 713 C 799 773 677 807 518 813 L 518 895 C 580 895 633 903 679 918 C 724 933 761 953 791 978 C 821 1002 843 1031 857 1065 C 871 1098 879 1133 879 1171 C 879 1212 871 1249 857 1281 C 843 1313 823 1341 797 1363 C 771 1385 739 1401 702 1413 C 664 1424 623 1430 578 1430 C 480 1430 404 1399 350 1338 C 296 1276 270 1189 270 1077 L 270 0 L 172 0 L 172 1069 C 172 1138 181 1200 199 1256 C 217 1312 244 1359 279 1397 C 313 1435 356 1464 407 1485 C 458 1505 516 1516 580 1516 C 638 1516 692 1508 741 1493 C 789 1478 831 1456 866 1427 C 901 1398 928 1362 948 1320 C 967 1277 977 1228 977 1174 C 977 1099 954 1033 909 977 C 863 920 798 880 713 858 C 767 850 819 836 867 816 C 915 796 956 770 992 736 C 1028 702 1056 659 1077 608 C 1097 557 1108 497 1108 428 C 1108 361 1099 300 1081 244 C 1063 188 1037 141 1005 102 C 972 62 932 32 884 10 C 836 -12 783 -23 725 -23 Z" unicode="ß" />
<glyph horiz-adv-x="1106" d="M 109 0 L 109 0 Z M 420 68 C 499 68 575 84 647 117 C 719 150 786 196 848 256 L 848 627 C 717 604 610 579 527 551 C 443 523 378 494 331 463 C 283 431 251 398 233 363 C 215 328 207 292 207 254 C 207 194 226 148 264 116 C 302 84 354 68 420 68 Z M 412 -18 C 314 -18 239 6 187 54 C 135 102 109 166 109 248 C 109 298 121 346 145 391 C 169 436 209 477 266 515 C 323 553 399 587 494 618 C 589 649 707 676 848 700 L 848 766 C 848 847 827 908 786 950 C 744 991 687 1012 614 1012 C 525 1012 448 995 384 963 C 319 931 257 888 197 834 L 139 895 C 205 956 275 1005 350 1042 C 424 1079 513 1098 616 1098 C 672 1098 720 1090 762 1075 C 803 1059 837 1037 865 1009 C 892 981 912 946 926 906 C 939 866 946 821 946 772 L 946 0 L 860 0 L 848 160 C 782 104 713 60 641 29 C 568 -2 492 -18 412 -18 Z M 575 1192 L 290 1501 L 444 1501 L 639 1192 L 575 1192 Z" unicode="à" />
<glyph horiz-adv-x="1106" d="M 109 0 L 109 0 Z M 420 68 C 499 68 575 84 647 117 C 719 150 786 196 848 256 L 848 627 C 717 604 610 579 527 551 C 443 523 378 494 331 463 C 283 431 251 398 233 363 C 215 328 207 292 207 254 C 207 194 226 148 264 116 C 302 84 354 68 420 68 Z M 412 -18 C 314 -18 239 6 187 54 C 135 102 109 166 109 248 C 109 298 121 346 145 391 C 169 436 209 477 266 515 C 323 553 399 587 494 618 C 589 649 707 676 848 700 L 848 766 C 848 847 827 908 786 950 C 744 991 687 1012 614 1012 C 525 1012 448 995 384 963 C 319 931 257 888 197 834 L 139 895 C 205 956 275 1005 350 1042 C 424 1079 513 1098 616 1098 C 672 1098 720 1090 762 1075 C 803 1059 837 1037 865 1009 C 892 981 912 946 926 906 C 939 866 946 821 946 772 L 946 0 L 860 0 L 848 160 C 782 104 713 60 641 29 C 568 -2 492 -18 412 -18 Z M 516 1192 L 711 1501 L 865 1501 L 580 1192 L 516 1192 Z" unicode="á" />
<glyph horiz-adv-x="1106" d="M 109 0 L 109 0 Z M 420 68 C 499 68 575 84 647 117 C 719 150 786 196 848 256 L 848 627 C 717 604 610 579 527 551 C 443 523 378 494 331 463 C 283 431 251 398 233 363 C 215 328 207 292 207 254 C 207 194 226 148 264 116 C 302 84 354 68 420 68 Z M 412 -18 C 314 -18 239 6 187 54 C 135 102 109 166 109 248 C 109 298 121 346 145 391 C 169 436 209 477 266 515 C 323 553 399 587 494 618 C 589 649 707 676 848 700 L 848 766 C 848 847 827 908 786 950 C 744 991 687 1012 614 1012 C 525 1012 448 995 384 963 C 319 931 257 888 197 834 L 139 895 C 205 956 275 1005 350 1042 C 424 1079 513 1098 616 1098 C 672 1098 720 1090 762 1075 C 803 1059 837 1037 865 1009 C 892 981 912 946 926 906 C 939 866 946 821 946 772 L 946 0 L 860 0 L 848 160 C 782 104 713 60 641 29 C 568 -2 492 -18 412 -18 Z M 264 1182 L 528 1501 L 610 1501 L 874 1182 L 807 1182 L 567 1395 L 327 1182 L 264 1182 Z" unicode="â" />
<glyph horiz-adv-x="1106" d="M 109 0 L 109 0 Z M 420 68 C 499 68 575 84 647 117 C 719 150 786 196 848 256 L 848 627 C 717 604 610 579 527 551 C 443 523 378 494 331 463 C 283 431 251 398 233 363 C 215 328 207 292 207 254 C 207 194 226 148 264 116 C 302 84 354 68 420 68 Z M 412 -18 C 314 -18 239 6 187 54 C 135 102 109 166 109 248 C 109 298 121 346 145 391 C 169 436 209 477 266 515 C 323 553 399 587 494 618 C 589 649 707 676 848 700 L 848 766 C 848 847 827 908 786 950 C 744 991 687 1012 614 1012 C 525 1012 448 995 384 963 C 319 931 257 888 197 834 L 139 895 C 205 956 275 1005 350 1042 C 424 1079 513 1098 616 1098 C 672 1098 720 1090 762 1075 C 803 1059 837 1037 865 1009 C 892 981 912 946 926 906 C 939 866 946 821 946 772 L 946 0 L 860 0 L 848 160 C 782 104 713 60 641 29 C 568 -2 492 -18 412 -18 Z M 715 1188 C 688 1188 661 1194 634 1206 C 606 1218 580 1231 554 1245 C 528 1259 502 1273 478 1285 C 454 1297 431 1303 411 1303 C 380 1303 358 1294 346 1276 C 333 1258 327 1228 327 1186 L 258 1198 C 258 1264 271 1313 297 1346 C 323 1378 363 1395 415 1395 C 441 1395 468 1389 496 1377 C 523 1365 550 1351 576 1337 C 602 1323 627 1310 651 1298 C 675 1286 698 1280 719 1280 C 749 1280 771 1289 784 1307 C 796 1325 803 1355 803 1397 L 872 1384 C 872 1318 858 1268 832 1236 C 806 1204 767 1188 715 1188 Z" unicode="ã" />
<glyph horiz-adv-x="1106" d="M 109 0 L 109 0 Z M 420 68 C 499 68 575 84 647 117 C 719 150 786 196 848 256 L 848 627 C 717 604 610 579 527 551 C 443 523 378 494 331 463 C 283 431 251 398 233 363 C 215 328 207 292 207 254 C 207 194 226 148 264 116 C 302 84 354 68 420 68 Z M 412 -18 C 314 -18 239 6 187 54 C 135 102 109 166 109 248 C 109 298 121 346 145 391 C 169 436 209 477 266 515 C 323 553 399 587 494 618 C 589 649 707 676 848 700 L 848 766 C 848 847 827 908 786 950 C 744 991 687 1012 614 1012 C 525 1012 448 995 384 963 C 319 931 257 888 197 834 L 139 895 C 205 956 275 1005 350 1042 C 424 1079 513 1098 616 1098 C 672 1098 720 1090 762 1075 C 803 1059 837 1037 865 1009 C 892 981 912 946 926 906 C 939 866 946 821 946 772 L 946 0 L 860 0 L 848 160 C 782 104 713 60 641 29 C 568 -2 492 -18 412 -18 Z M 754 1182 C 732 1182 715 1189 702 1204 C 688 1218 682 1239 682 1266 C 682 1291 688 1311 702 1326 C 715 1340 732 1348 754 1348 C 776 1348 794 1340 808 1326 C 821 1311 828 1291 828 1266 C 828 1239 821 1218 808 1204 C 794 1189 776 1182 754 1182 Z M 410 1182 C 388 1182 371 1189 358 1204 C 344 1218 338 1239 338 1266 C 338 1291 344 1311 358 1326 C 371 1340 388 1348 410 1348 C 432 1348 450 1340 464 1326 C 477 1311 484 1291 484 1266 C 484 1239 477 1218 464 1204 C 450 1189 432 1182 410 1182 Z" unicode="ä" />
<glyph horiz-adv-x="1106" d="M 109 0 L 109 0 Z M 420 68 C 499 68 575 84 647 117 C 719 150 786 196 848 256 L 848 627 C 717 604 610 579 527 551 C 443 523 378 494 331 463 C 283 431 251 398 233 363 C 215 328 207 292 207 254 C 207 194 226 148 264 116 C 302 84 354 68 420 68 Z M 412 -18 C 314 -18 239 6 187 54 C 135 102 109 166 109 248 C 109 298 121 346 145 391 C 169 436 209 477 266 515 C 323 553 399 587 494 618 C 589 649 707 676 848 700 L 848 766 C 848 847 827 908 786 950 C 744 991 687 1012 614 1012 C 525 1012 448 995 384 963 C 319 931 257 888 197 834 L 139 895 C 205 956 275 1005 350 1042 C 424 1079 513 1098 616 1098 C 672 1098 720 1090 762 1075 C 803 1059 837 1037 865 1009 C 892 981 912 946 926 906 C 939 866 946 821 946 772 L 946 0 L 860 0 L 848 160 C 782 104 713 60 641 29 C 568 -2 492 -18 412 -18 Z M 588 1178 C 537 1178 495 1194 461 1228 C 427 1262 410 1304 410 1356 C 410 1406 427 1447 461 1481 C 495 1515 537 1532 588 1532 C 638 1532 681 1515 715 1481 C 749 1447 766 1406 766 1356 C 766 1304 749 1262 715 1228 C 681 1194 638 1178 588 1178 Z M 588 1237 C 620 1237 647 1248 669 1270 C 690 1292 701 1321 701 1356 C 701 1389 690 1417 669 1439 C 647 1461 620 1473 588 1473 C 555 1473 528 1461 507 1439 C 485 1417 475 1389 475 1356 C 475 1321 485 1292 507 1270 C 528 1248 555 1237 588 1237 Z" unicode="å" />
<glyph horiz-adv-x="1829" d="M 412 -23 C 314 -23 239 1 187 49 C 135 97 109 162 109 244 C 109 294 120 342 144 388 C 168 434 208 476 264 514 C 320 552 396 587 491 619 C 585 651 703 678 844 702 L 844 766 C 844 847 823 908 783 950 C 742 991 685 1012 612 1012 C 523 1012 447 995 383 963 C 319 931 257 888 197 834 L 139 895 C 205 956 275 1005 349 1042 C 423 1079 511 1098 614 1098 C 661 1098 703 1092 739 1080 C 775 1068 805 1051 830 1030 C 855 1008 875 983 890 953 C 905 923 916 891 922 856 C 939 890 960 921 985 951 C 1009 981 1037 1006 1069 1028 C 1100 1050 1135 1067 1173 1079 C 1211 1091 1251 1098 1294 1098 C 1357 1098 1415 1085 1467 1059 C 1519 1033 1564 997 1601 949 C 1638 901 1667 843 1687 775 C 1707 707 1718 631 1718 547 L 1718 532 L 938 532 C 938 459 948 393 968 335 C 988 277 1015 228 1049 188 C 1083 148 1123 117 1169 95 C 1215 73 1265 63 1317 63 C 1381 63 1439 77 1493 105 C 1546 133 1601 176 1657 233 L 1714 170 C 1652 106 1590 57 1529 25 C 1468 -6 1395 -23 1311 -23 C 1271 -23 1231 -17 1192 -7 C 1152 2 1115 18 1081 38 C 1047 58 1015 83 986 113 C 956 143 931 177 911 217 C 875 181 838 149 800 120 C 762 90 722 65 681 44 C 639 23 596 7 551 -5 C 506 -17 460 -23 412 -23 Z M 940 614 L 1616 614 C 1612 669 1603 721 1588 770 C 1573 818 1552 860 1526 896 C 1500 932 1467 960 1428 981 C 1388 1001 1343 1012 1292 1012 C 1250 1012 1209 1003 1170 987 C 1130 970 1095 945 1063 913 C 1031 880 1005 839 983 789 C 961 739 946 680 940 614 Z M 420 63 C 502 63 582 82 658 120 C 734 158 807 215 879 291 C 866 326 856 364 850 406 C 843 447 840 491 840 539 C 840 553 840 568 841 583 C 842 597 843 612 844 627 C 713 604 606 578 523 550 C 439 522 374 492 328 460 C 282 428 250 395 233 359 C 215 323 207 287 207 250 C 207 190 226 143 264 111 C 302 79 354 63 420 63 Z" unicode="æ" />
<glyph horiz-adv-x="1077" d="M 111 0 L 111 0 Z M 561 -23 C 499 -23 441 -9 387 16 C 332 42 284 80 244 128 C 203 176 171 235 147 305 C 123 374 111 451 111 537 C 111 630 124 712 150 783 C 176 853 210 912 253 958 C 295 1004 345 1039 401 1063 C 457 1086 515 1098 575 1098 C 624 1098 668 1091 708 1078 C 748 1064 783 1046 814 1024 C 844 1002 871 975 895 945 C 918 914 938 882 956 848 L 877 799 C 845 866 805 918 758 956 C 710 993 648 1012 571 1012 C 529 1012 487 1003 444 987 C 401 970 362 943 328 906 C 293 869 264 820 242 760 C 220 700 209 626 209 539 C 209 464 218 397 237 338 C 256 278 282 228 314 188 C 346 147 384 116 428 95 C 472 73 518 63 567 63 C 643 63 705 81 753 117 C 800 153 843 206 881 276 L 954 229 C 910 149 857 87 795 43 C 733 0 655 -23 561 -23 Z M 557 -395 C 515 -395 473 -388 431 -376 C 389 -363 351 -345 315 -322 L 348 -270 C 378 -290 410 -306 443 -316 C 476 -326 510 -332 545 -332 C 603 -332 644 -322 670 -304 C 695 -285 708 -259 708 -227 C 708 -203 700 -185 686 -172 C 671 -158 648 -152 618 -152 C 594 -152 573 -156 555 -165 C 536 -173 520 -183 506 -195 L 455 -170 L 506 0 L 581 0 L 547 -115 C 561 -105 576 -98 593 -92 C 610 -86 630 -84 653 -84 C 671 -84 689 -87 707 -93 C 725 -99 740 -107 753 -119 C 766 -130 777 -144 785 -161 C 793 -178 797 -198 797 -221 C 797 -252 790 -279 778 -301 C 765 -323 748 -341 726 -355 C 704 -369 679 -379 650 -385 C 620 -391 589 -395 557 -395 Z" unicode="ç" />
<glyph horiz-adv-x="1104" d="M 111 0 L 111 0 Z M 590 -23 C 523 -23 460 -10 402 15 C 343 40 292 77 250 125 C 207 173 173 232 148 302 C 123 372 111 451 111 539 C 111 631 124 713 150 783 C 176 853 210 911 253 958 C 295 1004 344 1039 399 1063 C 454 1086 510 1098 567 1098 C 630 1098 688 1085 740 1059 C 792 1033 837 997 875 949 C 912 901 941 843 962 775 C 982 707 993 631 993 547 L 993 532 L 209 532 C 209 459 218 393 238 335 C 257 277 283 228 317 188 C 351 148 391 117 437 95 C 483 73 534 63 588 63 C 660 63 723 77 777 105 C 831 133 884 176 936 233 L 993 170 C 935 106 875 57 814 25 C 753 -6 678 -23 590 -23 Z M 211 614 L 891 614 C 887 669 878 721 863 770 C 848 818 827 860 800 896 C 773 932 740 960 701 981 C 661 1001 616 1012 565 1012 C 523 1012 482 1003 442 987 C 402 970 367 945 335 913 C 303 880 276 839 254 789 C 232 739 217 680 211 614 Z M 541 1192 L 256 1501 L 410 1501 L 605 1192 L 541 1192 Z" unicode="è" />
<glyph horiz-adv-x="1104" d="M 111 0 L 111 0 Z M 590 -23 C 523 -23 460 -10 402 15 C 343 40 292 77 250 125 C 207 173 173 232 148 302 C 123 372 111 451 111 539 C 111 631 124 713 150 783 C 176 853 210 911 253 958 C 295 1004 344 1039 399 1063 C 454 1086 510 1098 567 1098 C 630 1098 688 1085 740 1059 C 792 1033 837 997 875 949 C 912 901 941 843 962 775 C 982 707 993 631 993 547 L 993 532 L 209 532 C 209 459 218 393 238 335 C 257 277 283 228 317 188 C 351 148 391 117 437 95 C 483 73 534 63 588 63 C 660 63 723 77 777 105 C 831 133 884 176 936 233 L 993 170 C 935 106 875 57 814 25 C 753 -6 678 -23 590 -23 Z M 211 614 L 891 614 C 887 669 878 721 863 770 C 848 818 827 860 800 896 C 773 932 740 960 701 981 C 661 1001 616 1012 565 1012 C 523 1012 482 1003 442 987 C 402 970 367 945 335 913 C 303 880 276 839 254 789 C 232 739 217 680 211 614 Z M 520 1192 L 715 1501 L 869 1501 L 584 1192 L 520 1192 Z" unicode="é" />
<glyph horiz-adv-x="1104" d="M 111 0 L 111 0 Z M 590 -23 C 523 -23 460 -10 402 15 C 343 40 292 77 250 125 C 207 173 173 232 148 302 C 123 372 111 451 111 539 C 111 631 124 713 150 783 C 176 853 210 911 253 958 C 295 1004 344 1039 399 1063 C 454 1086 510 1098 567 1098 C 630 1098 688 1085 740 1059 C 792 1033 837 997 875 949 C 912 901 941 843 962 775 C 982 707 993 631 993 547 L 993 532 L 209 532 C 209 459 218 393 238 335 C 257 277 283 228 317 188 C 351 148 391 117 437 95 C 483 73 534 63 588 63 C 660 63 723 77 777 105 C 831 133 884 176 936 233 L 993 170 C 935 106 875 57 814 25 C 753 -6 678 -23 590 -23 Z M 211 614 L 891 614 C 887 669 878 721 863 770 C 848 818 827 860 800 896 C 773 932 740 960 701 981 C 661 1001 616 1012 565 1012 C 523 1012 482 1003 442 987 C 402 970 367 945 335 913 C 303 880 276 839 254 789 C 232 739 217 680 211 614 Z M 264 1182 L 528 1501 L 610 1501 L 874 1182 L 807 1182 L 567 1395 L 327 1182 L 264 1182 Z" unicode="ê" />
<glyph horiz-adv-x="1104" d="M 111 0 L 111 0 Z M 590 -23 C 523 -23 460 -10 402 15 C 343 40 292 77 250 125 C 207 173 173 232 148 302 C 123 372 111 451 111 539 C 111 631 124 713 150 783 C 176 853 210 911 253 958 C 295 1004 344 1039 399 1063 C 454 1086 510 1098 567 1098 C 630 1098 688 1085 740 1059 C 792 1033 837 997 875 949 C 912 901 941 843 962 775 C 982 707 993 631 993 547 L 993 532 L 209 532 C 209 459 218 393 238 335 C 257 277 283 228 317 188 C 351 148 391 117 437 95 C 483 73 534 63 588 63 C 660 63 723 77 777 105 C 831 133 884 176 936 233 L 993 170 C 935 106 875 57 814 25 C 753 -6 678 -23 590 -23 Z M 211 614 L 891 614 C 887 669 878 721 863 770 C 848 818 827 860 800 896 C 773 932 740 960 701 981 C 661 1001 616 1012 565 1012 C 523 1012 482 1003 442 987 C 402 970 367 945 335 913 C 303 880 276 839 254 789 C 232 739 217 680 211 614 Z M 731 1182 C 709 1182 692 1189 679 1204 C 665 1218 659 1239 659 1266 C 659 1291 665 1311 679 1326 C 692 1340 709 1348 731 1348 C 753 1348 771 1340 785 1326 C 798 1311 805 1291 805 1266 C 805 1239 798 1218 785 1204 C 771 1189 753 1182 731 1182 Z M 387 1182 C 365 1182 348 1189 335 1204 C 321 1218 315 1239 315 1266 C 315 1291 321 1311 335 1326 C 348 1340 365 1348 387 1348 C 409 1348 427 1340 441 1326 C 454 1311 461 1291 461 1266 C 461 1239 454 1218 441 1204 C 427 1189 409 1182 387 1182 Z" unicode="ë" />
<glyph horiz-adv-x="467" d="M 0 0 L 0 0 Z M 283 0 L 184 0 L 184 1075 L 283 1075 L 283 0 Z M 225 1192 L -60 1501 L 94 1501 L 289 1192 L 225 1192 Z" unicode="ì" />
<glyph horiz-adv-x="467" d="M 184 0 L 184 0 Z M 283 0 L 184 0 L 184 1075 L 283 1075 L 283 0 Z M 217 1192 L 412 1501 L 566 1501 L 281 1192 L 217 1192 Z" unicode="í" />
<glyph horiz-adv-x="467" d="M 0 0 L 0 0 Z M 283 0 L 184 0 L 184 1075 L 283 1075 L 283 0 Z M -72 1182 L 192 1501 L 274 1501 L 538 1182 L 471 1182 L 231 1395 L -9 1182 L -72 1182 Z" unicode="î" />
<glyph horiz-adv-x="467" d="M 0 0 L 0 0 Z M 283 0 L 184 0 L 184 1075 L 283 1075 L 283 0 Z M 403 1182 C 381 1182 364 1189 351 1204 C 337 1218 331 1239 331 1266 C 331 1291 337 1311 351 1326 C 364 1340 381 1348 403 1348 C 425 1348 443 1340 457 1326 C 470 1311 477 1291 477 1266 C 477 1239 470 1218 457 1204 C 443 1189 425 1182 403 1182 Z M 59 1182 C 37 1182 20 1189 7 1204 C -6 1218 -13 1239 -13 1266 C -13 1291 -6 1311 7 1326 C 20 1340 37 1348 59 1348 C 81 1348 99 1340 113 1326 C 126 1311 133 1291 133 1266 C 133 1239 126 1218 113 1204 C 99 1189 81 1182 59 1182 Z" unicode="ï" />
<glyph horiz-adv-x="1167" d="M 584 -23 C 518 -23 456 -9 398 16 C 340 42 290 80 248 128 C 206 176 172 235 148 305 C 123 374 111 451 111 537 C 111 623 123 699 147 767 C 171 834 205 890 247 936 C 289 982 339 1017 397 1041 C 455 1065 517 1077 584 1077 C 657 1077 725 1057 787 1019 C 849 980 898 932 934 874 C 917 940 893 1006 862 1072 C 830 1138 786 1202 729 1262 L 489 1176 L 459 1257 L 659 1329 C 635 1350 610 1370 582 1389 C 554 1408 525 1427 494 1446 L 543 1520 C 581 1498 619 1475 655 1450 C 691 1424 726 1396 758 1366 L 973 1444 L 1004 1362 L 825 1296 C 894 1216 950 1114 993 992 C 1035 870 1057 718 1057 537 C 1057 451 1044 374 1020 305 C 995 235 961 176 919 128 C 877 80 827 42 769 16 C 711 -9 650 -23 584 -23 Z M 584 63 C 641 63 693 75 739 99 C 785 123 825 156 857 198 C 889 240 914 291 932 349 C 949 407 958 471 958 539 C 958 601 949 659 933 714 C 916 769 892 817 860 858 C 828 898 788 931 742 955 C 695 979 642 991 584 991 C 526 991 473 980 427 958 C 381 936 341 905 309 865 C 277 825 252 778 235 722 C 217 666 209 605 209 539 C 209 476 217 416 233 358 C 249 300 272 250 304 206 C 335 162 374 128 421 102 C 468 76 522 63 584 63 Z" unicode="ð" />
<glyph horiz-adv-x="1174" d="M 172 0 L 172 0 Z M 270 0 L 172 0 L 172 1075 L 258 1075 L 270 897 C 299 925 330 951 363 976 C 395 1000 429 1022 463 1040 C 497 1058 533 1072 571 1082 C 608 1092 646 1098 686 1098 C 796 1098 878 1069 932 1012 C 985 954 1012 877 1012 780 L 1012 0 L 913 0 L 913 768 C 913 849 894 910 856 951 C 818 991 759 1012 678 1012 C 603 1012 533 993 467 957 C 401 920 336 870 270 807 L 270 0 Z M 754 1188 C 727 1188 700 1194 673 1206 C 645 1218 619 1231 593 1245 C 567 1259 541 1273 517 1285 C 493 1297 470 1303 450 1303 C 419 1303 397 1294 385 1276 C 372 1258 366 1228 366 1186 L 297 1198 C 297 1264 310 1313 336 1346 C 362 1378 402 1395 454 1395 C 480 1395 507 1389 535 1377 C 562 1365 589 1351 615 1337 C 641 1323 666 1310 690 1298 C 714 1286 737 1280 758 1280 C 788 1280 810 1289 823 1307 C 835 1325 842 1355 842 1397 L 911 1384 C 911 1318 897 1268 871 1236 C 845 1204 806 1188 754 1188 Z" unicode="ñ" />
<glyph horiz-adv-x="1167" d="M 111 0 L 111 0 Z M 584 -23 C 518 -23 456 -9 398 16 C 340 42 290 80 248 128 C 206 176 172 235 148 305 C 123 374 111 451 111 537 C 111 623 123 700 147 770 C 171 840 205 899 247 947 C 289 995 339 1033 397 1059 C 455 1085 517 1098 584 1098 C 650 1098 711 1085 769 1059 C 827 1033 877 995 919 947 C 961 899 995 840 1020 770 C 1044 700 1057 623 1057 537 C 1057 451 1044 374 1020 305 C 995 235 961 176 919 128 C 877 80 827 42 769 16 C 711 -9 650 -23 584 -23 Z M 584 63 C 641 63 693 75 739 99 C 785 123 825 156 857 198 C 889 240 914 291 932 349 C 949 407 958 471 958 539 C 958 601 949 660 933 718 C 917 775 893 825 862 869 C 830 912 791 947 745 973 C 698 999 644 1012 584 1012 C 526 1012 473 999 427 975 C 381 951 341 918 309 876 C 277 834 252 784 235 726 C 217 668 209 605 209 539 C 209 476 217 416 233 358 C 249 300 272 250 304 206 C 335 162 374 128 421 102 C 468 76 522 63 584 63 Z M 561 1192 L 276 1501 L 430 1501 L 625 1192 L 561 1192 Z" unicode="ò" />
<glyph horiz-adv-x="1167" d="M 111 0 L 111 0 Z M 584 -23 C 518 -23 456 -9 398 16 C 340 42 290 80 248 128 C 206 176 172 235 148 305 C 123 374 111 451 111 537 C 111 623 123 700 147 770 C 171 840 205 899 247 947 C 289 995 339 1033 397 1059 C 455 1085 517 1098 584 1098 C 650 1098 711 1085 769 1059 C 827 1033 877 995 919 947 C 961 899 995 840 1020 770 C 1044 700 1057 623 1057 537 C 1057 451 1044 374 1020 305 C 995 235 961 176 919 128 C 877 80 827 42 769 16 C 711 -9 650 -23 584 -23 Z M 584 63 C 641 63 693 75 739 99 C 785 123 825 156 857 198 C 889 240 914 291 932 349 C 949 407 958 471 958 539 C 958 601 949 660 933 718 C 917 775 893 825 862 869 C 830 912 791 947 745 973 C 698 999 644 1012 584 1012 C 526 1012 473 999 427 975 C 381 951 341 918 309 876 C 277 834 252 784 235 726 C 217 668 209 605 209 539 C 209 476 217 416 233 358 C 249 300 272 250 304 206 C 335 162 374 128 421 102 C 468 76 522 63 584 63 Z M 534 1192 L 729 1501 L 883 1501 L 598 1192 L 534 1192 Z" unicode="ó" />
<glyph horiz-adv-x="1167" d="M 111 0 L 111 0 Z M 584 -23 C 518 -23 456 -9 398 16 C 340 42 290 80 248 128 C 206 176 172 235 148 305 C 123 374 111 451 111 537 C 111 623 123 700 147 770 C 171 840 205 899 247 947 C 289 995 339 1033 397 1059 C 455 1085 517 1098 584 1098 C 650 1098 711 1085 769 1059 C 827 1033 877 995 919 947 C 961 899 995 840 1020 770 C 1044 700 1057 623 1057 537 C 1057 451 1044 374 1020 305 C 995 235 961 176 919 128 C 877 80 827 42 769 16 C 711 -9 650 -23 584 -23 Z M 584 63 C 641 63 693 75 739 99 C 785 123 825 156 857 198 C 889 240 914 291 932 349 C 949 407 958 471 958 539 C 958 601 949 660 933 718 C 917 775 893 825 862 869 C 830 912 791 947 745 973 C 698 999 644 1012 584 1012 C 526 1012 473 999 427 975 C 381 951 341 918 309 876 C 277 834 252 784 235 726 C 217 668 209 605 209 539 C 209 476 217 416 233 358 C 249 300 272 250 304 206 C 335 162 374 128 421 102 C 468 76 522 63 584 63 Z M 279 1182 L 543 1501 L 625 1501 L 889 1182 L 822 1182 L 582 1395 L 342 1182 L 279 1182 Z" unicode="ô" />
<glyph horiz-adv-x="1167" d="M 111 0 L 111 0 Z M 584 -23 C 518 -23 456 -9 398 16 C 340 42 290 80 248 128 C 206 176 172 235 148 305 C 123 374 111 451 111 537 C 111 623 123 700 147 770 C 171 840 205 899 247 947 C 289 995 339 1033 397 1059 C 455 1085 517 1098 584 1098 C 650 1098 711 1085 769 1059 C 827 1033 877 995 919 947 C 961 899 995 840 1020 770 C 1044 700 1057 623 1057 537 C 1057 451 1044 374 1020 305 C 995 235 961 176 919 128 C 877 80 827 42 769 16 C 711 -9 650 -23 584 -23 Z M 584 63 C 641 63 693 75 739 99 C 785 123 825 156 857 198 C 889 240 914 291 932 349 C 949 407 958 471 958 539 C 958 601 949 660 933 718 C 917 775 893 825 862 869 C 830 912 791 947 745 973 C 698 999 644 1012 584 1012 C 526 1012 473 999 427 975 C 381 951 341 918 309 876 C 277 834 252 784 235 726 C 217 668 209 605 209 539 C 209 476 217 416 233 358 C 249 300 272 250 304 206 C 335 162 374 128 421 102 C 468 76 522 63 584 63 Z M 738 1188 C 711 1188 684 1194 657 1206 C 629 1218 603 1231 577 1245 C 551 1259 525 1273 501 1285 C 477 1297 454 1303 434 1303 C 403 1303 381 1294 369 1276 C 356 1258 350 1228 350 1186 L 281 1198 C 281 1264 294 1313 320 1346 C 346 1378 386 1395 438 1395 C 464 1395 491 1389 519 1377 C 546 1365 573 1351 599 1337 C 625 1323 650 1310 674 1298 C 698 1286 721 1280 742 1280 C 772 1280 794 1289 807 1307 C 819 1325 826 1355 826 1397 L 895 1384 C 895 1318 881 1268 855 1236 C 829 1204 790 1188 738 1188 Z" unicode="õ" />
<glyph horiz-adv-x="1167" d="M 111 0 L 111 0 Z M 584 -23 C 518 -23 456 -9 398 16 C 340 42 290 80 248 128 C 206 176 172 235 148 305 C 123 374 111 451 111 537 C 111 623 123 700 147 770 C 171 840 205 899 247 947 C 289 995 339 1033 397 1059 C 455 1085 517 1098 584 1098 C 650 1098 711 1085 769 1059 C 827 1033 877 995 919 947 C 961 899 995 840 1020 770 C 1044 700 1057 623 1057 537 C 1057 451 1044 374 1020 305 C 995 235 961 176 919 128 C 877 80 827 42 769 16 C 711 -9 650 -23 584 -23 Z M 584 63 C 641 63 693 75 739 99 C 785 123 825 156 857 198 C 889 240 914 291 932 349 C 949 407 958 471 958 539 C 958 601 949 660 933 718 C 917 775 893 825 862 869 C 830 912 791 947 745 973 C 698 999 644 1012 584 1012 C 526 1012 473 999 427 975 C 381 951 341 918 309 876 C 277 834 252 784 235 726 C 217 668 209 605 209 539 C 209 476 217 416 233 358 C 249 300 272 250 304 206 C 335 162 374 128 421 102 C 468 76 522 63 584 63 Z M 752 1182 C 730 1182 713 1189 700 1204 C 686 1218 680 1239 680 1266 C 680 1291 686 1311 700 1326 C 713 1340 730 1348 752 1348 C 774 1348 792 1340 806 1326 C 819 1311 826 1291 826 1266 C 826 1239 819 1218 806 1204 C 792 1189 774 1182 752 1182 Z M 408 1182 C 386 1182 369 1189 356 1204 C 342 1218 336 1239 336 1266 C 336 1291 342 1311 356 1326 C 369 1340 386 1348 408 1348 C 430 1348 448 1340 462 1326 C 475 1311 482 1291 482 1266 C 482 1239 475 1218 462 1204 C 448 1189 430 1182 408 1182 Z" unicode="ö" />
<glyph horiz-adv-x="1298" d="M 643 926 C 619 926 600 933 586 949 C 572 965 565 988 565 1018 C 565 1046 572 1068 586 1084 C 600 1100 619 1108 643 1108 C 666 1108 685 1100 700 1084 C 715 1068 723 1046 723 1018 C 723 988 715 965 700 949 C 685 933 666 926 643 926 Z M 1165 618 L 133 618 L 133 709 L 1165 709 L 1165 618 Z M 643 215 C 619 215 600 223 586 239 C 572 255 565 277 565 307 C 565 335 572 357 586 373 C 600 389 619 397 643 397 C 666 397 685 389 700 373 C 715 357 723 335 723 307 C 723 277 715 255 700 239 C 685 223 666 215 643 215 Z" unicode="÷" />
<glyph horiz-adv-x="1167" d="M 305 205 L 811 926 C 781 953 748 974 710 989 C 672 1004 630 1012 584 1012 C 526 1012 473 999 427 975 C 381 951 341 918 309 876 C 277 834 252 784 235 726 C 217 668 209 605 209 539 C 209 475 217 415 233 357 C 249 299 273 249 305 205 Z M 862 868 L 354 150 C 384 123 418 102 456 86 C 494 70 536 63 584 63 C 641 63 693 75 739 99 C 785 123 825 156 857 198 C 889 240 914 291 932 349 C 949 407 958 471 958 539 C 958 601 950 660 934 718 C 918 775 894 825 862 868 Z M 1026 1096 L 920 946 C 962 897 996 838 1020 769 C 1044 699 1057 622 1057 537 C 1057 451 1044 374 1020 305 C 995 235 961 176 919 128 C 877 80 827 42 769 16 C 711 -9 650 -23 584 -23 C 532 -23 482 -14 434 2 C 386 19 343 43 305 74 L 209 -63 L 143 -18 L 248 129 C 205 177 171 236 147 306 C 123 375 111 452 111 537 C 111 623 123 700 147 770 C 171 840 205 899 247 947 C 289 995 339 1033 397 1059 C 455 1085 517 1098 584 1098 C 636 1098 685 1090 732 1074 C 778 1058 821 1034 860 1004 L 958 1143 L 1026 1096 Z" unicode="ø" />
<glyph horiz-adv-x="1174" d="M 162 0 L 162 0 Z M 487 -23 C 376 -23 294 5 241 63 C 188 120 162 197 162 295 L 162 1075 L 260 1075 L 260 307 C 260 225 279 164 317 124 C 355 83 414 63 496 63 C 570 63 639 81 705 118 C 771 154 837 204 903 268 L 903 1075 L 1001 1075 L 1001 0 L 915 0 L 903 178 C 873 150 842 123 810 99 C 777 75 743 53 709 35 C 675 17 639 2 602 -7 C 564 -17 526 -23 487 -23 Z M 571 1192 L 286 1501 L 440 1501 L 635 1192 L 571 1192 Z" unicode="ù" />
<glyph horiz-adv-x="1174" d="M 162 0 L 162 0 Z M 487 -23 C 376 -23 294 5 241 63 C 188 120 162 197 162 295 L 162 1075 L 260 1075 L 260 307 C 260 225 279 164 317 124 C 355 83 414 63 496 63 C 570 63 639 81 705 118 C 771 154 837 204 903 268 L 903 1075 L 1001 1075 L 1001 0 L 915 0 L 903 178 C 873 150 842 123 810 99 C 777 75 743 53 709 35 C 675 17 639 2 602 -7 C 564 -17 526 -23 487 -23 Z M 534 1192 L 729 1501 L 883 1501 L 598 1192 L 534 1192 Z" unicode="ú" />
<glyph horiz-adv-x="1174" d="M 162 0 L 162 0 Z M 487 -23 C 376 -23 294 5 241 63 C 188 120 162 197 162 295 L 162 1075 L 260 1075 L 260 307 C 260 225 279 164 317 124 C 355 83 414 63 496 63 C 570 63 639 81 705 118 C 771 154 837 204 903 268 L 903 1075 L 1001 1075 L 1001 0 L 915 0 L 903 178 C 873 150 842 123 810 99 C 777 75 743 53 709 35 C 675 17 639 2 602 -7 C 564 -17 526 -23 487 -23 Z M 277 1182 L 541 1501 L 623 1501 L 887 1182 L 820 1182 L 580 1395 L 340 1182 L 277 1182 Z" unicode="û" />
<glyph horiz-adv-x="1174" d="M 162 0 L 162 0 Z M 487 -23 C 376 -23 294 5 241 63 C 188 120 162 197 162 295 L 162 1075 L 260 1075 L 260 307 C 260 225 279 164 317 124 C 355 83 414 63 496 63 C 570 63 639 81 705 118 C 771 154 837 204 903 268 L 903 1075 L 1001 1075 L 1001 0 L 915 0 L 903 178 C 873 150 842 123 810 99 C 777 75 743 53 709 35 C 675 17 639 2 602 -7 C 564 -17 526 -23 487 -23 Z M 756 1182 C 734 1182 717 1189 704 1204 C 690 1218 684 1239 684 1266 C 684 1291 690 1311 704 1326 C 717 1340 734 1348 756 1348 C 778 1348 796 1340 810 1326 C 823 1311 830 1291 830 1266 C 830 1239 823 1218 810 1204 C 796 1189 778 1182 756 1182 Z M 412 1182 C 390 1182 373 1189 360 1204 C 346 1218 340 1239 340 1266 C 340 1291 346 1311 360 1326 C 373 1340 390 1348 412 1348 C 434 1348 452 1340 466 1326 C 479 1311 486 1291 486 1266 C 486 1239 479 1218 466 1204 C 452 1189 434 1182 412 1182 Z" unicode="ü" />
<glyph horiz-adv-x="1063" d="M 41 0 L 41 0 Z M 178 -410 C 150 -410 126 -408 106 -406 C 86 -404 67 -400 49 -395 L 41 -307 C 57 -311 78 -315 102 -319 C 126 -322 155 -324 190 -324 C 254 -324 304 -309 340 -279 C 376 -249 407 -202 432 -139 L 483 -6 L 70 1065 L 170 1085 L 530 119 L 535 119 L 891 1075 L 997 1075 L 532 -127 C 514 -175 495 -216 475 -252 C 455 -288 431 -317 404 -340 C 377 -363 345 -380 309 -392 C 272 -404 228 -410 178 -410 Z M 489 1192 L 684 1501 L 838 1501 L 553 1192 L 489 1192 Z" unicode="ý" />
<glyph horiz-adv-x="1200" d="M 639 68 C 685 68 730 77 773 95 C 815 113 852 140 884 178 C 916 216 941 264 960 324 C 979 384 989 455 989 537 C 989 617 979 688 960 748 C 940 808 914 857 882 896 C 850 935 812 964 769 983 C 726 1002 681 1012 635 1012 C 562 1012 498 995 443 961 C 387 927 330 880 270 819 L 270 260 C 330 198 389 151 447 118 C 505 84 569 68 639 68 Z M 270 -401 L 172 -418 L 172 1507 L 270 1524 L 270 918 C 292 942 317 964 343 986 C 369 1008 397 1027 427 1044 C 457 1060 489 1073 524 1083 C 559 1093 597 1098 637 1098 C 699 1098 757 1086 812 1063 C 866 1040 914 1005 955 959 C 995 913 1027 854 1051 784 C 1075 714 1087 632 1087 539 C 1087 445 1075 363 1051 293 C 1027 223 994 165 953 119 C 912 73 864 38 809 16 C 753 -6 695 -18 633 -18 C 559 -18 493 -1 435 32 C 376 66 321 108 270 158 L 270 -401 Z" unicode="þ" />
<glyph horiz-adv-x="1063" d="M 41 0 L 41 0 Z M 178 -410 C 150 -410 126 -408 106 -406 C 86 -404 67 -400 49 -395 L 41 -307 C 57 -311 78 -315 102 -319 C 126 -322 155 -324 190 -324 C 254 -324 304 -309 340 -279 C 376 -249 407 -202 432 -139 L 483 -6 L 70 1065 L 170 1085 L 530 119 L 535 119 L 891 1075 L 997 1075 L 532 -127 C 514 -175 495 -216 475 -252 C 455 -288 431 -317 404 -340 C 377 -363 345 -380 309 -392 C 272 -404 228 -410 178 -410 Z M 702 1182 C 680 1182 663 1189 650 1204 C 636 1218 630 1239 630 1266 C 630 1291 636 1311 650 1326 C 663 1340 680 1348 702 1348 C 724 1348 742 1340 756 1326 C 769 1311 776 1291 776 1266 C 776 1239 769 1218 756 1204 C 742 1189 724 1182 702 1182 Z M 358 1182 C 336 1182 319 1189 306 1204 C 292 1218 286 1239 286 1266 C 286 1291 292 1311 306 1326 C 319 1340 336 1348 358 1348 C 380 1348 398 1340 412 1326 C 425 1311 432 1291 432 1266 C 432 1239 425 1218 412 1204 C 398 1189 380 1182 358 1182 Z" unicode="ÿ" />
<glyph horiz-adv-x="1358" d="" unicode="Ā" />
<glyph horiz-adv-x="1106" d="" unicode="ā" />
<glyph horiz-adv-x="1358" d="" unicode="Ă" />
<glyph horiz-adv-x="1106" d="" unicode="ă" />
<glyph horiz-adv-x="1358" d="" unicode="Ą" />
<glyph horiz-adv-x="1106" d="" unicode="ą" />
<glyph horiz-adv-x="1417" d="" unicode="Ć" />
<glyph horiz-adv-x="1077" d="" unicode="ć" />
<glyph horiz-adv-x="1417" d="" unicode="Ĉ" />
<glyph horiz-adv-x="1077" d="" unicode="ĉ" />
<glyph horiz-adv-x="1417" d="" unicode="Ċ" />
<glyph horiz-adv-x="1077" d="" unicode="ċ" />
<glyph horiz-adv-x="1417" d="" unicode="Č" />
<glyph horiz-adv-x="1077" d="" unicode="č" />
<glyph horiz-adv-x="1438" d="" unicode="Ď" />
<glyph horiz-adv-x="1200" d="" unicode="ď" />
<glyph horiz-adv-x="1438" d="" unicode="Đ" />
<glyph horiz-adv-x="1200" d="" unicode="đ" />
<glyph horiz-adv-x="1223" d="" unicode="Ē" />
<glyph horiz-adv-x="1104" d="" unicode="ē" />
<glyph horiz-adv-x="1223" d="" unicode="Ĕ" />
<glyph horiz-adv-x="1104" d="" unicode="ĕ" />
<glyph horiz-adv-x="1223" d="" unicode="Ė" />
<glyph horiz-adv-x="1104" d="" unicode="ė" />
<glyph horiz-adv-x="1223" d="" unicode="Ę" />
<glyph horiz-adv-x="1104" d="" unicode="ę" />
<glyph horiz-adv-x="1223" d="" unicode="Ě" />
<glyph horiz-adv-x="1104" d="" unicode="ě" />
<glyph horiz-adv-x="1462" d="" unicode="Ĝ" />
<glyph horiz-adv-x="1137" d="" unicode="ĝ" />
<glyph horiz-adv-x="1462" d="" unicode="Ğ" />
<glyph horiz-adv-x="1137" d="" unicode="ğ" />
<glyph horiz-adv-x="1462" d="" unicode="Ġ" />
<glyph horiz-adv-x="1137" d="" unicode="ġ" />
<glyph horiz-adv-x="1462" d="" unicode="Ģ" />
<glyph horiz-adv-x="1137" d="" unicode="ģ" />
<glyph horiz-adv-x="1483" d="" unicode="Ĥ" />
<glyph horiz-adv-x="1174" d="" unicode="ĥ" />
<glyph horiz-adv-x="1483" d="" unicode="Ħ" />
<glyph horiz-adv-x="1174" d="" unicode="ħ" />
<glyph horiz-adv-x="553" d="" unicode="Ĩ" />
<glyph horiz-adv-x="467" d="" unicode="ĩ" />
<glyph horiz-adv-x="553" d="" unicode="Ī" />
<glyph horiz-adv-x="467" d="" unicode="ī" />
<glyph horiz-adv-x="553" d="" unicode="Ĭ" />
<glyph horiz-adv-x="467" d="" unicode="ĭ" />
<glyph horiz-adv-x="553" d="" unicode="Į" />
<glyph horiz-adv-x="467" d="" unicode="į" />
<glyph horiz-adv-x="553" d="" unicode="İ" />
<glyph horiz-adv-x="467" d="M 283 0 L 184 0 L 184 1075 L 283 1075 L 283 0 Z" unicode="ı" />
<glyph horiz-adv-x="1475" d="" unicode="Ĳ" />
<glyph horiz-adv-x="934" d="" unicode="ĳ" />
<glyph horiz-adv-x="1004" d="" unicode="Ĵ" />
<glyph horiz-adv-x="467" d="" unicode="ĵ" />
<glyph horiz-adv-x="1346" d="" unicode="Ķ" />
<glyph horiz-adv-x="1059" d="" unicode="ķ" />
<glyph horiz-adv-x="1059" d="" unicode="ĸ" />
<glyph horiz-adv-x="1147" d="" unicode="Ĺ" />
<glyph horiz-adv-x="467" d="" unicode="ĺ" />
<glyph horiz-adv-x="1147" d="" unicode="Ļ" />
<glyph horiz-adv-x="467" d="" unicode="ļ" />
<glyph horiz-adv-x="1147" d="" unicode="Ľ" />
<glyph horiz-adv-x="467" d="" unicode="ľ" />
<glyph horiz-adv-x="1147" d="" unicode="Ŀ" />
<glyph horiz-adv-x="631" d="" unicode="ŀ" />
<glyph horiz-adv-x="1147" d="" unicode="Ł" />
<glyph horiz-adv-x="586" d="" unicode="ł" />
<glyph horiz-adv-x="1505" d="" unicode="Ń" />
<glyph horiz-adv-x="1174" d="" unicode="ń" />
<glyph horiz-adv-x="1505" d="" unicode="Ņ" />
<glyph horiz-adv-x="1174" d="" unicode="ņ" />
<glyph horiz-adv-x="1505" d="" unicode="Ň" />
<glyph horiz-adv-x="1174" d="" unicode="ň" />
<glyph horiz-adv-x="1505" d="" unicode="Ŋ" />
<glyph horiz-adv-x="1174" d="" unicode="ŋ" />
<glyph horiz-adv-x="1501" d="" unicode="Ō" />
<glyph horiz-adv-x="1167" d="" unicode="ō" />
<glyph horiz-adv-x="1501" d="" unicode="Ŏ" />
<glyph horiz-adv-x="1167" d="" unicode="ŏ" />
<glyph horiz-adv-x="1501" d="" unicode="Ő" />
<glyph horiz-adv-x="1167" d="" unicode="ő" />
<glyph horiz-adv-x="2286" d="M 752 63 C 826 63 894 79 958 111 C 1021 143 1076 188 1122 248 C 1168 307 1204 380 1230 466 C 1256 552 1270 650 1270 758 C 1270 866 1256 963 1230 1049 C 1204 1135 1168 1208 1122 1268 C 1076 1327 1021 1372 958 1404 C 894 1436 826 1452 752 1452 C 677 1452 608 1436 544 1404 C 480 1372 425 1327 379 1268 C 333 1208 296 1135 270 1049 C 244 963 231 866 231 758 C 231 650 244 552 270 466 C 296 380 333 307 379 248 C 425 188 480 143 544 111 C 608 79 677 63 752 63 Z M 752 -29 C 660 -29 576 -9 500 29 C 423 67 357 121 303 191 C 248 260 205 343 175 440 C 144 536 129 642 129 758 C 129 873 144 979 175 1076 C 205 1172 248 1255 303 1324 C 357 1393 423 1447 500 1486 C 576 1524 660 1544 752 1544 C 814 1544 873 1535 927 1518 C 981 1500 1029 1476 1073 1445 C 1117 1413 1155 1376 1189 1332 C 1222 1288 1250 1240 1272 1188 L 1272 1516 L 2142 1516 L 2142 1421 L 1368 1421 L 1368 852 L 1942 852 L 1958 758 L 1368 758 L 1368 94 L 2187 94 L 2187 0 L 1272 0 L 1272 332 C 1250 279 1222 230 1189 186 C 1155 142 1117 104 1073 72 C 1029 40 981 16 927 -2 C 873 -20 814 -29 752 -29 Z" unicode="Œ" />
<glyph horiz-adv-x="1933" d="M 580 -23 C 514 -23 452 -9 395 16 C 337 42 288 80 246 128 C 204 176 171 235 147 305 C 123 374 111 451 111 537 C 111 623 123 700 147 770 C 171 840 203 899 245 947 C 287 995 336 1033 394 1059 C 451 1085 513 1098 580 1098 C 630 1098 678 1090 722 1074 C 766 1058 805 1037 841 1010 C 876 982 907 949 933 911 C 959 873 981 831 997 786 C 1013 831 1034 873 1060 911 C 1086 949 1117 982 1151 1010 C 1185 1037 1224 1058 1266 1074 C 1308 1090 1353 1098 1401 1098 C 1464 1098 1522 1085 1574 1059 C 1626 1033 1670 997 1707 949 C 1743 901 1772 843 1792 775 C 1812 707 1823 631 1823 547 L 1823 532 L 1047 532 C 1047 459 1056 393 1076 335 C 1096 277 1122 228 1156 188 C 1190 148 1230 117 1276 95 C 1322 73 1371 63 1423 63 C 1491 63 1553 77 1607 105 C 1661 133 1716 176 1772 233 L 1829 170 C 1797 138 1766 109 1736 85 C 1706 61 1674 41 1642 25 C 1610 9 1575 -3 1538 -11 C 1501 -19 1461 -23 1417 -23 C 1369 -23 1322 -15 1278 0 C 1234 16 1193 37 1157 65 C 1121 92 1089 125 1061 163 C 1033 201 1011 243 995 289 C 979 244 958 202 932 164 C 906 126 875 93 840 65 C 805 37 766 16 722 0 C 678 -15 630 -23 580 -23 Z M 580 63 C 637 63 689 75 735 99 C 781 123 819 156 851 198 C 883 240 907 291 924 349 C 941 407 950 471 950 539 C 950 601 942 660 926 718 C 910 775 886 825 856 869 C 825 912 786 947 740 973 C 694 999 640 1012 580 1012 C 522 1012 470 999 424 975 C 378 951 339 918 307 876 C 275 834 251 784 234 726 C 217 668 209 605 209 539 C 209 476 216 416 232 358 C 248 300 271 250 302 206 C 333 162 372 128 418 102 C 464 76 518 63 580 63 Z M 1049 614 L 1720 614 C 1716 669 1707 721 1693 770 C 1678 818 1658 860 1632 896 C 1606 932 1573 960 1534 981 C 1495 1001 1450 1012 1399 1012 C 1357 1012 1316 1003 1277 987 C 1237 970 1202 945 1171 913 C 1139 880 1113 839 1091 789 C 1069 739 1055 680 1049 614 Z" unicode="œ" />
<glyph horiz-adv-x="1358" d="" unicode="Ŕ" />
<glyph horiz-adv-x="795" d="" unicode="ŕ" />
<glyph horiz-adv-x="1358" d="" unicode="Ŗ" />
<glyph horiz-adv-x="795" d="" unicode="ŗ" />
<glyph horiz-adv-x="1358" d="" unicode="Ř" />
<glyph horiz-adv-x="795" d="" unicode="ř" />
<glyph horiz-adv-x="1309" d="" unicode="Ś" />
<glyph horiz-adv-x="1024" d="" unicode="ś" />
<glyph horiz-adv-x="1309" d="" unicode="Ŝ" />
<glyph horiz-adv-x="1024" d="" unicode="ŝ" />
<glyph horiz-adv-x="1309" d="" unicode="Ş" />
<glyph horiz-adv-x="1024" d="" unicode="ş" />
<glyph horiz-adv-x="1309" d="M 74 0 L 74 0 Z M 666 -29 C 544 -29 433 -8 335 31 C 236 71 149 130 74 207 L 137 283 C 202 217 279 163 368 123 C 456 83 555 63 664 63 C 726 63 783 70 833 85 C 883 99 926 120 961 146 C 996 172 1023 204 1042 242 C 1061 280 1071 321 1071 367 C 1071 409 1065 446 1054 479 C 1043 512 1022 543 992 572 C 962 600 919 628 864 654 C 809 680 738 707 651 735 C 567 762 494 789 434 816 C 373 842 323 872 285 905 C 247 938 219 976 201 1018 C 183 1060 174 1111 174 1169 C 174 1219 185 1267 207 1313 C 229 1359 261 1399 301 1433 C 341 1467 389 1494 445 1514 C 501 1534 562 1544 629 1544 C 743 1544 843 1524 927 1485 C 1011 1445 1087 1394 1155 1331 L 1100 1251 C 1029 1315 956 1364 882 1399 C 807 1434 722 1452 627 1452 C 573 1452 524 1444 480 1429 C 436 1414 400 1394 370 1369 C 340 1344 316 1315 300 1282 C 284 1248 276 1213 276 1176 C 276 1130 283 1091 297 1059 C 311 1026 334 997 368 971 C 402 945 447 920 505 896 C 563 872 635 847 721 819 C 802 792 871 765 929 737 C 987 709 1034 677 1070 643 C 1106 608 1132 569 1149 525 C 1165 481 1174 430 1174 373 C 1174 310 1160 254 1134 204 C 1107 154 1071 111 1025 77 C 979 43 925 16 863 -1 C 801 -19 735 -29 666 -29 Z M 612 1632 L 348 1951 L 415 1951 L 655 1738 L 895 1951 L 958 1951 L 694 1632 L 612 1632 Z" unicode="Š" />
<glyph horiz-adv-x="1024" d="M 98 0 L 98 0 Z M 502 -18 C 454 -18 410 -12 369 -2 C 328 7 291 21 257 39 C 223 56 193 77 167 101 C 140 125 117 152 98 180 L 170 236 C 210 184 257 143 310 113 C 362 83 427 68 504 68 C 604 68 681 87 733 125 C 785 163 811 215 811 281 C 811 313 805 342 795 366 C 784 390 766 411 742 430 C 717 448 684 465 643 480 C 602 495 552 510 492 524 C 424 540 366 558 320 577 C 273 595 236 616 208 640 C 180 663 159 690 147 721 C 135 751 129 787 129 829 C 129 863 136 896 152 929 C 167 961 189 990 219 1015 C 249 1040 286 1060 330 1075 C 374 1090 425 1098 483 1098 C 569 1098 643 1083 705 1054 C 766 1024 819 986 864 940 L 799 872 C 758 916 713 950 663 975 C 613 999 552 1012 481 1012 C 437 1012 398 1007 366 997 C 334 987 307 973 287 957 C 266 940 251 921 241 900 C 231 878 227 856 227 834 C 227 806 231 781 240 760 C 248 739 263 720 284 704 C 305 688 333 673 368 660 C 403 646 447 633 500 621 C 575 602 639 583 691 563 C 743 543 786 520 818 494 C 850 468 873 438 887 404 C 901 370 909 329 909 281 C 909 235 899 193 879 156 C 859 119 831 88 795 62 C 759 36 717 17 667 3 C 617 -11 562 -18 502 -18 Z M 471 1192 L 207 1511 L 274 1511 L 514 1298 L 754 1511 L 817 1511 L 553 1192 L 471 1192 Z" unicode="š" />
<glyph horiz-adv-x="1249" d="" unicode="Ť" />
<glyph horiz-adv-x="717" d="" unicode="ť" />
<glyph horiz-adv-x="1249" d="" unicode="Ŧ" />
<glyph horiz-adv-x="717" d="" unicode="ŧ" />
<glyph horiz-adv-x="1460" d="" unicode="Ũ" />
<glyph horiz-adv-x="1174" d="" unicode="ũ" />
<glyph horiz-adv-x="1460" d="" unicode="Ū" />
<glyph horiz-adv-x="1174" d="" unicode="ū" />
<glyph horiz-adv-x="1460" d="" unicode="Ŭ" />
<glyph horiz-adv-x="1174" d="" unicode="ŭ" />
<glyph horiz-adv-x="1460" d="" unicode="Ů" />
<glyph horiz-adv-x="1174" d="" unicode="ů" />
<glyph horiz-adv-x="1460" d="" unicode="Ű" />
<glyph horiz-adv-x="1174" d="" unicode="ű" />
<glyph horiz-adv-x="1460" d="" unicode="Ų" />
<glyph horiz-adv-x="1174" d="" unicode="ų" />
<glyph horiz-adv-x="1880" d="" unicode="Ŵ" />
<glyph horiz-adv-x="1518" d="" unicode="ŵ" />
<glyph horiz-adv-x="1231" d="" unicode="Ŷ" />
<glyph horiz-adv-x="1063" d="" unicode="ŷ" />
<glyph horiz-adv-x="1231" d="M 66 0 L 66 0 Z M 666 0 L 563 0 L 563 674 L 66 1505 L 168 1526 L 618 762 L 1061 1516 L 1171 1516 L 666 674 L 666 0 Z M 784 1602 C 762 1602 745 1609 732 1624 C 718 1638 712 1659 712 1686 C 712 1711 718 1731 732 1746 C 745 1760 762 1768 784 1768 C 806 1768 824 1760 838 1746 C 851 1731 858 1711 858 1686 C 858 1659 851 1638 838 1624 C 824 1609 806 1602 784 1602 Z M 440 1602 C 418 1602 401 1609 388 1624 C 374 1638 368 1659 368 1686 C 368 1711 374 1731 388 1746 C 401 1760 418 1768 440 1768 C 462 1768 480 1760 494 1746 C 507 1731 514 1711 514 1686 C 514 1659 507 1638 494 1624 C 480 1609 462 1602 440 1602 Z" unicode="Ÿ" />
<glyph horiz-adv-x="1260" d="" unicode="Ź" />
<glyph horiz-adv-x="1024" d="" unicode="ź" />
<glyph horiz-adv-x="1260" d="" unicode="Ż" />
<glyph horiz-adv-x="1024" d="" unicode="ż" />
<glyph horiz-adv-x="1260" d="M 92 0 L 92 0 Z M 1159 0 L 92 0 L 92 76 L 1028 1427 L 164 1427 L 143 1516 L 1149 1516 L 1149 1440 L 213 88 L 1139 88 L 1159 0 Z M 588 1632 L 324 1951 L 391 1951 L 631 1738 L 871 1951 L 934 1951 L 670 1632 L 588 1632 Z" unicode="Ž" />
<glyph horiz-adv-x="1024" d="M 90 0 L 90 0 Z M 936 0 L 90 0 L 90 68 L 776 989 L 154 989 L 137 1075 L 903 1075 L 903 1008 L 215 86 L 920 86 L 936 0 Z M 471 1192 L 207 1511 L 274 1511 L 514 1298 L 754 1511 L 817 1511 L 553 1192 L 471 1192 Z" unicode="ž" />
<glyph horiz-adv-x="641" d="M -199 -410 L -184 -319 C -177 -320 -167 -321 -155 -321 C -142 -321 -131 -322 -121 -322 C -67 -322 -20 -309 18 -284 C 56 -259 80 -218 88 -160 L 233 864 L 45 864 L 57 952 L 246 952 L 287 1257 C 299 1350 334 1416 392 1456 C 450 1496 525 1516 618 1516 L 672 1516 L 657 1425 C 650 1425 640 1426 628 1426 C 615 1426 604 1427 594 1427 C 540 1427 493 1414 455 1390 C 416 1365 393 1324 385 1266 L 344 952 L 582 952 L 569 864 L 332 864 L 186 -152 C 173 -244 138 -310 80 -350 C 22 -390 -52 -410 -145 -410 L -199 -410 Z" unicode="ƒ" />
<glyph horiz-adv-x="1309" d="" unicode="Ș" />
<glyph horiz-adv-x="1024" d="" unicode="ș" />
<glyph horiz-adv-x="1249" d="" unicode="Ț" />
<glyph horiz-adv-x="717" d="" unicode="ț" />
<glyph horiz-adv-x="1104" d="" unicode="ə" />
<glyph horiz-adv-x="543" d="" unicode="ʻ" />
<glyph horiz-adv-x="543" d="" unicode="ʼ" />
<glyph horiz-adv-x="1024" d="M 207 1182 L 471 1501 L 553 1501 L 817 1182 L 750 1182 L 510 1395 L 270 1182 L 207 1182 Z" unicode="ˆ" />
<glyph horiz-adv-x="1024" d="M 471 1192 L 207 1511 L 274 1511 L 514 1298 L 754 1511 L 817 1511 L 553 1192 L 471 1192 Z" unicode="ˇ" />
<glyph horiz-adv-x="1024" d="" unicode="ˉ" />
<glyph horiz-adv-x="1024" d="" unicode="˘" />
<glyph horiz-adv-x="1024" d="" unicode="˙" />
<glyph horiz-adv-x="1106" d="M 553 1178 C 502 1178 460 1194 426 1228 C 392 1262 375 1304 375 1356 C 375 1406 392 1447 426 1481 C 460 1515 502 1532 553 1532 C 603 1532 646 1515 680 1481 C 714 1447 731 1406 731 1356 C 731 1304 714 1262 680 1228 C 646 1194 603 1178 553 1178 Z M 553 1237 C 585 1237 612 1248 634 1270 C 655 1292 666 1321 666 1356 C 666 1389 655 1417 634 1439 C 612 1461 585 1473 553 1473 C 520 1473 493 1461 472 1439 C 450 1417 440 1389 440 1356 C 440 1321 450 1292 472 1270 C 493 1248 520 1237 553 1237 Z" unicode="˚" />
<glyph horiz-adv-x="1024" d="" unicode="˛" />
<glyph horiz-adv-x="1024" d="M 662 1188 C 635 1188 608 1194 581 1206 C 553 1218 527 1231 501 1245 C 475 1259 449 1273 425 1285 C 401 1297 378 1303 358 1303 C 327 1303 305 1294 293 1276 C 280 1258 274 1228 274 1186 L 205 1198 C 205 1264 218 1313 244 1346 C 270 1378 310 1395 362 1395 C 388 1395 415 1389 443 1377 C 470 1365 497 1351 523 1337 C 549 1323 574 1310 598 1298 C 622 1286 645 1280 666 1280 C 696 1280 718 1289 731 1307 C 743 1325 750 1355 750 1397 L 819 1384 C 819 1318 805 1268 779 1236 C 753 1204 714 1188 662 1188 Z" unicode="˜" />
<glyph horiz-adv-x="1024" d="" unicode="˝" />
<glyph horiz-adv-x="1350" d="" unicode="Δ" />
<glyph horiz-adv-x="1503" d="" unicode="Ω" />
<glyph horiz-adv-x="1184" d="M 270 -410 L 172 -410 L 172 1075 L 270 1075 L 270 307 C 270 225 289 164 327 124 C 365 83 424 63 506 63 C 580 63 649 81 715 118 C 781 154 847 204 913 268 L 913 1075 L 1012 1075 L 1012 0 L 913 0 L 913 178 C 883 150 852 123 820 99 C 788 75 754 53 720 35 C 685 17 649 2 612 -7 C 575 -17 537 -23 498 -23 C 448 -23 404 -16 366 -4 C 328 8 296 32 270 66 L 270 -410 Z" unicode="μ" />
<glyph horiz-adv-x="1296" d="" unicode="π" />
<glyph horiz-adv-x="1880" d="" unicode="Ẁ" />
<glyph horiz-adv-x="1518" d="" unicode="ẁ" />
<glyph horiz-adv-x="1880" d="" unicode="Ẃ" />
<glyph horiz-adv-x="1518" d="" unicode="ẃ" />
<glyph horiz-adv-x="1880" d="" unicode="Ẅ" />
<glyph horiz-adv-x="1518" d="" unicode="ẅ" />
<glyph horiz-adv-x="1231" d="" unicode="Ỳ" />
<glyph horiz-adv-x="1063" d="" unicode="ỳ" />
<glyph horiz-adv-x="1024" d="" unicode=" " />
<glyph horiz-adv-x="2048" d="" unicode=" " />
<glyph horiz-adv-x="1024" d="" unicode=" " />
<glyph horiz-adv-x="2048" d="" unicode=" " />
<glyph horiz-adv-x="682" d="" unicode=" " />
<glyph horiz-adv-x="512" d="" unicode=" " />
<glyph horiz-adv-x="1331" d="" unicode=" " />
<glyph horiz-adv-x="410" d="" unicode=" " />
<glyph horiz-adv-x="205" d="" unicode=" " />
<glyph horiz-adv-x="0" d="" unicode="​" />
<glyph horiz-adv-x="731" d="M 588 594 L 143 594 L 143 692 L 588 692 L 588 594 Z" unicode="‐" />
<glyph horiz-adv-x="731" d="M 588 594 L 143 594 L 143 692 L 588 692 L 588 594 Z" unicode="‑" />
<glyph horiz-adv-x="1331" d="M 154 596 L 154 690 L 1178 690 L 1178 596 L 154 596 Z" unicode="‒" />
<glyph horiz-adv-x="1311" d="M 1167 596 L 143 596 L 143 690 L 1167 690 L 1167 596 Z" unicode="–" />
<glyph horiz-adv-x="1884" d="M 1741 596 L 143 596 L 143 690 L 1741 690 L 1741 596 Z" unicode="—" />
<glyph horiz-adv-x="2048" d="M 0 596 L 0 690 L 2048 690 L 2048 596 L 0 596 Z" unicode="―" />
<glyph horiz-adv-x="543" d="M 307 1516 L 367 1516 L 315 1153 L 180 1153 L 307 1516 Z" unicode="‘" />
<glyph horiz-adv-x="543" d="M 240 1153 L 180 1153 L 231 1516 L 367 1516 L 240 1153 Z" unicode="’" />
<glyph horiz-adv-x="543" d="M 182 0 L 182 0 Z M 242 -199 L 182 -199 L 233 164 L 369 164 L 242 -199 Z" unicode="‚" />
<glyph horiz-adv-x="895" d="M 307 1516 L 367 1516 L 315 1153 L 180 1153 L 307 1516 Z M 655 1516 L 715 1516 L 664 1153 L 528 1153 L 655 1516 Z" unicode="“" />
<glyph horiz-adv-x="895" d="M 588 1153 L 528 1153 L 580 1516 L 715 1516 L 588 1153 Z M 240 1153 L 180 1153 L 231 1516 L 367 1516 L 240 1153 Z" unicode="”" />
<glyph horiz-adv-x="895" d="M 182 0 L 182 0 Z M 590 -199 L 530 -199 L 582 164 L 717 164 L 590 -199 Z M 242 -199 L 182 -199 L 233 164 L 369 164 L 242 -199 Z" unicode="„" />
<glyph horiz-adv-x="1112" d="M 612 -410 L 500 -410 L 520 893 L 109 874 L 109 975 L 520 954 L 500 1516 L 612 1516 L 592 954 L 1004 975 L 1004 874 L 592 893 L 612 -410 Z" unicode="†" />
<glyph horiz-adv-x="1112" d="M 612 -410 L 500 -410 L 520 96 L 119 76 L 119 176 L 520 158 L 508 559 L 520 950 L 119 932 L 119 1032 L 520 1012 L 500 1516 L 612 1516 L 592 1012 L 993 1032 L 993 932 L 592 950 L 604 559 L 592 158 L 993 176 L 993 76 L 592 96 L 612 -410 Z" unicode="‡" />
<glyph horiz-adv-x="948" d="M 473 485 C 439 485 408 490 380 502 C 352 514 327 530 307 551 C 287 571 271 596 259 624 C 247 652 242 683 242 717 C 242 750 247 781 259 810 C 271 838 287 863 307 884 C 327 904 352 920 380 932 C 408 944 439 950 473 950 C 506 950 537 944 566 932 C 595 920 620 904 641 884 C 661 863 677 838 689 810 C 701 781 707 750 707 717 C 707 683 701 652 689 624 C 677 596 661 571 641 551 C 620 530 595 514 566 502 C 537 490 506 485 473 485 Z" unicode="•" />
<glyph horiz-adv-x="1628" d="M 193 0 L 193 0 Z M 270 -8 C 246 -8 228 0 214 16 C 200 32 193 54 193 84 C 193 112 200 134 214 150 C 228 166 246 174 270 174 C 293 174 312 166 327 150 C 342 134 350 112 350 84 C 350 54 342 32 327 16 C 312 0 293 -8 270 -8 Z M 813 -8 C 789 -8 771 0 757 16 C 743 32 736 54 736 84 C 736 112 743 134 757 150 C 771 166 789 174 813 174 C 836 174 855 166 870 150 C 885 134 893 112 893 84 C 893 54 885 32 870 16 C 855 0 836 -8 813 -8 Z M 1355 -8 C 1331 -8 1313 0 1299 16 C 1285 32 1278 54 1278 84 C 1278 112 1285 134 1299 150 C 1313 166 1331 174 1355 174 C 1378 174 1397 166 1412 150 C 1427 134 1435 112 1435 84 C 1435 54 1427 32 1412 16 C 1397 0 1378 -8 1355 -8 Z" unicode="…" />
<glyph horiz-adv-x="2740" d="M 459 645 C 407 645 360 655 320 677 C 280 699 246 729 219 768 C 191 806 170 853 156 907 C 142 961 135 1021 135 1085 C 135 1153 142 1216 158 1272 C 174 1328 196 1375 224 1414 C 252 1453 287 1483 328 1504 C 368 1525 413 1536 463 1536 C 512 1536 557 1525 597 1505 C 637 1484 670 1454 698 1416 C 725 1378 746 1331 761 1277 C 776 1222 784 1161 784 1094 C 784 1030 776 970 762 915 C 747 859 726 812 699 772 C 671 732 637 701 597 679 C 556 656 510 645 459 645 Z M 557 0 L 459 0 L 1364 1516 L 1462 1516 L 557 0 Z M 461 733 C 497 733 529 742 557 761 C 585 780 608 806 627 838 C 646 870 661 908 671 952 C 681 995 686 1041 686 1090 C 686 1142 681 1190 671 1234 C 661 1278 646 1316 627 1348 C 607 1379 583 1403 555 1421 C 527 1439 495 1448 459 1448 C 423 1448 390 1438 362 1420 C 334 1401 310 1376 291 1344 C 272 1312 258 1274 248 1231 C 238 1187 233 1142 233 1094 C 233 1041 238 992 248 948 C 258 904 272 866 292 834 C 311 802 335 778 364 760 C 392 742 425 733 461 733 Z M 2279 -20 C 2227 -20 2180 -9 2140 12 C 2100 34 2066 64 2039 103 C 2012 141 1991 188 1977 242 C 1963 296 1956 356 1956 420 C 1956 488 1963 550 1979 606 C 1995 662 2017 709 2045 748 C 2073 787 2108 817 2149 838 C 2189 859 2234 870 2284 870 C 2333 870 2377 859 2417 839 C 2457 818 2490 788 2518 750 C 2546 712 2567 665 2582 611 C 2597 556 2605 495 2605 428 C 2605 364 2597 304 2583 249 C 2568 194 2547 147 2519 107 C 2491 67 2457 36 2417 14 C 2376 -8 2330 -20 2279 -20 Z M 1460 -20 C 1408 -20 1361 -9 1321 12 C 1281 34 1247 64 1220 103 C 1192 141 1172 188 1158 242 C 1144 296 1137 356 1137 420 C 1137 488 1144 550 1160 606 C 1176 662 1198 709 1226 748 C 1254 787 1289 817 1329 838 C 1369 859 1414 870 1464 870 C 1513 870 1558 859 1598 839 C 1638 818 1671 788 1699 750 C 1727 712 1748 665 1763 611 C 1778 556 1786 495 1786 428 C 1786 364 1778 304 1764 249 C 1749 194 1728 147 1700 107 C 1672 67 1638 36 1598 14 C 1557 -8 1511 -20 1460 -20 Z M 2281 68 C 2317 68 2349 77 2377 96 C 2405 115 2429 141 2448 173 C 2467 205 2482 242 2492 286 C 2502 329 2507 375 2507 424 C 2507 476 2502 525 2492 569 C 2482 613 2467 650 2448 682 C 2428 713 2404 737 2376 755 C 2347 773 2315 782 2279 782 C 2243 782 2211 772 2183 754 C 2155 735 2131 710 2112 678 C 2093 646 2079 608 2069 565 C 2059 522 2054 476 2054 428 C 2054 375 2059 326 2069 282 C 2079 238 2093 200 2113 168 C 2132 136 2156 112 2184 94 C 2212 76 2245 68 2281 68 Z M 1462 68 C 1498 68 1530 77 1558 96 C 1586 115 1610 141 1629 173 C 1648 205 1663 242 1673 286 C 1683 329 1688 375 1688 424 C 1688 476 1683 525 1673 569 C 1663 613 1648 650 1629 682 C 1609 713 1585 737 1557 755 C 1528 773 1496 782 1460 782 C 1424 782 1392 772 1364 754 C 1336 735 1312 710 1293 678 C 1274 646 1260 608 1250 565 C 1240 522 1235 476 1235 428 C 1235 375 1240 326 1250 282 C 1260 238 1274 200 1294 168 C 1313 136 1337 112 1365 94 C 1393 76 1426 68 1462 68 Z" unicode="‰" />
<glyph horiz-adv-x="463" d="M 156 1010 L 190 1411 L 209 1516 L 319 1516 L 197 1010 L 156 1010 Z" unicode="′" />
<glyph horiz-adv-x="803" d="M 496 1010 L 530 1411 L 549 1516 L 659 1516 L 537 1010 L 496 1010 Z M 156 1010 L 190 1411 L 209 1516 L 319 1516 L 197 1010 L 156 1010 Z" unicode="″" />
<glyph horiz-adv-x="641" d="M 506 0 L 397 0 L 102 539 L 397 1075 L 506 1075 L 215 539 L 506 0 Z" unicode="‹" />
<glyph horiz-adv-x="641" d="M 242 0 L 133 0 L 426 539 L 133 1075 L 242 1075 L 539 539 L 242 0 Z" unicode="›" />
<glyph horiz-adv-x="918" d="M 68 0 L -31 0 L 850 1516 L 948 1516 L 68 0 Z" unicode="⁄" />
<glyph horiz-adv-x="938" d="M 471 561 C 416 561 367 572 324 595 C 281 617 245 649 217 691 C 188 733 166 783 151 843 C 136 902 129 968 129 1042 C 129 1114 136 1181 151 1242 C 166 1302 188 1354 217 1397 C 245 1439 281 1472 324 1496 C 367 1520 416 1532 471 1532 C 524 1532 572 1520 614 1496 C 656 1472 692 1439 721 1397 C 749 1354 771 1302 786 1242 C 801 1181 809 1114 809 1042 C 809 968 801 902 786 843 C 771 783 749 733 721 691 C 692 649 656 617 614 595 C 572 572 524 561 471 561 Z M 471 641 C 547 641 608 675 653 743 C 698 811 721 910 721 1042 C 721 1172 698 1272 652 1343 C 606 1414 545 1450 471 1450 C 391 1450 329 1414 284 1343 C 239 1272 217 1172 217 1042 C 217 910 240 811 286 743 C 332 675 394 641 471 641 Z" unicode="⁰" />
<glyph horiz-adv-x="870" d="M 549 578 L 549 809 L 117 809 L 117 870 L 539 1516 L 637 1516 L 637 895 L 782 895 L 799 809 L 637 809 L 637 578 L 549 578 Z M 231 895 L 549 895 L 549 1378 L 231 895 Z" unicode="⁴" />
<glyph horiz-adv-x="852" d="M 420 561 C 352 561 292 578 238 614 C 184 650 141 696 109 754 L 182 799 C 210 752 243 714 281 685 C 319 655 366 641 422 641 C 460 641 494 647 523 661 C 552 674 576 692 595 714 C 613 736 627 761 637 790 C 646 818 651 848 651 879 C 651 916 645 949 635 979 C 624 1008 609 1032 591 1052 C 573 1072 551 1087 526 1097 C 500 1107 473 1112 444 1112 C 396 1112 357 1103 327 1085 C 297 1067 270 1041 246 1006 L 162 1040 L 193 1516 L 678 1516 L 696 1427 L 274 1427 L 250 1112 C 268 1135 294 1154 326 1170 C 358 1186 401 1194 455 1194 C 493 1194 530 1186 565 1172 C 599 1158 629 1137 655 1110 C 681 1083 701 1050 716 1012 C 731 974 739 931 739 883 C 739 835 731 792 716 752 C 701 712 680 678 653 650 C 625 622 592 600 552 584 C 512 568 468 561 420 561 Z" unicode="⁵" />
<glyph horiz-adv-x="885" d="M 459 561 C 415 561 372 570 332 589 C 292 607 257 636 227 675 C 197 713 173 762 155 822 C 137 882 129 952 129 1034 C 129 1103 136 1168 152 1229 C 168 1290 191 1343 221 1388 C 251 1432 288 1467 333 1493 C 378 1519 430 1532 489 1532 C 545 1532 594 1522 638 1504 C 681 1486 718 1462 748 1434 L 694 1370 C 661 1395 630 1415 601 1430 C 572 1444 534 1452 487 1452 C 403 1452 338 1416 290 1346 C 242 1276 217 1178 215 1053 C 244 1085 280 1114 322 1140 C 364 1165 415 1178 473 1178 C 525 1178 571 1170 609 1154 C 647 1138 678 1116 702 1089 C 726 1062 743 1030 755 994 C 766 958 772 919 772 879 C 772 834 764 792 750 754 C 735 715 714 681 687 653 C 660 624 627 601 589 585 C 550 569 507 561 459 561 Z M 461 643 C 526 643 579 663 620 704 C 661 745 682 803 682 879 C 682 942 665 994 631 1035 C 597 1075 543 1096 469 1096 C 420 1096 374 1082 331 1054 C 288 1026 251 992 221 950 C 226 896 236 850 251 811 C 266 772 284 740 306 716 C 327 691 351 673 378 661 C 404 649 432 643 461 643 Z" unicode="⁶" />
<glyph horiz-adv-x="821" d="M 207 578 L 598 1427 L 133 1427 L 117 1516 L 698 1516 L 698 1444 L 301 578 L 207 578 Z" unicode="⁷" />
<glyph horiz-adv-x="883" d="M 440 561 C 388 561 341 567 300 581 C 258 594 224 612 196 634 C 168 656 146 682 131 712 C 116 742 109 773 109 807 C 109 872 129 925 169 965 C 209 1005 266 1041 340 1075 C 280 1102 233 1132 201 1166 C 168 1200 152 1244 152 1298 C 152 1328 158 1358 172 1386 C 185 1414 204 1439 229 1461 C 253 1482 284 1499 320 1512 C 356 1525 396 1532 440 1532 C 485 1532 526 1525 562 1512 C 598 1499 629 1482 654 1460 C 678 1438 697 1413 711 1385 C 724 1357 731 1328 731 1298 C 731 1244 712 1201 676 1170 C 640 1138 591 1109 530 1081 C 604 1045 664 1007 708 966 C 752 925 774 872 774 807 C 774 774 766 743 751 713 C 735 683 713 657 685 635 C 657 612 622 594 580 581 C 538 567 492 561 440 561 Z M 442 1118 C 476 1133 505 1147 531 1160 C 556 1173 577 1186 593 1200 C 609 1213 621 1227 629 1243 C 637 1259 641 1277 641 1298 C 641 1316 637 1335 629 1353 C 621 1371 608 1388 592 1402 C 576 1416 555 1428 529 1437 C 503 1445 474 1450 440 1450 C 407 1450 378 1445 353 1437 C 328 1428 307 1417 291 1403 C 274 1389 261 1374 253 1356 C 244 1338 240 1321 240 1303 C 240 1281 243 1263 251 1247 C 259 1231 271 1216 287 1202 C 303 1188 324 1175 350 1162 C 376 1148 406 1134 442 1118 Z M 440 641 C 474 641 506 645 536 653 C 566 661 591 673 613 688 C 635 702 652 720 664 741 C 676 762 682 785 682 811 C 682 861 659 903 613 938 C 567 973 506 1006 430 1038 C 346 1002 287 967 251 934 C 215 900 197 859 197 811 C 197 786 203 763 215 742 C 227 721 244 703 266 688 C 288 673 313 661 343 653 C 373 645 405 641 440 641 Z" unicode="⁸" />
<glyph horiz-adv-x="885" d="M 416 997 C 464 997 510 1010 553 1038 C 596 1066 633 1101 664 1143 C 658 1196 648 1242 633 1281 C 618 1320 600 1352 579 1377 C 557 1401 533 1420 507 1432 C 480 1444 452 1450 424 1450 C 358 1450 305 1429 264 1388 C 223 1347 203 1289 203 1214 C 203 1150 219 1098 253 1058 C 287 1017 341 997 416 997 Z M 395 561 C 339 561 289 570 246 588 C 203 606 167 630 137 659 L 190 723 C 222 697 253 677 283 663 C 312 648 350 641 397 641 C 480 641 546 676 594 746 C 642 816 668 914 670 1040 C 640 1007 604 978 562 953 C 520 927 470 915 412 915 C 359 915 314 923 276 939 C 238 955 207 976 183 1003 C 159 1030 141 1062 130 1098 C 118 1134 113 1173 113 1214 C 113 1258 120 1300 135 1339 C 149 1377 170 1411 197 1440 C 224 1468 257 1491 296 1507 C 334 1523 378 1532 426 1532 C 470 1532 512 1522 552 1504 C 592 1485 628 1456 658 1418 C 688 1379 711 1330 729 1270 C 747 1210 756 1140 756 1059 C 756 989 748 924 732 863 C 716 802 694 749 664 705 C 634 660 596 625 551 599 C 505 573 453 561 395 561 Z" unicode="⁹" />
<glyph horiz-adv-x="938" d="M 129 0 L 129 0 Z M 471 -426 C 416 -426 367 -414 324 -392 C 281 -369 245 -337 217 -295 C 188 -253 166 -203 151 -144 C 136 -84 129 -18 129 55 C 129 127 136 194 151 255 C 166 315 188 367 217 410 C 245 452 281 485 324 509 C 367 533 416 545 471 545 C 524 545 572 533 614 509 C 656 485 692 452 721 410 C 749 367 771 315 786 255 C 801 194 809 127 809 55 C 809 -18 801 -84 786 -144 C 771 -203 749 -253 721 -295 C 692 -337 656 -369 614 -392 C 572 -414 524 -426 471 -426 Z M 471 -346 C 547 -346 608 -312 653 -244 C 698 -176 721 -76 721 55 C 721 185 698 285 652 356 C 606 427 545 463 471 463 C 391 463 329 427 284 356 C 239 285 217 185 217 55 C 217 -76 240 -176 286 -244 C 332 -312 394 -346 471 -346 Z" unicode="₀" />
<glyph horiz-adv-x="719" d="M 168 0 L 168 0 Z M 430 -409 L 338 -409 L 338 428 L 189 383 L 168 469 L 371 529 L 430 529 L 430 -409 Z" unicode="₁" />
<glyph horiz-adv-x="899" d="M 143 0 L 143 0 Z M 143 -409 L 143 -373 C 143 -339 148 -305 158 -273 C 168 -240 185 -207 210 -174 C 234 -140 267 -106 308 -70 C 349 -34 401 3 463 43 C 526 83 572 122 601 158 C 630 194 645 237 645 285 C 645 337 629 379 598 413 C 566 446 521 463 461 463 C 409 463 366 449 332 422 C 298 395 266 352 238 293 L 158 332 C 191 405 234 459 286 495 C 338 531 397 549 463 549 C 505 549 543 542 577 529 C 611 516 639 498 663 475 C 687 452 705 424 718 392 C 730 360 737 325 737 287 C 737 253 732 223 723 195 C 714 167 700 141 680 115 C 660 89 635 64 603 38 C 571 12 532 -14 487 -43 C 409 -91 350 -139 310 -187 C 269 -234 246 -278 242 -319 L 733 -319 L 750 -409 L 143 -409 Z" unicode="₂" />
<glyph horiz-adv-x="899" d="M 123 0 L 123 0 Z M 446 -428 C 378 -428 317 -411 261 -377 C 205 -343 159 -295 123 -231 L 197 -182 C 231 -240 269 -280 311 -304 C 353 -328 399 -340 449 -340 C 515 -340 567 -322 605 -288 C 643 -253 662 -208 662 -153 C 662 -87 640 -36 596 -1 C 552 33 477 51 371 51 L 324 51 L 324 129 L 379 129 C 470 129 537 143 579 172 C 621 201 643 245 643 303 C 643 347 628 385 598 416 C 568 447 520 463 453 463 C 407 463 366 451 331 429 C 296 406 264 376 236 340 L 164 387 C 200 436 242 475 289 505 C 336 534 391 549 455 549 C 505 549 548 542 584 528 C 620 514 649 495 672 473 C 694 450 711 424 721 395 C 731 365 737 336 737 307 C 737 255 723 210 696 172 C 668 134 628 107 575 90 C 638 70 684 41 713 1 C 741 -38 756 -89 756 -151 C 756 -189 748 -224 734 -258 C 720 -292 699 -321 673 -346 C 647 -371 614 -391 576 -406 C 537 -420 494 -428 446 -428 Z" unicode="₃" />
<glyph horiz-adv-x="870" d="M 117 0 L 117 0 Z M 549 -409 L 549 -178 L 117 -178 L 117 -117 L 539 529 L 637 529 L 637 -92 L 782 -92 L 799 -178 L 637 -178 L 637 -409 L 549 -409 Z M 231 -92 L 549 -92 L 549 391 L 231 -92 Z" unicode="₄" />
<glyph horiz-adv-x="852" d="M 109 0 L 109 0 Z M 420 -426 C 352 -426 292 -408 238 -372 C 184 -336 141 -290 109 -233 L 182 -188 C 210 -234 243 -272 281 -302 C 319 -331 366 -346 422 -346 C 460 -346 494 -339 523 -326 C 552 -312 576 -295 595 -273 C 613 -251 627 -225 637 -197 C 646 -168 651 -138 651 -108 C 651 -70 645 -37 635 -8 C 624 21 609 45 591 65 C 573 85 551 100 526 110 C 500 120 473 125 444 125 C 396 125 357 116 327 98 C 297 80 270 54 246 19 L 162 53 L 193 529 L 678 529 L 696 440 L 274 440 L 250 125 C 268 148 294 167 326 183 C 358 199 401 207 455 207 C 493 207 530 199 565 185 C 599 171 629 150 655 123 C 681 96 701 63 716 25 C 731 -12 739 -56 739 -104 C 739 -151 731 -194 716 -234 C 701 -274 680 -308 653 -336 C 625 -364 592 -386 552 -402 C 512 -418 468 -426 420 -426 Z" unicode="₅" />
<glyph horiz-adv-x="885" d="M 129 0 L 129 0 Z M 459 -426 C 415 -426 372 -416 332 -398 C 292 -379 257 -350 227 -312 C 197 -273 173 -224 155 -164 C 137 -104 129 -34 129 47 C 129 116 136 181 152 242 C 168 303 191 356 221 401 C 251 445 288 480 333 506 C 378 532 430 545 489 545 C 545 545 594 535 638 517 C 681 499 718 475 748 447 L 694 383 C 661 408 630 428 601 443 C 572 457 534 465 487 465 C 403 465 338 429 290 359 C 242 289 217 191 215 66 C 244 98 280 127 322 153 C 364 178 415 191 473 191 C 525 191 571 183 609 167 C 647 151 678 129 702 102 C 726 75 743 43 755 7 C 766 -28 772 -67 772 -108 C 772 -152 764 -194 750 -233 C 735 -271 714 -305 687 -334 C 660 -362 627 -385 589 -401 C 550 -417 507 -426 459 -426 Z M 461 -344 C 526 -344 579 -323 620 -282 C 661 -241 682 -183 682 -108 C 682 -44 665 7 631 48 C 597 88 543 109 469 109 C 420 109 374 95 331 67 C 288 39 251 5 221 -37 C 226 -90 236 -136 251 -175 C 266 -214 284 -246 306 -271 C 327 -295 351 -314 378 -326 C 404 -338 432 -344 461 -344 Z" unicode="₆" />
<glyph horiz-adv-x="821" d="M 117 0 L 117 0 Z M 207 -409 L 598 440 L 133 440 L 117 529 L 698 529 L 698 457 L 301 -409 L 207 -409 Z" unicode="₇" />
<glyph horiz-adv-x="883" d="M 109 0 L 109 0 Z M 440 -426 C 388 -426 341 -419 300 -406 C 258 -392 224 -374 196 -352 C 168 -330 146 -304 131 -274 C 116 -244 109 -213 109 -180 C 109 -114 129 -62 169 -22 C 209 18 266 54 340 88 C 280 115 233 145 201 179 C 168 213 152 257 152 311 C 152 341 158 371 172 399 C 185 427 204 452 229 474 C 253 495 284 512 320 525 C 356 538 396 545 440 545 C 485 545 526 538 562 525 C 598 512 629 495 654 473 C 678 451 697 426 711 398 C 724 370 731 341 731 311 C 731 257 712 214 676 183 C 640 151 591 122 530 94 C 604 58 664 20 708 -20 C 752 -61 774 -114 774 -180 C 774 -212 766 -243 751 -273 C 735 -303 713 -329 685 -352 C 657 -374 622 -392 580 -406 C 538 -419 492 -426 440 -426 Z M 442 131 C 476 146 505 160 531 173 C 556 186 577 199 593 213 C 609 226 621 240 629 256 C 637 272 641 290 641 311 C 641 329 637 348 629 366 C 621 384 608 401 592 415 C 576 429 555 441 529 450 C 503 458 474 463 440 463 C 407 463 378 458 353 450 C 328 441 307 430 291 416 C 274 402 261 387 253 369 C 244 351 240 334 240 316 C 240 294 243 276 251 260 C 259 244 271 229 287 215 C 303 201 324 188 350 175 C 376 161 406 147 442 131 Z M 440 -346 C 474 -346 506 -341 536 -333 C 566 -325 591 -313 613 -299 C 635 -284 652 -266 664 -245 C 676 -224 682 -201 682 -176 C 682 -126 659 -83 613 -48 C 567 -13 506 19 430 51 C 346 15 287 -19 251 -53 C 215 -86 197 -127 197 -176 C 197 -200 203 -223 215 -244 C 227 -265 244 -283 266 -298 C 288 -313 313 -325 343 -333 C 373 -341 405 -346 440 -346 Z" unicode="₈" />
<glyph horiz-adv-x="885" d="M 113 0 L 113 0 Z M 416 10 C 464 10 510 23 553 51 C 596 79 633 114 664 156 C 658 209 648 255 633 294 C 618 333 600 365 579 390 C 557 414 533 433 507 445 C 480 457 452 463 424 463 C 358 463 305 442 264 401 C 223 360 203 302 203 227 C 203 163 219 111 253 71 C 287 30 341 10 416 10 Z M 395 -426 C 339 -426 289 -416 246 -398 C 203 -380 167 -356 137 -328 L 190 -264 C 222 -289 253 -309 283 -324 C 312 -338 350 -346 397 -346 C 480 -346 546 -310 594 -240 C 642 -170 668 -72 670 53 C 640 20 604 -8 562 -34 C 520 -59 470 -72 412 -72 C 359 -72 314 -64 276 -48 C 238 -32 207 -10 183 16 C 159 43 141 75 130 111 C 118 147 113 186 113 227 C 113 271 120 313 135 352 C 149 390 170 424 197 453 C 224 481 257 504 296 520 C 334 536 378 545 426 545 C 470 545 512 535 552 517 C 592 498 628 469 658 431 C 688 392 711 343 729 283 C 747 223 756 153 756 72 C 756 2 748 -62 732 -123 C 716 -184 694 -237 664 -282 C 634 -326 596 -361 551 -387 C 505 -413 453 -426 395 -426 Z" unicode="₉" />
<glyph horiz-adv-x="1458" d="M 295 768 C 295 785 295 802 296 819 C 296 835 297 851 297 866 L 43 866 L 43 958 L 307 958 C 321 1058 345 1146 380 1220 C 414 1294 456 1355 505 1403 C 553 1451 607 1486 666 1509 C 725 1532 786 1544 848 1544 C 915 1544 974 1533 1025 1511 C 1076 1489 1120 1459 1158 1421 C 1195 1383 1226 1337 1252 1283 C 1277 1229 1298 1170 1315 1106 L 1217 1083 C 1201 1139 1183 1190 1164 1236 C 1145 1282 1122 1321 1094 1353 C 1066 1385 1033 1409 993 1426 C 953 1443 904 1452 846 1452 C 794 1452 743 1442 695 1422 C 647 1402 603 1372 565 1332 C 526 1292 493 1240 465 1178 C 437 1116 418 1042 406 958 L 903 958 L 903 866 L 395 866 C 394 852 393 837 393 822 C 393 806 393 791 393 776 C 393 754 393 733 394 712 C 395 690 396 670 397 651 L 903 651 L 903 557 L 408 557 C 431 395 481 272 559 188 C 636 104 733 63 850 63 C 962 63 1047 97 1107 166 C 1166 234 1211 329 1243 451 L 1339 428 C 1322 362 1300 300 1272 244 C 1244 188 1210 139 1170 99 C 1130 59 1083 27 1029 5 C 975 -17 915 -29 848 -29 C 779 -29 715 -17 655 7 C 595 31 541 67 495 115 C 448 163 408 224 376 298 C 344 372 321 458 307 557 L 43 557 L 43 651 L 299 651 C 298 669 297 688 296 708 C 295 727 295 747 295 768 Z" unicode="€" />
<glyph horiz-adv-x="1765" d="" unicode="℗" />
<glyph horiz-adv-x="1772" d="M 422 649 L 340 649 L 340 1440 L 63 1440 L 63 1516 L 698 1516 L 698 1440 L 422 1440 L 422 649 Z M 938 649 L 858 649 L 858 1516 L 963 1516 L 1247 758 L 1534 1516 L 1640 1516 L 1640 649 L 1554 649 L 1554 1356 L 1282 649 L 1210 649 L 938 1356 L 938 649 Z" unicode="™" />
<glyph horiz-adv-x="1503" d="" unicode="Ω" />
<glyph horiz-adv-x="1427" d="" unicode="℮" />
<glyph horiz-adv-x="2064" d="" unicode="⅓" />
<glyph horiz-adv-x="2245" d="" unicode="⅔" />
<glyph horiz-adv-x="2028" d="" unicode="⅛" />
<glyph horiz-adv-x="2126" d="" unicode="⅜" />
<glyph horiz-adv-x="2079" d="" unicode="⅝" />
<glyph horiz-adv-x="1884" d="" unicode="⅞" />
<glyph horiz-adv-x="1155" d="" unicode="∂" />
<glyph horiz-adv-x="1350" d="" unicode="∆" />
<glyph horiz-adv-x="1473" d="" unicode="∏" />
<glyph horiz-adv-x="1200" d="" unicode="∑" />
<glyph horiz-adv-x="1298" d="" unicode="−" />
<glyph horiz-adv-x="918" d="" unicode="∕" />
<glyph horiz-adv-x="543" d="" unicode="∙" />
<glyph horiz-adv-x="1356" d="" unicode="√" />
<glyph horiz-adv-x="1544" d="" unicode="∞" />
<glyph horiz-adv-x="641" d="" unicode="∫" />
<glyph horiz-adv-x="1186" d="" unicode="≈" />
<glyph horiz-adv-x="1298" d="" unicode="≠" />
<glyph horiz-adv-x="1298" d="" unicode="≤" />
<glyph horiz-adv-x="1298" d="" unicode="≥" />
<glyph horiz-adv-x="1331" d="" unicode="◊" />
<glyph horiz-adv-x="1192" d="M 563 -6 L 465 -6 L 66 1075 L 174 1075 L 514 123 L 518 123 L 1020 1516 L 1126 1516 L 563 -6 Z" unicode="✓" />
<glyph horiz-adv-x="543" d="" unicode="" />
<glyph horiz-adv-x="1556" d="M 815 1053 L 815 793 L 1073 793 L 1063 1040 L 815 1053 Z M 498 1042 L 485 793 L 743 793 L 743 1053 L 498 1042 Z M 815 721 L 815 465 L 1061 475 L 1073 721 L 815 721 Z M 496 477 L 743 465 L 743 721 L 485 721 L 496 477 Z M 836 0 L 723 0 L 743 403 L 500 391 L 504 319 L 403 319 L 408 387 L 342 383 L 342 483 L 412 481 L 424 721 L 20 700 L 20 813 L 424 793 L 412 1038 L 342 1034 L 342 1135 L 408 1130 L 403 1194 L 504 1194 L 502 1126 L 743 1114 L 723 1516 L 836 1516 L 815 1114 L 1059 1126 L 1055 1194 L 1155 1194 L 1151 1130 L 1217 1135 L 1217 1034 L 1147 1036 L 1135 793 L 1536 813 L 1536 700 L 1135 721 L 1147 479 L 1217 483 L 1217 383 L 1151 387 L 1155 319 L 1055 319 L 1057 391 L 815 403 L 836 0 Z" unicode="" />
<glyph horiz-adv-x="1229" d="M 344 0 L 246 0 L 246 987 L 57 987 L 57 1075 L 246 1075 L 246 1257 C 246 1348 272 1414 326 1455 C 380 1495 451 1516 541 1516 L 588 1516 L 602 1425 C 593 1425 581 1426 567 1426 C 552 1426 539 1427 528 1427 C 474 1427 429 1414 395 1390 C 361 1365 344 1324 344 1266 L 344 1075 L 834 1075 L 834 1257 C 834 1302 841 1341 855 1374 C 869 1407 888 1434 914 1455 C 939 1475 970 1491 1007 1501 C 1043 1511 1084 1516 1128 1516 L 1176 1516 L 1190 1425 C 1180 1425 1168 1426 1154 1426 C 1140 1426 1127 1427 1116 1427 C 1062 1427 1017 1414 983 1390 C 949 1365 932 1324 932 1266 L 932 1075 L 1169 1075 L 1169 987 L 932 987 L 932 0 L 834 0 L 834 987 L 344 987 L 344 0 Z" unicode="ﬀ" />
<glyph horiz-adv-x="1135" d="M 883 1341 C 863 1341 848 1347 836 1360 C 824 1372 819 1390 819 1413 C 819 1435 824 1453 836 1465 C 848 1477 863 1483 883 1483 C 901 1483 916 1477 928 1465 C 940 1453 946 1435 946 1413 C 946 1390 940 1372 928 1360 C 916 1347 901 1341 883 1341 Z M 246 1075 L 246 1257 C 246 1348 272 1414 326 1455 C 380 1495 451 1516 541 1516 L 588 1516 L 602 1425 C 593 1425 581 1426 567 1426 C 552 1426 539 1427 528 1427 C 474 1427 429 1414 395 1390 C 361 1365 344 1324 344 1266 L 344 1075 L 582 1075 L 582 987 L 344 987 L 344 0 L 246 0 L 246 987 L 57 987 L 57 1075 L 246 1075 Z M 932 0 L 834 0 L 834 1075 L 932 1075 L 932 0 Z" unicode="ﬁ" />
<glyph horiz-adv-x="1135" d="M 932 0 L 834 0 L 834 1507 L 932 1524 L 932 0 Z M 246 1075 L 246 1257 C 246 1348 272 1414 326 1455 C 380 1495 451 1516 541 1516 L 588 1516 L 602 1425 C 593 1425 581 1426 567 1426 C 552 1426 539 1427 528 1427 C 474 1427 429 1414 395 1390 C 361 1365 344 1324 344 1266 L 344 1075 L 582 1075 L 582 987 L 344 987 L 344 0 L 246 0 L 246 987 L 57 987 L 57 1075 L 246 1075 Z" unicode="ﬂ" />
<glyph horiz-adv-x="1704" d="M 1470 1341 C 1451 1341 1436 1347 1424 1360 C 1412 1372 1407 1390 1407 1413 C 1407 1435 1412 1453 1424 1465 C 1436 1477 1451 1483 1470 1483 C 1488 1483 1504 1477 1516 1465 C 1528 1453 1534 1435 1534 1413 C 1534 1390 1528 1372 1516 1360 C 1504 1347 1488 1341 1470 1341 Z M 1520 0 L 1421 0 L 1421 1075 L 1520 1075 L 1520 0 Z M 932 1075 L 1169 1075 L 1169 987 L 932 987 L 932 0 L 834 0 L 834 987 L 344 987 L 344 0 L 246 0 L 246 987 L 57 987 L 57 1075 L 246 1075 L 246 1257 C 246 1348 272 1414 326 1455 C 380 1495 451 1516 541 1516 L 588 1516 L 602 1425 C 593 1425 581 1426 567 1426 C 552 1426 539 1427 528 1427 C 474 1427 429 1414 395 1390 C 361 1365 344 1324 344 1266 L 344 1075 L 834 1075 L 834 1257 C 834 1302 841 1341 855 1374 C 869 1407 888 1434 914 1455 C 939 1475 970 1491 1007 1501 C 1043 1511 1084 1516 1128 1516 L 1176 1516 L 1190 1425 C 1180 1425 1168 1426 1154 1426 C 1140 1426 1127 1427 1116 1427 C 1062 1427 1017 1414 983 1390 C 949 1365 932 1324 932 1266 L 932 1075 Z" unicode="ﬃ" />
<glyph horiz-adv-x="1704" d="M 1520 0 L 1421 0 L 1421 1507 L 1520 1522 L 1520 0 Z M 932 1075 L 1169 1075 L 1169 987 L 932 987 L 932 0 L 834 0 L 834 987 L 344 987 L 344 0 L 246 0 L 246 987 L 57 987 L 57 1075 L 246 1075 L 246 1257 C 246 1348 272 1414 326 1455 C 380 1495 451 1516 541 1516 L 588 1516 L 602 1425 C 593 1425 581 1426 567 1426 C 552 1426 539 1427 528 1427 C 474 1427 429 1414 395 1390 C 361 1365 344 1324 344 1266 L 344 1075 L 834 1075 L 834 1257 C 834 1302 841 1341 855 1374 C 869 1407 888 1434 914 1455 C 939 1475 970 1491 1007 1501 C 1043 1511 1084 1516 1128 1516 L 1176 1516 L 1190 1425 C 1180 1425 1168 1426 1154 1426 C 1140 1426 1127 1427 1116 1427 C 1062 1427 1017 1414 983 1390 C 949 1365 932 1324 932 1266 L 932 1075 Z" unicode="ﬄ" />
<glyph horiz-adv-x="0" d="" unicode="﻿" />
</font>
</defs>
</svg>
