<?xml version="1.0" encoding="utf-8" ?><svg version="1.1" xmlns = 'http://www.w3.org/2000/svg'><defs><font id='web' horiz-adv-x="1000">
<font-face font-family="web" descent="-436" cap-height="1516" units-per-em="2048" bbox="-188,-553,2931,2005" x-height="1085" ascent="1612" />
<missing-glyph horiz-adv-x="1024" d="" /><glyph horiz-adv-x="514" d="" unicode=" " />
<glyph horiz-adv-x="694" d="M 442 453 L 262 453 L 195 1516 L 510 1516 L 442 453 Z M 350 -14 C 300 -14 261 0 235 29 C 208 57 195 92 195 133 C 195 173 208 208 235 236 C 261 264 300 279 350 279 C 400 279 438 264 466 236 C 494 208 508 173 508 133 C 508 92 494 57 466 29 C 438 0 400 -14 350 -14 Z" unicode="!" />
<glyph horiz-adv-x="895" d="M 715 979 L 561 979 L 526 1380 L 526 1516 L 750 1516 L 750 1380 L 715 979 Z M 334 979 L 180 979 L 145 1380 L 145 1516 L 369 1516 L 369 1380 L 334 979 Z" unicode="&#x22;" />
<glyph horiz-adv-x="1516" d="M 633 918 L 565 598 L 862 598 L 928 918 L 633 918 Z M 440 0 L 213 0 L 297 408 L 68 408 L 68 598 L 338 598 L 403 918 L 156 918 L 156 1108 L 444 1108 L 530 1516 L 758 1516 L 672 1108 L 969 1108 L 1055 1516 L 1282 1516 L 1196 1108 L 1448 1108 L 1448 918 L 1155 918 L 1090 598 L 1360 598 L 1360 408 L 1049 408 L 965 0 L 737 0 L 821 408 L 526 408 L 440 0 Z" unicode="#" />
<glyph horiz-adv-x="1368" d="M 610 907 L 610 1335 C 532 1328 474 1306 436 1268 C 398 1230 379 1185 379 1135 C 379 1071 400 1023 442 990 C 484 957 540 929 610 907 Z M 760 643 L 760 176 C 836 184 897 205 945 239 C 992 272 1016 324 1016 395 C 1016 464 992 517 945 553 C 897 589 836 619 760 643 Z M 604 -190 L 604 -14 C 539 -7 481 4 429 21 C 377 37 331 58 291 82 C 251 106 215 133 183 164 C 151 194 123 226 98 260 L 250 401 C 294 339 347 288 408 249 C 468 210 536 186 610 178 L 610 684 C 549 700 490 719 434 740 C 378 761 328 788 285 820 C 242 852 208 891 182 939 C 156 986 143 1044 143 1112 C 143 1170 153 1224 175 1274 C 196 1324 226 1367 266 1403 C 305 1439 353 1469 411 1491 C 468 1513 532 1527 604 1532 L 604 1677 L 764 1677 L 764 1528 C 822 1521 873 1510 918 1495 C 962 1480 1002 1462 1036 1441 C 1070 1420 1101 1396 1128 1370 C 1155 1343 1180 1315 1204 1286 L 1047 1143 C 1010 1189 969 1229 925 1262 C 881 1294 826 1317 760 1329 L 760 868 C 826 850 888 831 948 809 C 1008 787 1060 759 1105 725 C 1149 691 1185 650 1211 600 C 1237 550 1251 490 1251 418 C 1251 361 1241 308 1221 258 C 1201 208 1170 163 1130 125 C 1090 87 1039 55 978 31 C 916 7 845 -8 764 -14 L 764 -190 L 604 -190 Z" unicode="$" />
<glyph horiz-adv-x="2152" d="M 485 582 C 425 582 371 593 324 616 C 276 639 236 671 204 713 C 172 754 147 804 130 863 C 112 922 104 987 104 1059 C 104 1131 113 1197 131 1257 C 149 1316 174 1366 207 1408 C 240 1449 280 1481 328 1504 C 375 1526 428 1538 487 1538 C 545 1538 597 1526 644 1504 C 691 1482 731 1450 764 1409 C 796 1367 821 1317 839 1259 C 857 1200 866 1135 866 1063 C 866 991 857 926 840 867 C 822 807 797 757 765 715 C 733 673 693 640 646 617 C 598 593 545 582 485 582 Z M 733 0 L 514 0 L 1419 1516 L 1638 1516 L 733 0 Z M 487 748 C 515 748 539 755 560 771 C 581 786 598 807 612 835 C 626 862 636 895 643 933 C 649 971 653 1013 653 1059 C 653 1153 639 1229 611 1285 C 583 1341 541 1370 485 1370 C 456 1370 431 1362 409 1347 C 387 1332 370 1311 356 1284 C 342 1257 332 1225 325 1187 C 318 1149 315 1108 315 1063 C 315 967 329 890 357 833 C 385 776 429 748 487 748 Z M 1667 -20 C 1607 -20 1553 -8 1506 14 C 1458 37 1418 69 1386 111 C 1354 153 1329 203 1312 262 C 1294 321 1286 386 1286 457 C 1286 529 1295 595 1313 655 C 1331 715 1356 765 1389 807 C 1422 849 1462 881 1510 904 C 1557 926 1610 938 1669 938 C 1727 938 1779 926 1826 904 C 1873 881 1913 849 1946 808 C 1978 766 2003 716 2021 657 C 2039 598 2048 533 2048 461 C 2048 390 2039 325 2022 266 C 2004 206 1979 155 1947 113 C 1915 71 1875 38 1828 15 C 1780 -8 1727 -20 1667 -20 Z M 1669 147 C 1697 147 1722 154 1743 170 C 1764 185 1781 206 1795 234 C 1808 262 1818 295 1825 333 C 1831 371 1835 413 1835 459 C 1835 553 1821 628 1794 684 C 1766 740 1724 768 1667 768 C 1637 768 1612 760 1591 745 C 1570 730 1553 709 1539 682 C 1525 655 1515 623 1509 585 C 1502 547 1499 506 1499 461 C 1499 365 1512 288 1540 232 C 1568 175 1611 147 1669 147 Z" unicode="%" />
<glyph horiz-adv-x="1503" d="M 616 930 C 648 947 678 966 706 986 C 734 1006 759 1027 780 1051 C 801 1074 818 1099 830 1127 C 842 1155 848 1185 848 1219 C 848 1235 845 1250 840 1266 C 835 1282 827 1296 816 1308 C 805 1320 791 1330 773 1338 C 755 1346 733 1350 707 1350 C 655 1350 615 1335 585 1306 C 555 1276 541 1236 541 1186 C 541 1143 546 1101 558 1060 C 570 1019 589 976 616 930 Z M 600 174 C 650 174 698 179 744 189 C 790 199 829 217 862 244 C 826 278 789 317 749 363 C 709 409 667 460 623 516 C 600 544 578 572 557 600 C 536 628 516 654 498 680 C 440 644 394 603 360 558 C 326 512 309 462 309 408 C 309 334 334 277 386 236 C 437 194 508 174 600 174 Z M 598 -29 C 508 -29 428 -19 360 0 C 292 18 235 45 190 80 C 144 115 110 158 87 208 C 64 258 53 313 53 375 C 53 433 62 486 81 532 C 100 578 125 619 157 655 C 189 691 226 724 269 753 C 311 781 356 807 403 831 C 371 890 347 947 330 1003 C 313 1059 305 1115 305 1171 C 305 1219 313 1266 329 1311 C 345 1356 369 1396 402 1430 C 434 1464 476 1492 526 1513 C 576 1533 634 1544 702 1544 C 764 1544 818 1535 864 1518 C 910 1501 947 1478 977 1449 C 1007 1420 1029 1387 1043 1349 C 1057 1311 1065 1271 1065 1229 C 1065 1174 1055 1125 1035 1082 C 1015 1038 989 999 956 964 C 923 929 884 898 840 870 C 796 842 749 815 700 791 C 715 768 732 744 752 720 C 771 695 791 669 813 643 C 851 594 887 550 921 511 C 955 471 987 437 1018 408 C 1050 456 1077 512 1097 576 C 1117 640 1132 708 1141 782 L 1362 760 C 1349 674 1328 590 1300 508 C 1271 426 1234 351 1188 283 C 1234 251 1280 227 1326 212 C 1371 197 1417 190 1464 190 L 1485 -20 C 1395 -18 1314 -6 1241 14 C 1168 35 1098 69 1030 115 C 972 70 908 35 836 9 C 764 -16 685 -29 598 -29 Z" unicode="&#x26;" />
<glyph horiz-adv-x="514" d="M 334 979 L 180 979 L 145 1380 L 145 1516 L 369 1516 L 369 1380 L 334 979 Z" unicode="'" />
<glyph horiz-adv-x="821" d="M 748 -303 L 625 -420 C 459 -280 331 -129 241 32 C 151 193 106 373 106 573 C 106 773 151 953 241 1115 C 331 1276 459 1427 625 1567 L 739 1444 C 684 1387 634 1326 589 1261 C 543 1195 505 1126 473 1054 C 441 981 416 904 399 824 C 381 743 373 659 373 573 C 373 485 381 401 399 320 C 417 238 442 161 475 88 C 507 14 547 -54 593 -120 C 639 -186 691 -247 748 -303 Z" unicode="(" />
<glyph horiz-adv-x="821" d="M 197 -420 L 76 -303 C 132 -247 183 -186 229 -120 C 275 -54 314 14 346 88 C 378 161 404 238 422 320 C 440 401 449 485 449 573 C 449 659 440 743 422 824 C 404 904 380 981 348 1054 C 316 1126 277 1195 231 1261 C 185 1326 135 1387 80 1444 L 197 1567 C 363 1427 490 1276 580 1115 C 670 953 715 773 715 573 C 715 373 670 193 580 32 C 490 -129 363 -280 197 -420 Z" unicode=")" />
<glyph horiz-adv-x="1040" d="M 520 981 L 369 662 L 225 745 L 424 1036 L 72 1012 L 72 1171 L 426 1147 L 225 1438 L 369 1522 L 520 1202 L 672 1522 L 817 1438 L 616 1147 L 969 1171 L 969 1012 L 616 1036 L 817 745 L 674 662 L 520 981 Z" unicode="*" />
<glyph horiz-adv-x="1315" d="M 760 168 L 555 168 L 555 598 L 135 598 L 135 801 L 555 801 L 555 1231 L 760 1231 L 760 801 L 1180 801 L 1180 598 L 760 598 L 760 168 Z" unicode="+" />
<glyph horiz-adv-x="565" d="M 262 -229 L 113 -229 L 166 266 L 446 266 L 262 -229 Z" unicode="," />
<glyph horiz-adv-x="731" d="M 618 553 L 113 553 L 113 733 L 618 733 L 618 553 Z" unicode="-" />
<glyph horiz-adv-x="565" d="M 283 -14 C 233 -14 194 0 167 29 C 140 57 127 92 127 133 C 127 173 140 208 167 236 C 194 264 233 279 283 279 C 333 279 372 264 399 236 C 426 208 440 173 440 133 C 440 92 426 57 399 29 C 372 0 333 -14 283 -14 Z" unicode="." />
<glyph horiz-adv-x="1235" d="M 307 0 L 47 0 L 928 1516 L 1188 1516 L 307 0 Z" unicode="/" />
<glyph horiz-adv-x="1389" d="M 696 -29 C 601 -29 516 -10 441 27 C 366 65 303 118 252 187 C 200 255 161 338 134 436 C 107 533 94 640 94 758 C 94 875 107 982 134 1080 C 161 1177 200 1260 252 1328 C 303 1396 366 1449 441 1487 C 516 1525 601 1544 696 1544 C 790 1544 875 1525 950 1487 C 1024 1449 1087 1396 1138 1328 C 1188 1260 1227 1177 1254 1080 C 1280 982 1294 875 1294 758 C 1294 640 1280 533 1254 436 C 1227 338 1188 255 1138 187 C 1087 118 1024 65 950 27 C 875 -10 790 -29 696 -29 Z M 696 197 C 804 197 888 243 948 336 C 1008 428 1038 569 1038 758 C 1038 946 1007 1086 946 1178 C 885 1269 802 1315 696 1315 C 585 1315 500 1269 440 1178 C 380 1086 350 946 350 758 C 350 569 381 428 443 336 C 505 243 589 197 696 197 Z" unicode="0" />
<glyph horiz-adv-x="915" d="M 655 0 L 410 0 L 410 1284 L 119 1202 L 86 1411 L 418 1516 L 655 1516 L 655 0 Z" unicode="1" />
<glyph horiz-adv-x="1235" d="M 1145 0 L 72 0 L 72 33 C 72 87 78 142 90 197 C 102 251 125 306 159 362 C 193 418 242 475 304 534 C 366 593 447 655 547 719 C 605 755 654 788 696 818 C 737 848 771 877 797 905 C 823 933 842 963 854 994 C 866 1024 872 1059 872 1098 C 872 1162 850 1215 808 1255 C 765 1295 705 1315 627 1315 C 556 1315 490 1294 429 1254 C 368 1213 316 1153 272 1075 L 96 1225 C 154 1324 227 1402 317 1459 C 406 1515 512 1544 635 1544 C 711 1544 779 1533 839 1513 C 899 1492 950 1463 992 1426 C 1033 1388 1065 1343 1087 1290 C 1109 1236 1120 1178 1120 1114 C 1120 1068 1115 1024 1105 982 C 1095 940 1076 899 1050 859 C 1023 818 986 777 940 735 C 894 693 834 650 762 604 C 702 566 649 530 601 496 C 553 461 513 428 479 396 C 445 364 419 334 401 306 C 382 277 372 250 371 225 L 1112 225 L 1145 0 Z" unicode="2" />
<glyph horiz-adv-x="1249" d="M 600 -29 C 480 -29 374 -6 281 39 C 188 85 110 149 47 231 L 193 406 C 247 334 308 282 378 248 C 448 214 519 197 592 197 C 691 197 768 218 822 260 C 876 302 903 358 903 430 C 903 521 869 587 801 629 C 733 671 626 692 479 692 L 424 692 L 397 901 L 487 901 C 561 901 622 906 671 917 C 719 928 758 943 786 963 C 814 983 833 1006 845 1033 C 856 1060 862 1090 862 1122 C 862 1177 842 1223 802 1259 C 762 1295 695 1313 600 1313 C 534 1313 471 1298 411 1270 C 351 1242 294 1199 240 1143 L 113 1335 C 142 1365 176 1393 214 1419 C 252 1444 292 1466 336 1484 C 380 1502 426 1517 476 1527 C 525 1537 575 1542 627 1542 C 707 1542 778 1532 840 1513 C 901 1494 952 1468 992 1434 C 1032 1400 1063 1360 1083 1313 C 1103 1266 1114 1215 1114 1159 C 1114 1067 1088 990 1037 927 C 986 863 915 823 823 805 C 937 785 1022 741 1076 673 C 1130 605 1157 520 1157 418 C 1157 351 1143 290 1117 235 C 1090 179 1052 132 1004 94 C 956 55 897 25 828 3 C 759 -18 683 -29 600 -29 Z" unicode="3" />
<glyph horiz-adv-x="1325" d="M 1034 0 L 786 0 L 786 311 L 55 311 L 55 512 L 745 1516 L 1034 1516 L 1034 532 L 1276 532 L 1298 311 L 1034 311 L 1034 0 Z M 782 1212 L 324 532 L 786 532 L 786 1212 L 782 1212 Z" unicode="4" />
<glyph horiz-adv-x="1225" d="M 592 -29 C 475 -29 372 -8 284 33 C 195 74 121 128 61 195 L 180 391 C 229 335 288 288 356 252 C 424 215 499 197 580 197 C 636 197 684 205 725 221 C 766 237 800 259 827 287 C 853 315 873 347 886 384 C 898 420 905 459 905 500 C 905 594 878 667 825 720 C 772 772 700 799 608 799 C 546 799 488 787 435 763 C 382 739 337 702 301 653 L 131 711 L 190 1516 L 1038 1516 L 1081 1290 L 391 1290 L 356 899 C 386 931 428 957 480 979 C 532 1001 597 1012 676 1012 C 751 1012 819 999 879 975 C 939 951 989 917 1031 873 C 1072 829 1104 776 1126 714 C 1148 652 1159 584 1159 510 C 1159 431 1145 359 1119 293 C 1093 227 1055 170 1007 122 C 959 74 899 37 829 11 C 758 -15 679 -29 592 -29 Z" unicode="5" />
<glyph horiz-adv-x="1303" d="M 680 -29 C 596 -29 519 -13 447 19 C 375 51 314 98 262 161 C 210 224 169 303 139 399 C 109 494 94 605 94 731 C 94 864 111 981 147 1083 C 183 1185 231 1270 291 1338 C 351 1406 422 1457 502 1492 C 582 1526 666 1544 754 1544 C 840 1544 914 1531 976 1507 C 1037 1483 1088 1455 1130 1425 L 1036 1219 C 993 1252 950 1277 906 1295 C 862 1312 812 1321 756 1321 C 694 1321 639 1309 589 1285 C 539 1261 497 1227 462 1183 C 426 1138 398 1083 378 1019 C 358 954 346 881 344 801 C 394 847 453 885 520 917 C 586 949 661 965 745 965 C 817 965 882 954 942 934 C 1001 913 1052 883 1094 843 C 1136 803 1168 753 1192 693 C 1215 633 1227 564 1227 487 C 1227 411 1214 342 1188 278 C 1162 214 1125 160 1078 115 C 1030 69 973 34 905 9 C 837 -16 762 -29 680 -29 Z M 692 188 C 737 188 778 195 814 209 C 850 223 881 243 906 269 C 931 295 950 325 964 361 C 978 396 985 435 985 477 C 985 514 980 549 970 583 C 960 616 943 645 921 670 C 899 695 869 715 832 730 C 795 744 750 752 698 752 C 626 752 559 738 498 712 C 436 685 386 648 346 602 C 356 462 393 358 455 290 C 517 222 596 188 692 188 Z" unicode="6" />
<glyph horiz-adv-x="1112" d="M 451 -16 L 205 16 L 803 1290 L 80 1290 L 37 1516 L 1065 1516 L 1065 1307 L 451 -16 Z" unicode="7" />
<glyph horiz-adv-x="1280" d="M 641 -35 C 549 -35 467 -24 395 -4 C 323 16 262 45 212 81 C 162 117 124 161 98 213 C 72 264 59 320 59 381 C 59 431 68 476 86 518 C 104 559 129 596 161 630 C 193 664 231 694 276 722 C 320 749 369 774 422 797 C 376 819 335 841 299 865 C 263 889 232 915 207 944 C 182 973 163 1006 149 1042 C 135 1078 129 1120 129 1167 C 129 1214 140 1261 162 1307 C 184 1353 216 1394 259 1430 C 302 1466 356 1495 420 1517 C 484 1539 557 1550 641 1550 C 726 1550 801 1539 865 1517 C 929 1495 982 1466 1024 1430 C 1066 1394 1097 1353 1119 1307 C 1140 1261 1151 1214 1151 1167 C 1151 1084 1125 1013 1074 954 C 1022 895 950 845 858 803 C 912 779 962 754 1007 728 C 1052 702 1090 672 1122 640 C 1153 608 1177 570 1195 528 C 1212 486 1221 437 1221 381 C 1221 321 1207 265 1181 214 C 1155 162 1117 118 1068 82 C 1018 45 957 16 885 -4 C 813 -24 731 -35 641 -35 Z M 657 891 C 742 931 804 969 844 1007 C 883 1044 903 1091 903 1149 C 903 1173 898 1196 888 1219 C 878 1242 862 1263 841 1281 C 820 1299 793 1313 760 1324 C 726 1335 687 1341 641 1341 C 596 1341 557 1335 524 1325 C 490 1315 463 1301 441 1284 C 419 1267 403 1247 393 1224 C 382 1201 377 1177 377 1153 C 377 1121 383 1094 395 1070 C 407 1046 424 1023 448 1003 C 471 983 500 964 535 946 C 570 928 611 909 657 891 Z M 641 172 C 690 172 735 177 775 187 C 815 197 849 212 877 231 C 905 250 926 273 942 301 C 957 329 965 360 965 395 C 965 463 936 519 879 565 C 822 610 737 656 623 702 C 523 656 446 609 394 563 C 341 516 315 460 315 395 C 315 361 322 331 338 303 C 353 275 375 252 403 233 C 431 213 466 198 506 188 C 546 177 591 172 641 172 Z" unicode="8" />
<glyph horiz-adv-x="1303" d="M 604 764 C 675 764 741 777 803 804 C 865 830 915 867 954 913 C 949 983 937 1044 919 1096 C 900 1148 876 1190 846 1224 C 816 1257 782 1282 742 1298 C 702 1314 659 1323 612 1323 C 566 1323 524 1316 487 1302 C 450 1288 419 1269 394 1244 C 369 1219 350 1189 337 1154 C 323 1118 317 1080 317 1038 C 317 1001 322 966 332 933 C 342 899 358 870 380 845 C 402 820 432 800 469 786 C 506 771 551 764 604 764 Z M 573 -29 C 470 -29 386 -16 321 9 C 256 35 202 64 160 98 L 254 305 C 277 287 300 270 322 256 C 344 242 368 230 392 220 C 416 210 442 203 470 198 C 498 192 529 190 565 190 C 621 190 673 203 721 229 C 768 255 808 291 842 337 C 876 383 903 438 923 503 C 943 567 954 638 956 715 C 905 669 846 630 780 598 C 714 566 639 551 557 551 C 485 551 419 561 360 582 C 300 602 250 633 208 673 C 166 713 133 762 110 822 C 87 882 76 950 76 1028 C 76 1103 89 1172 115 1236 C 141 1300 177 1354 225 1400 C 272 1445 329 1480 397 1506 C 465 1531 540 1544 623 1544 C 705 1544 782 1528 854 1496 C 926 1464 987 1416 1039 1353 C 1091 1290 1131 1211 1161 1116 C 1191 1020 1206 910 1206 784 C 1206 651 1188 534 1153 432 C 1117 330 1070 245 1012 177 C 954 109 886 57 810 23 C 733 -11 654 -29 573 -29 Z" unicode="9" />
<glyph horiz-adv-x="584" d="M 289 807 C 239 807 200 821 173 849 C 146 877 133 911 133 952 C 133 994 146 1028 173 1056 C 200 1084 239 1098 289 1098 C 339 1098 379 1084 407 1056 C 435 1028 449 994 449 952 C 449 911 435 877 407 849 C 379 821 339 807 289 807 Z M 289 -14 C 239 -14 200 0 173 29 C 146 57 133 92 133 133 C 133 173 146 208 173 236 C 200 264 239 279 289 279 C 339 279 379 264 407 236 C 435 208 449 173 449 133 C 449 92 435 57 407 29 C 379 0 339 -14 289 -14 Z" unicode=":" />
<glyph horiz-adv-x="584" d="M 289 807 C 239 807 200 821 173 849 C 146 877 133 911 133 952 C 133 994 146 1028 173 1056 C 200 1084 239 1098 289 1098 C 339 1098 379 1084 407 1056 C 435 1028 449 994 449 952 C 449 911 435 877 407 849 C 379 821 339 807 289 807 Z M 276 -229 L 127 -229 L 180 266 L 459 266 L 276 -229 Z" unicode=";" />
<glyph horiz-adv-x="1315" d="M 1198 332 L 1198 119 L 115 590 L 115 737 L 1198 1208 L 1198 995 L 389 664 L 1198 332 Z" unicode="&#x3C;" />
<glyph horiz-adv-x="1315" d="M 1174 809 L 139 809 L 139 995 L 1174 995 L 1174 809 Z M 1174 342 L 139 342 L 139 528 L 1174 528 L 1174 342 Z" unicode="=" />
<glyph horiz-adv-x="1315" d="M 1206 590 L 123 119 L 123 332 L 932 664 L 123 995 L 123 1208 L 1206 737 L 1206 590 Z" unicode="&#x3E;" />
<glyph horiz-adv-x="1169" d="M 641 449 L 434 449 C 432 473 430 497 429 520 C 428 543 428 567 428 592 C 428 668 445 732 481 782 C 517 832 567 875 631 911 C 663 930 692 948 716 965 C 740 982 761 999 777 1017 C 793 1035 805 1054 813 1076 C 821 1098 825 1123 825 1153 C 825 1203 804 1243 762 1273 C 720 1303 661 1319 586 1319 C 547 1319 509 1313 473 1303 C 437 1293 403 1279 372 1262 C 340 1244 311 1224 285 1200 C 258 1176 235 1152 215 1126 L 68 1303 C 96 1336 128 1367 164 1397 C 200 1427 240 1452 285 1474 C 329 1495 379 1512 433 1525 C 487 1537 546 1544 610 1544 C 682 1544 747 1534 805 1516 C 862 1498 910 1472 950 1439 C 990 1406 1020 1367 1041 1321 C 1062 1275 1073 1225 1073 1171 C 1073 1123 1066 1080 1053 1043 C 1040 1006 1022 973 1000 945 C 978 917 951 891 921 869 C 890 847 857 826 823 807 C 778 782 743 759 719 739 C 694 719 676 696 664 671 C 652 645 646 615 644 580 C 642 545 641 501 641 449 Z M 537 -14 C 487 -14 448 0 421 29 C 394 57 381 92 381 133 C 381 173 394 208 421 236 C 448 264 487 279 537 279 C 587 279 625 264 653 236 C 680 208 694 173 694 133 C 694 92 680 57 653 29 C 625 0 587 -14 537 -14 Z" unicode="?" />
<glyph horiz-adv-x="1778" d="M 877 -29 C 759 -29 651 -9 554 29 C 457 67 375 121 307 190 C 239 259 186 342 148 439 C 110 535 92 641 92 756 C 92 870 111 976 151 1073 C 190 1170 245 1253 315 1323 C 385 1392 470 1446 568 1485 C 666 1524 774 1544 891 1544 C 1007 1544 1115 1525 1213 1487 C 1311 1449 1394 1396 1464 1329 C 1534 1261 1588 1181 1627 1087 C 1666 993 1686 890 1686 778 C 1686 708 1677 645 1659 588 C 1641 530 1616 481 1584 441 C 1551 401 1511 370 1464 348 C 1417 326 1365 315 1307 315 C 1232 315 1174 331 1133 364 C 1091 397 1063 438 1049 487 C 1028 467 1006 447 982 428 C 958 409 932 393 905 379 C 878 365 849 353 818 345 C 787 336 754 332 719 332 C 676 332 637 338 601 352 C 565 366 535 386 510 413 C 484 440 465 474 451 514 C 437 554 430 600 430 653 C 430 734 440 808 461 876 C 482 944 511 1002 547 1050 C 583 1098 627 1136 677 1163 C 727 1190 780 1204 838 1204 C 901 1204 951 1193 989 1173 C 1027 1152 1059 1127 1087 1098 L 1102 1188 L 1296 1188 L 1200 580 C 1192 534 1199 497 1221 470 C 1243 443 1281 430 1333 430 C 1365 430 1396 437 1424 452 C 1452 466 1477 488 1498 516 C 1518 544 1535 580 1547 623 C 1559 666 1565 716 1565 772 C 1565 868 1548 956 1515 1037 C 1482 1118 1436 1187 1377 1245 C 1318 1302 1247 1347 1164 1379 C 1081 1411 990 1427 891 1427 C 790 1427 698 1410 616 1377 C 533 1344 462 1298 404 1239 C 346 1180 301 1109 269 1027 C 237 944 221 854 221 756 C 221 657 236 566 268 483 C 300 400 344 329 402 269 C 459 209 529 163 611 130 C 693 96 783 80 883 80 C 961 80 1032 88 1098 106 C 1163 124 1224 150 1282 184 L 1337 98 C 1275 58 1205 26 1126 4 C 1047 -17 964 -29 877 -29 Z M 788 485 C 828 485 866 493 902 511 C 938 528 973 554 1008 588 L 1063 950 C 1035 982 1006 1005 976 1019 C 946 1033 910 1040 870 1040 C 832 1040 798 1029 768 1009 C 738 989 712 962 692 928 C 671 894 655 855 645 811 C 634 767 629 721 629 674 C 629 610 642 563 668 532 C 694 500 734 485 788 485 Z" unicode="@" />
<glyph horiz-adv-x="1425" d="M 289 0 L 51 0 L 588 1522 L 838 1522 L 1368 20 L 1120 -20 L 991 360 L 416 360 L 289 0 Z M 705 1200 L 492 586 L 918 586 L 709 1200 L 705 1200 Z" unicode="A" />
<glyph horiz-adv-x="1438" d="M 782 0 L 172 0 L 172 1516 L 745 1516 C 821 1516 891 1509 956 1496 C 1021 1482 1077 1461 1124 1431 C 1170 1401 1207 1363 1234 1315 C 1260 1267 1274 1208 1274 1139 C 1274 1087 1266 1040 1252 1000 C 1237 960 1217 925 1193 897 C 1168 869 1139 846 1107 828 C 1075 810 1041 798 1006 791 L 1006 786 C 1049 778 1090 766 1128 748 C 1166 730 1199 706 1227 676 C 1255 646 1278 610 1294 567 C 1310 524 1319 474 1319 416 C 1319 346 1305 285 1278 233 C 1251 181 1214 137 1166 103 C 1118 69 1062 43 996 26 C 930 8 859 0 782 0 Z M 424 1292 L 424 883 L 721 883 C 821 883 897 900 949 936 C 1001 971 1028 1023 1028 1092 C 1028 1158 1004 1207 956 1241 C 908 1275 831 1292 725 1292 L 424 1292 Z M 424 666 L 424 221 L 756 221 C 864 221 943 240 993 279 C 1043 317 1069 371 1069 440 C 1069 516 1039 572 979 610 C 919 647 835 666 729 666 L 424 666 Z" unicode="B" />
<glyph horiz-adv-x="1454" d="M 770 -29 C 672 -29 582 -11 500 23 C 417 57 346 108 287 174 C 227 240 181 323 148 422 C 114 521 98 634 98 762 C 98 886 114 996 148 1094 C 182 1191 228 1273 287 1339 C 345 1405 415 1456 496 1491 C 576 1526 663 1544 756 1544 C 898 1544 1015 1513 1108 1453 C 1200 1392 1273 1306 1325 1194 L 1108 1065 C 1093 1100 1075 1133 1053 1163 C 1031 1193 1006 1218 978 1240 C 949 1261 916 1278 879 1290 C 842 1302 801 1309 756 1309 C 692 1309 634 1296 584 1270 C 534 1244 492 1208 458 1161 C 424 1113 398 1056 380 989 C 362 921 354 846 354 764 C 354 676 363 598 382 528 C 400 458 427 399 463 351 C 498 303 541 266 593 240 C 645 214 704 201 770 201 C 816 201 859 207 898 221 C 937 234 972 253 1003 278 C 1034 302 1061 332 1084 367 C 1107 402 1126 441 1141 483 L 1362 383 C 1339 321 1310 264 1276 213 C 1241 162 1199 119 1151 83 C 1103 47 1047 20 983 0 C 919 -19 848 -29 770 -29 Z" unicode="C" />
<glyph horiz-adv-x="1489" d="M 602 0 L 172 0 L 172 1516 L 602 1516 C 720 1516 827 1501 925 1473 C 1023 1444 1106 1399 1175 1339 C 1243 1278 1296 1200 1334 1105 C 1372 1009 1391 896 1391 764 C 1391 629 1371 513 1333 416 C 1295 319 1241 240 1172 179 C 1103 117 1020 72 923 43 C 825 14 718 0 602 0 Z M 426 1278 L 426 231 L 625 231 C 799 231 927 273 1010 358 C 1093 442 1135 576 1135 760 C 1135 936 1093 1066 1009 1151 C 925 1235 796 1278 621 1278 L 426 1278 Z" unicode="D" />
<glyph horiz-adv-x="1272" d="M 1192 0 L 172 0 L 172 1516 L 1151 1516 L 1151 1278 L 428 1278 L 428 901 L 981 901 L 1018 674 L 428 674 L 428 231 L 1192 231 L 1192 0 Z" unicode="E" />
<glyph horiz-adv-x="1192" d="M 428 0 L 172 0 L 172 1516 L 1126 1516 L 1126 1278 L 428 1278 L 428 872 L 942 872 L 979 645 L 428 645 L 428 0 Z" unicode="F" />
<glyph horiz-adv-x="1526" d="M 741 -29 C 634 -29 540 -9 460 31 C 379 71 312 126 259 196 C 205 266 165 350 138 448 C 111 545 98 650 98 764 C 98 882 114 989 146 1086 C 178 1182 223 1264 281 1332 C 339 1399 409 1451 491 1488 C 573 1525 663 1544 762 1544 C 820 1544 878 1537 934 1523 C 990 1509 1043 1488 1093 1459 C 1142 1430 1187 1393 1228 1348 C 1269 1302 1304 1248 1333 1186 L 1114 1067 C 1082 1142 1039 1201 983 1244 C 927 1287 856 1309 772 1309 C 725 1309 677 1300 628 1282 C 578 1264 533 1235 493 1193 C 453 1151 420 1096 394 1027 C 368 957 356 872 356 770 C 356 668 367 580 391 508 C 414 436 445 377 484 332 C 522 286 567 253 618 232 C 668 211 720 201 774 201 C 824 201 870 208 912 224 C 954 240 990 262 1021 292 C 1051 321 1076 357 1095 400 C 1114 442 1126 490 1130 543 L 842 543 L 805 750 L 1374 750 L 1374 0 L 1163 0 L 1163 170 L 1159 170 C 1128 113 1077 66 1005 28 C 933 -10 845 -29 741 -29 Z" unicode="G" />
<glyph horiz-adv-x="1544" d="M 428 0 L 172 0 L 172 1516 L 428 1516 L 428 911 L 1116 911 L 1116 1516 L 1372 1516 L 1372 0 L 1116 0 L 1116 674 L 428 674 L 428 0 Z" unicode="H" />
<glyph horiz-adv-x="635" d="M 444 0 L 190 0 L 190 1516 L 444 1516 L 444 0 Z" unicode="I" />
<glyph horiz-adv-x="1065" d="M 457 -29 C 363 -29 284 -14 220 16 C 156 46 103 82 61 125 L 178 326 C 212 289 251 258 296 233 C 340 207 390 195 444 195 C 509 195 561 215 600 256 C 639 297 659 365 659 461 L 659 1516 L 915 1516 L 915 430 C 915 359 905 295 887 239 C 869 182 841 134 804 94 C 766 54 719 24 661 3 C 603 -18 535 -29 457 -29 Z" unicode="J" />
<glyph horiz-adv-x="1427" d="M 428 0 L 172 0 L 172 1516 L 428 1516 L 428 811 L 1026 1516 L 1327 1516 L 811 932 L 1395 20 L 1128 -20 L 643 737 L 428 500 L 428 0 Z" unicode="K" />
<glyph horiz-adv-x="1182" d="M 1145 0 L 172 0 L 172 1516 L 428 1516 L 428 231 L 1106 231 L 1145 0 Z" unicode="L" />
<glyph horiz-adv-x="1829" d="M 403 0 L 172 0 L 172 1516 L 508 1516 L 915 313 L 920 313 L 1315 1516 L 1657 1516 L 1657 0 L 1409 0 L 1409 1133 L 1405 1133 C 1393 1079 1380 1028 1365 978 C 1349 928 1333 876 1317 823 L 1020 0 L 793 0 L 498 823 C 489 850 481 875 473 898 C 465 921 458 944 451 968 C 444 992 437 1018 430 1046 C 423 1074 416 1106 408 1143 L 403 1143 L 403 0 Z" unicode="M" />
<glyph horiz-adv-x="1563" d="M 408 0 L 172 0 L 172 1516 L 432 1516 L 1149 432 L 1153 432 L 1153 1516 L 1391 1516 L 1391 0 L 1157 0 L 412 1104 L 408 1104 L 408 0 Z" unicode="N" />
<glyph horiz-adv-x="1565" d="M 782 -29 C 690 -29 603 -11 520 22 C 437 56 364 107 302 173 C 240 239 190 322 153 420 C 116 518 98 631 98 758 C 98 884 116 997 153 1095 C 190 1193 240 1276 302 1342 C 364 1408 437 1458 520 1492 C 603 1526 690 1544 782 1544 C 872 1544 959 1526 1042 1492 C 1125 1458 1198 1408 1260 1342 C 1322 1276 1371 1193 1408 1095 C 1445 997 1464 884 1464 758 C 1464 631 1445 518 1408 420 C 1371 322 1322 239 1260 173 C 1198 107 1125 56 1042 22 C 959 -11 872 -29 782 -29 Z M 782 201 C 846 201 904 214 957 240 C 1009 266 1054 302 1092 350 C 1129 398 1158 456 1179 526 C 1199 595 1210 672 1210 758 C 1210 843 1199 920 1179 988 C 1158 1056 1129 1114 1092 1162 C 1054 1209 1009 1245 957 1271 C 904 1296 846 1309 782 1309 C 718 1309 659 1296 607 1271 C 554 1245 509 1209 472 1162 C 434 1114 405 1056 385 988 C 364 920 354 843 354 758 C 354 672 364 595 385 526 C 405 456 434 398 472 350 C 509 302 554 266 607 240 C 659 214 718 201 782 201 Z" unicode="O" />
<glyph horiz-adv-x="1356" d="M 426 0 L 172 0 L 172 1516 L 702 1516 C 783 1516 859 1508 930 1493 C 1001 1478 1063 1453 1115 1417 C 1167 1381 1208 1334 1238 1274 C 1268 1214 1284 1140 1284 1051 C 1284 958 1267 881 1235 819 C 1203 757 1160 709 1106 673 C 1052 637 989 611 917 597 C 845 582 771 575 694 575 L 426 575 L 426 0 Z M 426 1282 L 426 799 L 707 799 C 819 799 901 818 954 858 C 1007 898 1034 960 1034 1044 C 1034 1124 1007 1183 955 1223 C 902 1262 819 1282 705 1282 L 426 1282 Z" unicode="P" />
<glyph horiz-adv-x="1565" d="M 1305 -395 L 1116 -395 C 1040 -395 972 -385 913 -366 C 854 -346 804 -320 764 -286 C 724 -252 693 -212 671 -165 C 649 -117 638 -66 637 -12 C 560 2 489 29 423 70 C 357 110 300 163 252 229 C 204 294 166 371 139 460 C 111 549 98 648 98 758 C 98 884 116 997 153 1095 C 190 1193 240 1276 302 1342 C 364 1408 437 1458 520 1492 C 603 1526 690 1544 782 1544 C 872 1544 959 1526 1042 1492 C 1124 1458 1197 1408 1259 1342 C 1321 1276 1370 1193 1407 1095 C 1443 997 1462 884 1462 758 C 1462 645 1447 543 1418 453 C 1388 362 1348 284 1298 219 C 1248 153 1188 101 1119 61 C 1049 21 975 -4 897 -16 C 904 -50 917 -78 936 -100 C 955 -121 979 -137 1007 -149 C 1035 -160 1068 -168 1104 -172 C 1140 -176 1179 -178 1221 -178 L 1343 -178 L 1305 -395 Z M 782 201 C 845 201 903 214 955 240 C 1007 266 1052 302 1089 350 C 1126 398 1155 456 1175 526 C 1195 595 1206 672 1206 758 C 1206 843 1195 920 1175 988 C 1155 1056 1126 1114 1089 1162 C 1052 1209 1007 1245 955 1271 C 903 1296 845 1309 782 1309 C 718 1309 659 1296 606 1271 C 552 1245 507 1209 470 1162 C 432 1114 403 1056 383 988 C 362 920 352 843 352 758 C 352 672 362 595 383 526 C 403 456 432 398 470 350 C 507 302 552 266 606 240 C 659 214 718 201 782 201 Z" unicode="Q" />
<glyph horiz-adv-x="1415" d="M 424 0 L 172 0 L 172 1516 L 715 1516 C 804 1516 884 1506 954 1488 C 1024 1470 1084 1442 1132 1404 C 1180 1366 1217 1317 1243 1259 C 1269 1200 1282 1131 1282 1051 C 1282 930 1252 836 1193 770 C 1133 704 1052 657 948 631 L 1309 20 L 1059 -20 L 692 598 L 424 598 L 424 0 Z M 424 1282 L 424 821 L 702 821 C 810 821 892 838 948 873 C 1004 908 1032 969 1032 1055 C 1032 1138 1004 1197 948 1231 C 892 1265 810 1282 702 1282 L 424 1282 Z" unicode="R" />
<glyph horiz-adv-x="1380" d="M 713 -29 C 645 -29 580 -22 519 -9 C 458 4 401 22 348 45 C 295 68 246 95 200 127 C 154 159 112 193 74 229 L 211 424 C 240 394 273 365 311 338 C 349 310 389 286 432 266 C 474 245 519 229 565 217 C 611 205 658 199 705 199 C 752 199 795 203 835 211 C 874 219 908 232 936 248 C 964 264 985 284 1001 309 C 1016 333 1024 362 1024 395 C 1024 428 1017 457 1005 483 C 992 508 972 531 945 552 C 917 572 881 592 837 610 C 793 628 740 647 678 666 C 605 687 536 709 472 732 C 408 755 352 783 305 816 C 257 848 220 889 193 937 C 165 985 152 1046 152 1118 C 152 1182 164 1240 190 1292 C 215 1344 250 1389 296 1427 C 341 1464 395 1493 459 1513 C 523 1533 592 1544 668 1544 C 725 1544 780 1538 833 1527 C 886 1515 936 1500 983 1480 C 1030 1460 1075 1437 1117 1411 C 1159 1384 1197 1356 1233 1327 L 1112 1122 C 1082 1148 1049 1173 1014 1197 C 979 1220 943 1240 906 1257 C 868 1274 830 1288 790 1298 C 750 1308 711 1313 672 1313 C 586 1313 520 1296 472 1263 C 424 1229 401 1188 401 1139 C 401 1103 408 1073 422 1048 C 436 1022 457 1000 486 981 C 515 961 552 943 597 927 C 642 910 696 892 758 874 C 829 853 896 831 959 807 C 1022 783 1077 753 1123 719 C 1169 684 1206 642 1233 593 C 1260 543 1274 483 1274 412 C 1274 350 1261 293 1237 239 C 1212 185 1176 139 1128 99 C 1080 59 1022 28 952 5 C 882 -17 802 -29 713 -29 Z" unicode="S" />
<glyph horiz-adv-x="1300" d="M 778 0 L 522 0 L 522 1278 L 55 1278 L 55 1516 L 1227 1516 L 1264 1278 L 778 1278 L 778 0 Z" unicode="T" />
<glyph horiz-adv-x="1477" d="M 739 -27 C 639 -27 552 -12 478 15 C 404 43 343 83 295 134 C 247 185 211 246 187 317 C 163 388 152 466 152 551 L 152 1516 L 408 1516 L 408 565 C 408 511 414 461 427 417 C 440 373 460 335 487 304 C 514 273 549 249 591 232 C 633 215 683 207 741 207 C 799 207 849 215 891 232 C 933 248 967 272 994 303 C 1020 333 1040 371 1053 415 C 1066 459 1073 508 1073 563 L 1073 1516 L 1325 1516 L 1325 555 C 1325 469 1313 391 1289 319 C 1265 247 1230 185 1182 135 C 1134 84 1073 44 999 16 C 925 -12 838 -27 739 -27 Z" unicode="U" />
<glyph horiz-adv-x="1397" d="M 819 -6 L 578 -6 L 57 1495 L 305 1536 L 700 334 L 705 334 L 1104 1516 L 1346 1516 L 819 -6 Z" unicode="V" />
<glyph horiz-adv-x="1931" d="M 688 0 L 463 0 L 63 1495 L 311 1536 L 508 731 C 524 669 539 610 553 553 C 567 496 579 438 590 379 L 594 379 C 602 436 614 494 628 552 C 642 610 656 669 672 729 L 854 1516 L 1098 1516 L 1288 723 C 1303 659 1317 602 1331 550 C 1344 498 1356 441 1366 379 L 1370 379 C 1376 411 1381 440 1387 468 C 1393 496 1399 523 1405 549 C 1411 575 1417 601 1424 629 C 1430 656 1438 685 1446 717 L 1634 1516 L 1872 1516 L 1475 0 L 1251 0 L 977 1163 L 973 1163 L 688 0 Z" unicode="W" />
<glyph horiz-adv-x="1427" d="M 334 0 L 66 0 L 569 805 L 131 1495 L 397 1536 L 723 1004 L 1030 1516 L 1298 1516 L 856 805 L 1350 20 L 1092 -20 L 707 602 L 334 0 Z" unicode="X" />
<glyph horiz-adv-x="1354" d="M 803 0 L 549 0 L 549 653 L 43 1495 L 287 1536 L 678 870 L 1059 1516 L 1321 1516 L 803 653 L 803 0 Z" unicode="Y" />
<glyph horiz-adv-x="1321" d="M 1249 0 L 72 0 L 72 178 L 911 1303 L 145 1303 L 106 1516 L 1231 1516 L 1231 1333 L 401 209 L 1210 209 L 1249 0 Z" unicode="Z" />
<glyph horiz-adv-x="862" d="M 788 -410 L 158 -410 L 158 1516 L 788 1516 L 788 1335 L 412 1335 L 412 -229 L 788 -229 L 788 -410 Z" unicode="[" />
<glyph horiz-adv-x="1194" d="M 1167 0 L 907 0 L 27 1516 L 287 1516 L 1167 0 Z" unicode="\" />
<glyph horiz-adv-x="862" d="M 705 -410 L 74 -410 L 74 -229 L 451 -229 L 451 1335 L 74 1335 L 74 1516 L 705 1516 L 705 -410 Z" unicode="]" />
<glyph horiz-adv-x="1315" d="M 115 678 L 588 1516 L 735 1516 L 1204 678 L 993 678 L 659 1262 L 328 678 L 115 678 Z" unicode="^" />
<glyph horiz-adv-x="1024" d="M 1024 -297 L 0 -297 L 0 -115 L 1024 -115 L 1024 -297 Z" unicode="_" />
<glyph horiz-adv-x="1024" d="M 537 1202 L 242 1542 L 512 1542 L 702 1202 L 537 1202 Z" unicode="`" />
<glyph horiz-adv-x="1157" d="M 471 178 C 535 178 593 189 645 212 C 697 234 742 265 780 303 L 780 543 C 693 531 620 517 560 501 C 500 485 453 467 417 448 C 381 428 356 407 340 384 C 324 360 317 335 317 309 C 317 266 331 233 359 211 C 387 189 424 178 471 178 Z M 381 -16 C 337 -16 296 -9 258 3 C 220 16 187 35 160 59 C 132 83 111 113 95 149 C 79 184 72 224 72 268 C 72 327 85 381 111 430 C 137 478 179 521 235 558 C 291 595 365 626 455 652 C 545 678 653 698 780 713 L 780 745 C 780 795 764 833 734 860 C 703 887 656 901 592 901 C 522 901 458 887 402 860 C 345 832 292 798 242 756 L 104 909 C 132 935 164 961 199 985 C 233 1009 272 1030 314 1048 C 356 1066 402 1081 454 1092 C 506 1102 563 1108 625 1108 C 764 1108 866 1074 930 1006 C 994 938 1026 841 1026 715 L 1026 0 L 801 0 L 780 139 C 728 86 668 47 602 22 C 535 -3 461 -16 381 -16 Z" unicode="a" />
<glyph horiz-adv-x="1251" d="M 735 -16 C 661 -16 596 -4 539 18 C 482 40 433 74 393 119 L 377 0 L 141 0 L 141 1497 L 393 1534 L 393 940 C 429 986 475 1026 533 1059 C 590 1091 659 1108 739 1108 C 801 1108 858 1096 911 1073 C 963 1049 1009 1014 1047 968 C 1085 921 1114 862 1136 792 C 1158 721 1169 639 1169 545 C 1169 451 1158 368 1136 298 C 1114 228 1083 169 1045 123 C 1007 77 961 42 908 19 C 854 -4 797 -16 735 -16 Z M 662 182 C 739 182 801 212 848 273 C 894 333 918 423 918 543 C 918 655 894 741 848 802 C 801 862 737 893 657 893 C 605 893 557 880 514 854 C 471 828 431 796 393 758 L 393 313 C 437 270 479 237 521 215 C 563 193 610 182 662 182 Z" unicode="b" />
<glyph horiz-adv-x="1116" d="M 588 -23 C 525 -23 463 -12 402 9 C 341 31 287 64 239 110 C 191 156 153 214 124 286 C 94 358 80 443 80 543 C 80 646 95 734 127 806 C 159 878 200 936 250 981 C 300 1025 356 1058 418 1078 C 480 1098 542 1108 602 1108 C 700 1108 787 1084 864 1037 C 940 990 1000 922 1042 834 L 856 715 C 828 777 795 823 755 853 C 715 883 664 899 602 899 C 565 899 530 892 498 878 C 465 864 436 842 412 813 C 387 783 367 746 353 701 C 339 656 332 603 332 541 C 332 487 338 437 350 393 C 362 348 379 310 402 279 C 424 247 452 223 486 206 C 520 188 558 180 602 180 C 665 180 718 197 761 232 C 804 267 841 317 872 383 L 1059 266 C 1010 166 944 93 862 47 C 780 0 688 -23 588 -23 Z" unicode="c" />
<glyph horiz-adv-x="1251" d="M 594 190 C 646 190 693 203 736 229 C 779 255 820 287 858 326 L 858 768 C 814 810 771 843 730 865 C 688 887 642 899 590 899 C 513 899 451 869 404 809 C 357 749 334 659 334 539 C 334 428 357 342 403 281 C 449 220 513 190 594 190 Z M 512 -16 C 450 -16 392 -4 340 17 C 287 39 242 73 204 119 C 166 164 136 221 114 291 C 92 361 82 443 82 537 C 82 630 93 712 115 784 C 137 856 167 915 205 963 C 243 1011 289 1047 343 1071 C 396 1095 454 1108 516 1108 C 589 1108 655 1095 713 1070 C 771 1045 820 1009 858 963 L 858 1497 L 1110 1534 L 1110 0 L 879 0 L 858 143 C 821 97 774 59 718 29 C 661 0 592 -16 512 -16 Z" unicode="d" />
<glyph horiz-adv-x="1155" d="M 612 -23 C 542 -23 475 -12 411 9 C 346 31 289 64 241 110 C 192 155 153 214 124 286 C 94 358 80 443 80 543 C 80 644 96 731 129 803 C 162 875 204 933 254 978 C 304 1023 360 1056 422 1077 C 483 1097 542 1108 598 1108 C 656 1108 714 1098 772 1078 C 829 1058 880 1026 925 980 C 969 934 1005 874 1033 798 C 1061 722 1075 630 1075 520 L 1075 461 L 332 461 C 334 413 342 372 358 336 C 374 300 395 271 421 248 C 447 224 477 207 513 195 C 548 183 586 178 627 178 C 694 178 756 191 814 217 C 871 243 921 277 963 317 L 1063 152 C 1001 94 934 50 861 21 C 788 -8 705 -23 612 -23 Z M 334 647 L 844 647 C 838 726 814 788 772 834 C 730 880 671 903 596 903 C 564 903 534 897 505 887 C 476 877 450 861 427 840 C 403 819 383 792 367 760 C 351 728 340 690 334 647 Z" unicode="e" />
<glyph horiz-adv-x="766" d="M 481 0 L 231 0 L 231 887 L 47 887 L 47 1085 L 231 1085 L 231 1198 C 231 1243 236 1285 247 1325 C 258 1365 277 1399 303 1428 C 329 1457 365 1480 411 1497 C 456 1513 513 1522 582 1522 C 594 1522 607 1521 622 1520 C 636 1519 650 1518 664 1517 C 677 1515 689 1514 700 1513 C 710 1512 718 1511 723 1511 L 739 1325 C 729 1327 714 1330 695 1332 C 676 1334 659 1335 645 1335 C 600 1335 561 1326 529 1308 C 497 1290 481 1252 481 1194 L 481 1085 L 719 1085 L 719 887 L 481 887 L 481 0 Z" unicode="f" />
<glyph horiz-adv-x="1219" d="M 557 506 C 625 506 678 523 717 559 C 756 594 776 645 776 711 C 776 778 757 830 719 866 C 681 902 626 920 555 920 C 485 920 431 901 392 865 C 353 828 334 777 334 711 C 334 645 353 594 393 559 C 433 523 487 506 557 506 Z M 551 -422 C 457 -422 377 -415 311 -402 C 244 -389 190 -371 148 -348 C 106 -324 76 -296 56 -264 C 36 -231 27 -195 27 -156 C 27 -102 42 -55 74 -16 C 106 22 149 52 205 74 C 177 88 156 106 142 128 C 128 150 121 177 121 207 C 121 247 135 284 164 318 C 192 352 227 381 268 406 C 213 440 171 484 141 538 C 111 592 96 653 96 719 C 96 774 106 825 127 873 C 148 921 178 962 217 997 C 256 1031 304 1058 361 1078 C 418 1098 482 1108 553 1108 C 627 1108 692 1097 748 1075 C 804 1053 850 1025 887 993 C 919 1019 958 1043 1004 1063 C 1049 1083 1093 1096 1135 1100 L 1167 897 C 1141 897 1110 894 1075 890 C 1040 886 1004 878 967 866 C 979 846 988 824 995 799 C 1002 774 1006 747 1006 719 C 1006 662 995 610 975 562 C 954 514 924 474 886 440 C 847 406 799 379 743 360 C 687 341 623 332 553 332 C 522 332 496 334 474 338 C 452 342 427 347 401 354 C 385 345 371 335 361 323 C 351 311 346 299 346 285 C 346 263 354 248 372 239 C 390 229 423 223 471 219 L 664 207 C 824 196 938 167 1008 121 C 1077 75 1112 4 1112 -90 C 1112 -145 1098 -193 1071 -235 C 1044 -277 1006 -311 957 -339 C 908 -367 849 -387 780 -401 C 710 -415 634 -422 551 -422 Z M 590 -240 C 681 -240 754 -228 808 -205 C 862 -181 889 -151 889 -113 C 889 -93 885 -77 877 -63 C 869 -49 854 -37 834 -28 C 813 -19 785 -12 749 -6 C 713 0 667 4 612 8 L 424 20 C 412 20 401 20 391 22 C 380 23 369 25 358 27 C 322 10 297 -10 281 -34 C 265 -58 258 -85 258 -113 C 258 -161 285 -194 341 -212 C 397 -230 480 -240 590 -240 Z" unicode="g" />
<glyph horiz-adv-x="1235" d="M 393 0 L 141 0 L 141 1497 L 393 1534 L 393 932 C 412 954 435 976 461 997 C 487 1018 516 1037 548 1053 C 580 1069 616 1083 656 1093 C 695 1103 737 1108 782 1108 C 881 1108 959 1081 1017 1029 C 1075 977 1104 897 1104 791 L 1104 0 L 852 0 L 852 717 C 852 775 839 818 813 848 C 787 878 745 893 688 893 C 634 893 582 880 534 854 C 486 828 439 794 393 752 L 393 0 Z" unicode="h" />
<glyph horiz-adv-x="557" d="M 276 1247 C 230 1247 194 1259 170 1285 C 145 1311 133 1342 133 1380 C 133 1418 145 1449 170 1475 C 194 1500 230 1513 276 1513 C 323 1513 359 1500 385 1475 C 411 1449 424 1418 424 1380 C 424 1342 411 1311 385 1285 C 359 1259 323 1247 276 1247 Z M 403 0 L 154 0 L 154 1085 L 403 1085 L 403 0 Z" unicode="i" />
<glyph horiz-adv-x="557" d="M 276 1247 C 230 1247 194 1259 170 1285 C 145 1311 133 1342 133 1380 C 133 1418 145 1449 170 1475 C 194 1500 230 1513 276 1513 C 323 1513 359 1500 385 1475 C 411 1449 424 1418 424 1380 C 424 1342 411 1311 385 1285 C 359 1259 323 1247 276 1247 Z M 102 -414 C 72 -414 43 -412 15 -410 C -13 -408 -33 -405 -43 -403 L -59 -221 C -49 -223 -35 -226 -18 -228 C 0 -230 15 -231 31 -231 C 71 -231 101 -220 122 -198 C 143 -176 154 -142 154 -94 L 154 1085 L 403 1085 L 403 -96 C 403 -138 399 -178 391 -216 C 383 -254 369 -288 347 -318 C 325 -347 294 -370 255 -388 C 215 -405 164 -414 102 -414 Z" unicode="j" />
<glyph horiz-adv-x="1151" d="M 393 0 L 141 0 L 141 1497 L 393 1534 L 393 612 L 805 1085 L 1081 1085 L 727 690 L 1112 20 L 872 -20 L 567 506 L 393 313 L 393 0 Z" unicode="k" />
<glyph horiz-adv-x="557" d="M 403 0 L 154 0 L 154 1497 L 403 1534 L 403 0 Z" unicode="l" />
<glyph horiz-adv-x="1892" d="M 393 0 L 141 0 L 141 1085 L 373 1085 L 393 932 C 412 954 434 976 460 997 C 486 1018 514 1037 545 1053 C 576 1069 610 1083 647 1093 C 684 1103 724 1108 766 1108 C 856 1108 925 1092 973 1060 C 1020 1028 1051 985 1065 932 C 1085 954 1108 975 1135 997 C 1161 1018 1190 1037 1222 1053 C 1254 1069 1288 1083 1326 1093 C 1363 1103 1402 1108 1444 1108 C 1498 1108 1546 1100 1586 1084 C 1626 1068 1659 1045 1685 1017 C 1711 988 1730 953 1742 913 C 1754 873 1761 828 1761 780 L 1761 0 L 1509 0 L 1509 717 C 1509 775 1498 818 1477 848 C 1455 878 1415 893 1356 893 C 1304 893 1256 880 1212 854 C 1168 828 1123 794 1077 752 L 1077 0 L 825 0 L 825 717 C 825 775 814 818 793 848 C 771 878 731 893 672 893 C 622 893 574 880 529 854 C 484 828 439 794 393 752 L 393 0 Z" unicode="m" />
<glyph horiz-adv-x="1235" d="M 393 0 L 141 0 L 141 1085 L 373 1085 L 393 932 C 412 954 435 976 462 998 C 488 1019 518 1038 550 1054 C 582 1070 618 1083 658 1093 C 697 1103 739 1108 784 1108 C 882 1108 959 1081 1017 1029 C 1075 977 1104 897 1104 791 L 1104 0 L 854 0 L 854 717 C 854 777 840 822 814 853 C 788 883 746 899 688 899 C 634 899 583 886 535 860 C 487 834 439 800 393 758 L 393 0 Z" unicode="n" />
<glyph horiz-adv-x="1221" d="M 610 -23 C 544 -23 479 -12 415 9 C 351 31 295 64 246 110 C 196 156 156 214 126 286 C 95 358 80 443 80 543 C 80 642 95 727 125 799 C 155 871 195 929 245 975 C 294 1020 351 1053 415 1075 C 479 1097 544 1108 610 1108 C 676 1108 740 1097 804 1075 C 867 1053 923 1020 973 975 C 1023 929 1063 871 1093 799 C 1123 727 1139 642 1139 543 C 1139 443 1123 358 1093 286 C 1063 214 1023 156 973 110 C 923 64 867 31 804 9 C 740 -12 676 -23 610 -23 Z M 610 188 C 655 188 695 196 730 214 C 765 231 794 255 818 286 C 841 317 859 354 871 398 C 883 442 889 489 889 541 C 889 591 883 637 872 680 C 860 723 843 760 821 792 C 798 823 769 848 734 866 C 698 884 657 893 610 893 C 564 893 524 884 490 868 C 455 851 426 827 403 797 C 379 767 362 730 350 686 C 338 642 332 594 332 541 C 332 489 337 442 348 398 C 358 354 375 317 398 286 C 420 255 449 231 485 214 C 520 196 562 188 610 188 Z" unicode="o" />
<glyph horiz-adv-x="1251" d="M 662 182 C 739 182 801 210 848 268 C 894 326 918 417 918 543 C 918 655 894 741 848 802 C 801 862 737 893 657 893 C 605 893 557 880 514 854 C 471 828 431 796 393 758 L 393 313 C 437 270 479 237 521 215 C 563 193 610 182 662 182 Z M 393 -391 L 141 -428 L 141 1085 L 373 1085 L 393 944 C 429 988 475 1027 533 1059 C 590 1091 659 1108 739 1108 C 801 1108 858 1096 911 1073 C 963 1049 1009 1014 1047 968 C 1085 921 1114 862 1136 792 C 1158 721 1169 639 1169 545 C 1169 451 1158 368 1136 298 C 1114 228 1083 169 1045 123 C 1007 77 961 42 908 19 C 854 -4 797 -16 735 -16 C 661 -16 596 -4 539 18 C 482 40 433 74 393 119 L 393 -391 Z" unicode="p" />
<glyph horiz-adv-x="1251" d="M 858 -428 L 858 147 C 838 125 817 104 794 84 C 770 64 745 46 717 32 C 689 17 657 5 623 -3 C 589 -11 552 -16 512 -16 C 450 -16 392 -4 340 17 C 287 39 242 73 204 119 C 166 164 136 221 114 291 C 92 361 82 443 82 537 C 82 630 93 712 115 784 C 137 856 167 915 205 963 C 243 1011 289 1047 343 1071 C 396 1095 454 1108 516 1108 C 589 1108 654 1096 710 1072 C 766 1048 816 1013 858 965 L 879 1085 L 1110 1085 L 1110 -391 L 858 -428 Z M 594 190 C 646 190 693 203 736 229 C 779 255 820 287 858 326 L 858 768 C 814 810 771 843 730 865 C 688 887 642 899 590 899 C 513 899 451 869 404 809 C 357 749 334 659 334 539 C 334 428 357 342 403 281 C 449 220 513 190 594 190 Z" unicode="q" />
<glyph horiz-adv-x="842" d="M 393 0 L 141 0 L 141 1085 L 373 1085 L 393 909 L 395 909 C 411 934 430 959 453 983 C 476 1007 503 1028 534 1046 C 565 1064 601 1079 641 1091 C 681 1102 727 1108 778 1108 L 788 1108 L 811 877 C 803 879 792 880 778 880 C 764 880 753 881 745 881 C 663 881 592 863 533 828 C 474 792 427 746 393 688 L 393 0 Z" unicode="r" />
<glyph horiz-adv-x="1071" d="M 537 -20 C 485 -20 436 -15 390 -6 C 344 2 301 14 263 30 C 224 45 188 63 156 84 C 123 104 94 126 68 150 L 164 319 C 212 277 269 242 335 214 C 400 186 468 172 539 172 C 606 172 659 182 698 203 C 736 223 756 253 756 291 C 756 334 737 366 701 387 C 664 408 601 428 512 446 C 454 458 401 471 351 487 C 301 502 258 522 222 547 C 186 572 157 604 137 643 C 116 681 106 730 106 788 C 106 836 115 879 135 919 C 154 959 181 992 216 1020 C 250 1048 292 1069 342 1085 C 391 1100 446 1108 506 1108 C 602 1108 685 1095 755 1070 C 825 1044 888 1011 946 971 L 858 793 C 807 829 753 857 696 878 C 639 898 582 909 524 909 C 462 909 417 898 387 878 C 357 858 342 831 342 799 C 342 763 358 735 392 715 C 425 695 482 676 563 659 C 623 647 680 633 733 618 C 785 603 831 583 869 559 C 907 534 938 503 960 465 C 982 427 993 380 993 324 C 993 264 980 213 956 170 C 932 126 899 91 858 63 C 817 35 769 14 713 0 C 657 -13 599 -20 537 -20 Z" unicode="s" />
<glyph horiz-adv-x="821" d="M 557 -14 C 500 -14 450 -8 408 2 C 366 12 331 30 304 54 C 276 78 256 110 243 150 C 229 190 223 240 223 299 L 223 887 L 39 887 L 39 1085 L 223 1085 L 223 1448 L 473 1485 L 473 1085 L 754 1085 L 754 887 L 473 887 L 473 338 C 473 280 485 239 510 217 C 535 195 573 184 625 184 C 645 184 665 185 684 189 C 703 193 720 197 735 201 L 756 2 C 748 0 736 -1 721 -3 C 705 -5 688 -6 670 -8 C 651 -10 632 -11 612 -12 C 592 -13 573 -14 557 -14 Z" unicode="t" />
<glyph horiz-adv-x="1235" d="M 453 -23 C 353 -23 275 3 217 56 C 159 108 131 188 131 295 L 131 1085 L 383 1085 L 383 362 C 383 305 395 262 421 233 C 447 204 489 190 547 190 C 601 190 652 203 700 230 C 748 256 795 291 842 334 L 842 1085 L 1094 1085 L 1094 0 L 862 0 L 842 152 C 822 130 798 109 772 88 C 746 66 716 47 684 31 C 652 15 616 2 577 -8 C 538 -18 497 -23 453 -23 Z" unicode="u" />
<glyph horiz-adv-x="1079" d="M 666 -4 L 414 -4 L 27 1067 L 274 1106 L 549 283 L 553 283 L 817 1085 L 1059 1085 L 666 -4 Z" unicode="v" />
<glyph horiz-adv-x="1565" d="M 582 0 L 350 0 L 31 1067 L 276 1106 L 399 637 C 407 605 414 576 421 549 C 427 522 434 495 441 469 C 447 442 454 414 461 385 C 468 356 475 324 483 289 L 487 289 C 495 325 502 358 508 388 C 514 417 521 445 527 472 C 533 499 540 526 547 553 C 554 580 562 609 571 641 L 688 1085 L 891 1085 L 1012 633 C 1020 603 1028 574 1035 548 C 1042 521 1049 494 1055 468 C 1061 442 1068 414 1075 385 C 1082 356 1090 324 1098 289 L 1102 289 C 1110 324 1117 356 1123 385 C 1129 413 1136 440 1142 466 C 1148 492 1155 518 1162 544 C 1169 570 1177 599 1186 629 L 1311 1085 L 1538 1085 L 1214 0 L 981 0 L 784 758 L 780 758 L 582 0 Z" unicode="w" />
<glyph horiz-adv-x="1092" d="M 297 0 L 39 0 L 420 561 L 80 1067 L 322 1106 L 561 737 L 782 1085 L 1038 1085 L 682 561 L 1047 20 L 805 -20 L 543 381 L 297 0 Z" unicode="x" />
<glyph horiz-adv-x="1118" d="M 256 -416 C 221 -416 189 -414 159 -412 C 129 -410 102 -405 78 -399 L 59 -188 C 81 -194 108 -200 138 -204 C 168 -208 201 -211 238 -211 C 284 -211 320 -201 346 -181 C 372 -161 394 -130 412 -86 L 442 -6 L 33 1067 L 281 1106 L 565 295 L 569 295 L 850 1085 L 1098 1085 L 637 -119 C 618 -166 598 -208 576 -245 C 554 -282 528 -313 499 -338 C 469 -363 435 -382 395 -396 C 355 -409 309 -416 256 -416 Z" unicode="y" />
<glyph horiz-adv-x="1065" d="M 1016 0 L 70 0 L 70 145 L 651 887 L 131 887 L 98 1085 L 965 1085 L 965 936 L 381 195 L 983 195 L 1016 0 Z" unicode="z" />
<glyph horiz-adv-x="852" d="M 791 -410 L 567 -410 C 473 -410 403 -383 357 -330 C 310 -276 287 -205 287 -117 L 287 217 C 287 267 282 308 273 340 C 263 372 249 397 231 415 C 212 433 188 446 159 453 C 130 459 97 463 59 463 L 59 643 C 97 643 130 646 159 653 C 188 659 212 672 231 690 C 249 708 263 734 273 766 C 282 798 287 839 287 889 L 287 1223 C 287 1311 310 1382 357 1436 C 403 1489 473 1516 567 1516 L 791 1516 L 791 1335 L 700 1335 C 645 1335 605 1321 579 1294 C 553 1267 541 1228 541 1176 L 541 860 C 541 810 537 767 529 733 C 521 698 509 669 495 646 C 480 622 462 604 440 590 C 418 576 394 564 367 555 L 367 551 C 394 541 418 529 440 515 C 462 501 480 482 495 459 C 509 436 521 407 529 373 C 537 338 541 296 541 246 L 541 -70 C 541 -122 553 -161 579 -188 C 605 -215 645 -229 700 -229 L 791 -229 L 791 -410 Z" unicode="{" />
<glyph horiz-adv-x="772" d="M 510 -410 L 262 -410 L 262 1516 L 510 1516 L 510 -410 Z" unicode="|" />
<glyph horiz-adv-x="852" d="M 305 -410 L 61 -410 L 61 -229 L 152 -229 C 206 -229 246 -215 272 -188 C 298 -161 311 -122 311 -70 L 311 266 C 311 316 315 357 323 390 C 331 422 342 449 357 470 C 371 490 389 507 411 519 C 433 531 457 541 485 551 L 485 555 C 457 564 433 575 411 587 C 389 599 371 615 357 636 C 342 656 331 683 323 716 C 315 748 311 790 311 840 L 311 1176 C 311 1228 298 1268 274 1296 C 250 1324 210 1339 156 1339 L 66 1339 L 61 1516 L 305 1516 C 399 1516 465 1492 505 1446 C 545 1399 565 1331 565 1243 L 565 889 C 565 839 569 798 579 766 C 588 734 602 708 621 690 C 639 672 663 659 692 653 C 721 646 755 643 793 643 L 793 463 C 755 463 721 459 692 453 C 663 446 639 433 621 415 C 602 397 588 372 579 340 C 569 308 565 267 565 217 L 565 -137 C 565 -225 545 -293 505 -340 C 465 -386 399 -410 305 -410 Z" unicode="}" />
<glyph horiz-adv-x="1315" d="M 932 537 C 892 537 846 545 793 559 C 739 573 686 589 634 606 C 582 623 533 639 487 653 C 441 667 405 675 381 676 C 354 676 332 670 315 658 C 297 646 287 621 283 584 L 129 606 C 139 704 167 774 212 816 C 257 858 313 879 381 877 C 422 875 469 866 523 852 C 577 837 630 821 682 804 C 734 787 783 771 829 757 C 874 743 909 735 934 735 C 960 734 982 740 1000 753 C 1018 766 1029 791 1034 829 L 1186 811 C 1174 713 1146 642 1101 598 C 1055 554 999 533 932 537 Z" unicode="~" />
<glyph horiz-adv-x="514" d="" unicode=" " />
<glyph horiz-adv-x="694" d="M 344 1530 C 392 1530 430 1515 458 1486 C 486 1457 500 1422 500 1382 C 500 1341 486 1307 458 1279 C 430 1251 392 1237 344 1237 C 293 1237 254 1251 226 1279 C 198 1307 184 1341 184 1382 C 184 1422 198 1457 226 1486 C 254 1515 293 1530 344 1530 Z M 252 1063 L 432 1063 L 500 0 L 184 0 L 252 1063 Z" unicode="¡" />
<glyph horiz-adv-x="1124" d="M 414 242 L 602 901 L 598 901 C 562 901 527 895 493 883 C 459 871 428 851 402 823 C 376 795 355 759 339 713 C 323 667 315 610 315 543 C 315 471 323 411 341 361 C 359 311 383 271 414 242 Z M 260 -264 L 348 35 C 310 55 275 81 242 112 C 209 143 181 180 157 222 C 133 264 114 311 100 365 C 86 419 80 478 80 543 C 80 643 95 730 127 802 C 159 874 200 932 250 977 C 300 1022 356 1055 418 1076 C 480 1097 542 1108 602 1108 C 611 1108 620 1107 629 1107 C 638 1107 647 1106 655 1106 L 713 1307 L 852 1307 L 786 1079 C 822 1066 854 1049 883 1029 C 911 1009 936 986 958 961 C 979 936 998 909 1014 880 C 1030 851 1045 821 1057 791 L 854 715 C 838 759 819 794 797 820 C 775 846 749 866 721 879 L 524 186 C 534 183 545 181 557 180 C 569 178 581 178 594 178 C 650 178 700 191 746 218 C 792 244 830 296 862 373 L 1061 297 C 1041 253 1018 212 990 173 C 962 134 930 100 892 71 C 854 42 810 19 760 2 C 710 -14 652 -23 588 -23 C 568 -23 549 -21 530 -19 C 511 -17 492 -14 473 -10 L 401 -264 L 260 -264 Z" unicode="¢" />
<glyph horiz-adv-x="1343" d="M 463 690 L 182 690 L 182 858 L 367 858 C 342 900 321 944 304 990 C 287 1036 279 1085 279 1139 C 279 1196 289 1249 309 1299 C 329 1349 357 1392 395 1428 C 432 1464 477 1492 531 1513 C 584 1533 644 1544 711 1544 C 791 1544 859 1532 914 1510 C 969 1487 1014 1457 1049 1420 C 1083 1383 1110 1341 1129 1294 C 1147 1246 1161 1198 1169 1149 L 942 1106 C 938 1138 931 1168 922 1196 C 912 1224 899 1248 882 1268 C 864 1288 842 1303 815 1315 C 788 1327 755 1333 717 1333 C 653 1333 605 1314 573 1278 C 540 1241 524 1195 524 1141 C 524 1091 534 1043 556 998 C 578 952 602 906 629 858 L 987 858 L 987 690 L 709 690 C 721 656 732 621 740 583 C 748 545 752 503 752 459 C 752 420 748 383 741 347 C 733 311 723 277 711 246 C 741 226 772 210 804 196 C 836 182 869 176 903 176 C 969 176 1014 193 1038 227 C 1062 261 1076 319 1079 401 L 1303 401 C 1303 344 1297 289 1285 237 C 1273 185 1254 139 1226 100 C 1198 60 1161 29 1115 6 C 1068 -17 1010 -29 942 -29 C 872 -29 809 -16 755 8 C 701 33 652 62 610 96 C 571 57 525 26 472 4 C 419 -17 360 -29 295 -29 C 264 -29 233 -24 203 -15 C 173 -6 146 7 122 25 C 98 43 78 67 63 96 C 48 124 41 158 41 197 C 41 236 47 271 61 303 C 74 334 92 360 116 382 C 140 404 168 420 201 432 C 234 443 270 449 309 449 C 351 449 390 441 426 427 C 462 413 496 395 530 375 C 530 385 531 395 531 406 C 531 416 532 427 532 438 C 532 484 525 528 512 570 C 498 612 482 652 463 690 Z M 479 209 C 450 233 422 254 395 271 C 367 288 339 297 311 297 C 279 297 254 288 236 270 C 218 252 209 230 209 203 C 209 176 218 154 237 137 C 255 119 279 111 309 111 C 347 111 380 119 408 137 C 436 154 460 178 479 209 Z" unicode="£" />
<glyph horiz-adv-x="1315" d="M 655 508 C 720 508 773 529 815 572 C 856 614 877 671 877 741 C 877 811 856 868 815 910 C 773 952 720 973 655 973 C 591 973 538 952 497 910 C 456 868 436 811 436 741 C 436 671 456 614 497 572 C 538 529 591 508 655 508 Z M 655 362 C 621 362 589 366 558 374 C 526 382 498 393 473 408 L 268 205 L 123 350 L 324 553 C 308 579 296 608 287 640 C 278 672 274 705 274 739 C 274 775 278 808 286 839 C 294 870 306 899 322 926 L 123 1122 L 268 1270 L 469 1071 C 495 1086 524 1098 556 1106 C 588 1114 621 1118 655 1118 C 691 1118 724 1114 756 1106 C 788 1098 817 1086 844 1071 L 1040 1270 L 1188 1122 L 991 928 C 1006 901 1018 872 1027 841 C 1035 810 1040 777 1040 741 C 1040 707 1035 673 1027 641 C 1018 609 1005 579 989 553 L 1190 354 L 1044 207 L 842 410 C 815 394 786 382 754 374 C 722 366 689 362 655 362 Z" unicode="¤" />
<glyph horiz-adv-x="1343" d="M 799 0 L 543 0 L 543 199 L 166 199 L 166 369 L 543 369 L 543 512 L 166 512 L 166 682 L 537 682 L 39 1516 L 307 1516 L 674 891 L 1040 1516 L 1305 1516 L 803 682 L 1180 682 L 1180 512 L 799 512 L 799 369 L 1180 369 L 1180 199 L 799 199 L 799 0 Z" unicode="¥" />
<glyph horiz-adv-x="772" d="M 510 678 L 262 678 L 262 1516 L 510 1516 L 510 678 Z M 510 -410 L 262 -410 L 262 428 L 510 428 L 510 -410 Z" unicode="¦" />
<glyph horiz-adv-x="1149" d="M 680 309 C 726 333 762 361 788 393 C 814 425 827 460 827 498 C 827 524 823 547 815 568 C 807 588 792 609 770 631 C 748 652 718 675 680 701 C 641 726 592 756 532 791 C 521 797 510 803 499 809 C 487 815 477 820 469 825 C 423 801 386 774 359 742 C 332 710 319 675 319 637 C 319 611 323 587 331 566 C 339 545 354 524 376 503 C 398 481 428 458 467 433 C 505 408 555 378 616 344 C 627 338 638 331 648 325 C 658 319 669 313 680 309 Z M 571 -410 C 499 -410 438 -401 388 -385 C 338 -368 296 -346 262 -319 C 228 -291 201 -260 181 -224 C 161 -188 145 -152 135 -115 L 324 -39 C 340 -93 367 -136 405 -170 C 443 -204 495 -221 561 -221 C 594 -221 622 -217 645 -209 C 667 -201 685 -190 699 -177 C 713 -164 722 -149 728 -132 C 734 -115 737 -98 737 -80 C 737 -35 716 5 676 43 C 635 80 571 123 485 172 C 429 203 378 233 332 263 C 286 293 246 324 214 356 C 181 388 156 423 138 462 C 120 500 111 544 111 594 C 111 632 117 668 131 702 C 144 735 161 765 182 792 C 203 818 227 842 254 864 C 280 885 306 903 332 918 C 272 964 231 1008 207 1052 C 183 1096 172 1146 172 1202 C 172 1248 181 1291 199 1333 C 217 1374 243 1410 277 1442 C 311 1473 353 1498 403 1516 C 453 1534 511 1544 575 1544 C 647 1544 710 1535 762 1519 C 814 1502 857 1480 892 1453 C 926 1426 954 1395 974 1359 C 994 1323 1010 1287 1020 1249 L 834 1174 C 816 1230 787 1275 748 1310 C 709 1344 655 1362 586 1362 C 552 1362 524 1357 500 1349 C 476 1341 457 1330 443 1316 C 428 1302 417 1287 411 1269 C 404 1251 401 1232 401 1214 C 401 1169 423 1128 467 1091 C 511 1054 576 1011 664 963 C 718 931 769 901 815 871 C 861 841 901 810 934 778 C 966 746 992 710 1010 672 C 1028 634 1038 590 1038 541 C 1038 501 1031 465 1018 431 C 1004 397 987 367 966 340 C 945 313 921 289 895 268 C 868 247 841 229 815 215 C 873 169 912 124 934 81 C 956 37 967 -12 967 -68 C 967 -114 958 -157 941 -199 C 924 -240 899 -276 866 -308 C 832 -339 791 -364 741 -382 C 691 -400 635 -410 571 -410 Z" unicode="§" />
<glyph horiz-adv-x="1065" d="M 733 1182 C 692 1182 660 1195 638 1222 C 615 1249 604 1282 604 1321 C 604 1359 615 1391 638 1417 C 660 1443 692 1456 733 1456 C 775 1456 808 1443 831 1417 C 854 1391 866 1359 866 1321 C 866 1282 854 1249 831 1222 C 808 1195 775 1182 733 1182 Z M 328 1182 C 286 1182 254 1195 232 1222 C 210 1249 199 1282 199 1321 C 199 1359 210 1391 232 1417 C 254 1443 286 1456 328 1456 C 370 1456 403 1443 425 1417 C 447 1391 459 1359 459 1321 C 459 1282 447 1249 425 1222 C 403 1195 370 1182 328 1182 Z" unicode="¨" />
<glyph horiz-adv-x="1772" d="M 885 -29 C 775 -29 672 -8 576 32 C 480 72 397 128 327 198 C 257 268 202 351 162 447 C 122 543 102 646 102 756 C 102 865 122 968 163 1064 C 203 1160 259 1244 329 1315 C 399 1385 483 1441 579 1482 C 675 1523 779 1544 889 1544 C 997 1544 1099 1523 1195 1483 C 1291 1442 1373 1387 1443 1317 C 1513 1247 1568 1164 1608 1068 C 1648 972 1669 869 1669 760 C 1669 650 1648 546 1608 450 C 1567 354 1511 270 1441 200 C 1371 129 1288 73 1192 32 C 1096 -8 993 -29 885 -29 Z M 889 90 C 981 90 1067 107 1147 141 C 1227 175 1295 222 1353 282 C 1411 341 1456 411 1490 493 C 1523 574 1540 662 1540 756 C 1540 850 1523 937 1490 1019 C 1456 1101 1410 1172 1352 1232 C 1294 1292 1224 1339 1144 1373 C 1064 1407 977 1425 885 1425 C 792 1425 705 1408 625 1374 C 545 1340 476 1293 418 1234 C 360 1174 314 1104 281 1023 C 247 941 231 854 231 760 C 231 666 247 578 281 496 C 315 414 361 343 420 283 C 478 223 548 176 629 142 C 709 107 796 90 889 90 Z M 887 317 C 833 317 783 327 738 348 C 692 368 653 398 621 437 C 589 475 563 522 545 578 C 527 634 518 696 518 766 C 518 833 527 894 545 949 C 563 1004 588 1051 620 1089 C 652 1127 692 1157 738 1178 C 784 1199 835 1210 891 1210 C 973 1210 1041 1190 1094 1150 C 1146 1110 1184 1056 1208 987 L 1071 922 C 1055 970 1034 1006 1006 1032 C 978 1058 941 1071 893 1071 C 861 1071 832 1063 806 1049 C 780 1034 757 1013 739 987 C 720 961 705 929 695 891 C 685 853 680 812 680 766 C 680 670 699 595 738 541 C 777 486 829 459 893 459 C 937 459 975 472 1006 498 C 1036 524 1059 562 1075 612 C 1075 612 1082 609 1097 603 C 1112 597 1128 591 1146 585 C 1164 579 1180 573 1196 567 C 1212 561 1220 559 1221 559 C 1195 485 1154 426 1100 382 C 1045 338 974 317 887 317 Z" unicode="©" />
<glyph horiz-adv-x="889" d="M 375 887 C 419 887 459 895 495 913 C 530 930 560 951 586 977 L 586 1151 C 525 1143 474 1133 434 1121 C 393 1109 361 1095 337 1080 C 313 1065 297 1049 287 1031 C 277 1013 272 995 272 975 C 272 946 281 924 300 909 C 319 894 344 887 375 887 Z M 311 745 C 279 745 250 749 223 758 C 196 766 173 779 154 796 C 134 812 119 833 108 858 C 97 882 92 910 92 942 C 92 1024 130 1092 206 1146 C 282 1200 409 1236 586 1255 L 586 1282 C 586 1316 576 1344 557 1364 C 537 1384 507 1395 467 1395 C 416 1395 371 1386 331 1370 C 291 1353 253 1330 219 1300 L 119 1395 C 161 1435 212 1468 270 1495 C 328 1522 401 1536 489 1536 C 586 1536 657 1512 701 1465 C 745 1417 768 1349 768 1260 L 768 762 L 602 762 L 586 866 C 549 828 508 799 462 777 C 416 755 366 745 311 745 Z" unicode="ª" />
<glyph horiz-adv-x="1202" d="M 637 0 L 391 0 L 68 545 L 391 1085 L 637 1085 L 322 545 L 637 0 Z M 1118 0 L 872 0 L 547 545 L 872 1085 L 1118 1085 L 801 545 L 1118 0 Z" unicode="«" />
<glyph horiz-adv-x="1309" d="M 1171 817 L 1171 174 L 969 174 L 969 600 L 135 600 L 135 817 L 1171 817 Z" unicode="¬" />
<glyph horiz-adv-x="731" d="M 618 553 L 113 553 L 113 733 L 618 733 L 618 553 Z" unicode="­" />
<glyph horiz-adv-x="1098" d="M 547 598 C 481 598 419 610 362 634 C 304 658 254 692 212 734 C 170 776 136 827 112 885 C 88 943 76 1005 76 1071 C 76 1137 88 1200 113 1258 C 137 1316 171 1367 214 1410 C 256 1452 307 1486 365 1511 C 423 1535 485 1548 551 1548 C 617 1548 678 1535 736 1511 C 793 1486 843 1452 885 1410 C 927 1368 961 1318 985 1260 C 1009 1202 1022 1141 1022 1075 C 1022 1008 1009 945 985 887 C 961 829 927 778 885 736 C 842 693 792 659 734 635 C 676 610 613 598 547 598 Z M 551 676 C 605 676 656 686 704 706 C 751 726 792 754 827 790 C 862 825 890 867 910 915 C 930 963 940 1015 940 1071 C 940 1126 930 1178 910 1227 C 890 1275 862 1318 827 1354 C 792 1390 750 1418 702 1439 C 654 1459 602 1470 547 1470 C 492 1470 441 1459 394 1439 C 346 1419 305 1391 271 1356 C 237 1320 210 1278 190 1230 C 170 1182 160 1130 160 1075 C 160 1019 170 966 190 918 C 210 869 237 827 272 791 C 306 755 348 727 396 707 C 444 686 495 676 551 676 Z M 471 1102 L 555 1102 C 585 1102 609 1107 627 1119 C 644 1130 653 1150 653 1178 C 653 1203 644 1221 626 1233 C 608 1245 584 1251 553 1251 L 471 1251 L 471 1102 Z M 367 821 L 367 1343 L 561 1343 C 622 1343 669 1329 703 1302 C 737 1274 754 1234 754 1182 C 754 1141 744 1109 726 1086 C 708 1062 683 1045 653 1034 L 766 821 L 657 821 L 551 1022 L 471 1022 L 471 821 L 367 821 Z" unicode="®" />
<glyph horiz-adv-x="1024" d="M 195 1194 L 195 1380 L 829 1380 L 829 1194 L 195 1194 Z" unicode="¯" />
<glyph horiz-adv-x="840" d="M 420 922 C 375 922 333 929 295 945 C 256 960 222 981 194 1009 C 166 1036 144 1069 128 1107 C 112 1145 104 1186 104 1231 C 104 1275 112 1317 128 1355 C 144 1393 166 1426 194 1454 C 222 1481 256 1502 295 1518 C 333 1534 375 1542 420 1542 C 464 1542 506 1534 545 1519 C 583 1503 617 1482 645 1455 C 673 1427 695 1395 711 1357 C 727 1319 735 1277 735 1233 C 735 1188 727 1146 711 1108 C 695 1070 673 1037 645 1010 C 617 982 583 961 545 945 C 506 929 464 922 420 922 Z M 420 1051 C 468 1051 508 1067 540 1101 C 572 1135 588 1179 588 1233 C 588 1287 572 1330 540 1362 C 508 1394 468 1411 420 1411 C 371 1411 331 1394 299 1362 C 267 1330 252 1287 252 1233 C 252 1179 267 1135 299 1101 C 331 1067 371 1051 420 1051 Z" unicode="°" />
<glyph horiz-adv-x="1315" d="M 135 59 L 135 250 L 555 250 L 555 631 L 135 631 L 135 829 L 555 829 L 555 1262 L 760 1262 L 760 829 L 1180 829 L 1180 631 L 760 631 L 760 250 L 1180 250 L 1180 59 L 135 59 Z" unicode="±" />
<glyph horiz-adv-x="952" d="M 125 553 L 125 600 C 125 634 128 669 135 704 C 142 739 156 774 177 810 C 198 846 228 882 267 919 C 306 956 358 994 422 1034 C 457 1056 487 1075 511 1092 C 535 1108 554 1124 569 1139 C 583 1154 594 1170 600 1187 C 606 1203 610 1223 610 1245 C 610 1281 599 1309 578 1330 C 556 1351 525 1362 485 1362 C 447 1362 410 1349 373 1325 C 336 1301 302 1261 272 1206 L 127 1305 C 171 1381 222 1438 281 1477 C 340 1516 409 1536 489 1536 C 541 1536 588 1529 628 1515 C 668 1501 701 1482 728 1457 C 754 1432 774 1402 788 1366 C 802 1330 809 1291 809 1249 C 809 1219 805 1191 797 1163 C 789 1135 776 1108 758 1082 C 739 1055 714 1028 682 1002 C 650 976 609 949 561 922 C 493 882 445 845 415 812 C 385 779 366 749 360 723 L 815 723 L 815 553 L 125 553 Z" unicode="²" />
<glyph horiz-adv-x="952" d="M 469 537 C 391 537 320 553 256 587 C 191 620 138 669 96 735 L 227 844 C 263 792 300 756 340 736 C 380 716 418 707 455 707 C 513 707 555 719 582 744 C 609 769 623 801 623 840 C 623 890 605 927 570 951 C 535 975 477 987 397 987 L 330 987 L 330 1135 L 403 1135 C 477 1135 529 1145 559 1166 C 589 1187 604 1217 604 1255 C 604 1287 593 1313 571 1333 C 549 1353 515 1364 471 1364 C 435 1364 398 1355 362 1339 C 325 1322 288 1295 250 1257 L 133 1380 C 181 1431 236 1470 296 1496 C 356 1522 419 1536 485 1536 C 539 1536 586 1529 627 1516 C 667 1503 701 1485 727 1463 C 753 1440 773 1413 787 1381 C 800 1349 807 1315 807 1278 C 807 1231 795 1189 771 1151 C 747 1113 709 1085 657 1067 C 720 1047 765 1018 793 978 C 820 938 834 892 834 838 C 834 790 825 748 808 711 C 790 673 766 642 735 616 C 703 590 665 571 620 557 C 574 543 524 537 469 537 Z" unicode="³" />
<glyph horiz-adv-x="1024" d="M 322 1202 L 512 1542 L 784 1542 L 487 1202 L 322 1202 Z" unicode="´" />
<glyph horiz-adv-x="1245" d="M 141 0 L 141 0 Z M 393 -410 L 141 -410 L 141 1085 L 393 1085 L 393 367 C 393 307 405 262 431 232 C 457 201 499 186 557 186 C 611 186 662 199 710 225 C 758 251 805 285 852 328 L 852 1085 L 1104 1085 L 1104 0 L 852 0 L 852 172 C 833 151 812 131 790 111 C 767 91 743 74 717 58 C 691 42 664 28 635 16 C 605 4 574 -3 541 -8 C 511 -10 483 -8 458 -4 C 433 0 411 10 393 27 L 393 -410 Z" unicode="µ" />
<glyph horiz-adv-x="1290" d="M 782 -410 L 602 -410 L 602 662 C 442 664 319 702 233 775 C 147 847 104 951 104 1085 C 104 1145 114 1201 135 1254 C 155 1306 185 1352 225 1391 C 264 1429 313 1460 372 1482 C 430 1504 497 1516 573 1516 L 1153 1516 L 1153 -410 L 973 -410 L 973 1321 L 782 1321 L 782 -410 Z" unicode="¶" />
<glyph horiz-adv-x="575" d="M 287 528 C 237 528 198 542 171 570 C 144 598 131 634 131 676 C 131 716 144 751 171 779 C 198 807 237 821 287 821 C 337 821 375 807 403 779 C 430 751 444 716 444 676 C 444 634 430 598 403 570 C 375 542 337 528 287 528 Z" unicode="·" />
<glyph horiz-adv-x="1024" d="M 528 -408 C 473 -408 421 -401 372 -387 C 323 -373 281 -355 246 -332 L 297 -250 C 327 -270 361 -286 398 -296 C 435 -306 471 -311 506 -311 C 546 -311 577 -304 598 -290 C 618 -276 629 -255 629 -229 C 629 -208 622 -193 609 -183 C 595 -173 577 -168 555 -168 C 535 -168 518 -171 503 -178 C 487 -184 473 -193 459 -205 L 387 -170 L 440 0 L 555 0 L 528 -100 C 542 -91 560 -84 580 -78 C 600 -72 624 -70 651 -70 C 670 -70 689 -73 707 -79 C 725 -85 740 -94 754 -106 C 768 -118 779 -132 787 -150 C 795 -168 799 -188 799 -211 C 799 -243 791 -271 777 -296 C 763 -320 743 -341 719 -358 C 695 -374 666 -387 633 -395 C 600 -403 565 -408 528 -408 Z" unicode="¸" />
<glyph horiz-adv-x="760" d="M 524 551 L 317 551 L 317 1346 L 166 1303 L 137 1450 L 360 1516 L 524 1516 L 524 551 Z" unicode="¹" />
<glyph horiz-adv-x="924" d="M 461 745 C 414 745 368 752 323 768 C 278 783 238 806 203 838 C 168 870 140 911 118 961 C 96 1011 86 1071 86 1141 C 86 1211 96 1271 118 1321 C 140 1371 168 1413 203 1445 C 238 1477 278 1500 323 1515 C 368 1530 414 1538 461 1538 C 507 1538 553 1530 599 1515 C 644 1500 684 1477 720 1445 C 755 1413 783 1371 805 1321 C 827 1271 838 1211 838 1141 C 838 1071 827 1011 805 961 C 783 911 755 870 720 838 C 684 806 644 783 599 768 C 553 752 507 745 461 745 Z M 461 883 C 492 883 520 889 544 902 C 568 915 587 933 603 956 C 619 978 631 1005 639 1037 C 647 1069 651 1103 651 1141 C 651 1175 647 1208 640 1240 C 632 1271 621 1298 606 1322 C 590 1345 571 1364 547 1378 C 523 1392 494 1399 461 1399 C 429 1399 402 1392 378 1379 C 354 1366 335 1348 319 1326 C 303 1303 290 1276 282 1244 C 274 1212 270 1178 270 1141 C 270 1106 273 1073 281 1042 C 288 1010 299 983 315 959 C 331 935 351 917 375 903 C 399 889 427 883 461 883 Z" unicode="º" />
<glyph horiz-adv-x="1202" d="M 330 0 L 86 0 L 399 545 L 86 1085 L 330 1085 L 655 545 L 330 0 Z M 811 0 L 565 0 L 881 545 L 565 1085 L 811 1085 L 1137 545 L 811 0 Z" unicode="»" />
<glyph horiz-adv-x="2064" d="M 446 0 L 1354 1516 L 1573 1516 L 668 0 L 446 0 Z M 543 551 L 338 551 L 338 1309 L 195 1282 L 154 1454 L 418 1513 L 543 1513 L 543 551 Z M 1602 0 L 1602 213 L 1161 213 L 1161 344 L 1589 967 L 1806 967 L 1806 377 L 1960 377 L 1960 213 L 1806 213 L 1806 0 L 1602 0 Z M 1364 367 L 1612 367 L 1612 735 L 1364 367 Z" unicode="¼" />
<glyph horiz-adv-x="2136" d="M 446 0 L 1354 1516 L 1573 1516 L 668 0 L 446 0 Z M 543 551 L 338 551 L 338 1309 L 195 1282 L 154 1454 L 418 1513 L 543 1513 L 543 551 Z M 1309 0 L 1309 47 C 1309 81 1312 116 1320 150 C 1327 184 1341 219 1363 255 C 1384 290 1414 326 1453 364 C 1492 402 1543 441 1606 481 C 1637 501 1664 519 1688 535 C 1712 551 1731 568 1746 584 C 1761 600 1772 616 1780 634 C 1788 651 1792 670 1792 692 C 1792 728 1780 756 1758 777 C 1736 798 1705 809 1667 809 C 1630 809 1593 796 1557 771 C 1521 746 1488 707 1458 653 L 1313 752 C 1357 828 1408 885 1466 924 C 1524 963 1594 983 1675 983 C 1725 983 1769 976 1809 962 C 1849 948 1882 929 1909 904 C 1936 879 1957 849 1971 813 C 1985 777 1993 738 1993 696 C 1993 666 1989 638 1982 610 C 1974 582 1961 555 1943 529 C 1925 503 1900 476 1869 450 C 1837 423 1798 396 1751 369 C 1687 331 1639 295 1607 261 C 1574 227 1554 196 1548 170 L 1999 170 L 1999 0 L 1309 0 Z" unicode="½" />
<glyph horiz-adv-x="2134" d="M 559 0 L 1464 1516 L 1686 1516 L 778 0 L 559 0 Z M 1671 0 L 1671 213 L 1231 213 L 1231 344 L 1659 967 L 1876 967 L 1876 377 L 2013 377 L 2044 213 L 1876 213 L 1876 0 L 1671 0 Z M 469 537 C 391 537 320 553 256 587 C 191 620 138 669 96 735 L 227 844 C 263 792 300 756 340 736 C 380 716 418 707 455 707 C 513 707 555 719 582 744 C 609 769 623 801 623 840 C 623 890 605 927 570 951 C 535 975 477 987 397 987 L 330 987 L 330 1135 L 403 1135 C 477 1135 529 1145 559 1166 C 589 1187 604 1217 604 1255 C 604 1287 593 1313 571 1333 C 549 1353 515 1364 471 1364 C 435 1364 398 1355 362 1339 C 325 1322 288 1295 250 1257 L 133 1380 C 181 1431 236 1470 296 1496 C 356 1522 419 1536 485 1536 C 539 1536 586 1529 627 1516 C 667 1503 701 1485 727 1463 C 753 1440 773 1413 787 1381 C 800 1349 807 1315 807 1278 C 807 1231 795 1189 771 1151 C 747 1113 709 1085 657 1067 C 720 1047 765 1018 793 978 C 820 938 834 892 834 838 C 834 790 825 748 808 711 C 790 673 766 642 735 616 C 703 590 665 571 620 557 C 574 543 524 537 469 537 Z M 1434 367 L 1681 367 L 1681 735 L 1434 367 Z" unicode="¾" />
<glyph horiz-adv-x="1169" d="M 635 1530 C 683 1530 721 1515 748 1486 C 774 1457 788 1422 788 1382 C 788 1341 774 1307 748 1279 C 721 1251 683 1237 635 1237 C 583 1237 544 1251 516 1279 C 488 1307 475 1341 475 1382 C 475 1422 488 1457 516 1486 C 544 1515 583 1530 635 1530 Z M 528 1067 L 735 1067 C 737 1042 738 1018 739 995 C 740 972 741 948 741 924 C 741 846 723 783 688 733 C 652 683 603 640 539 604 C 506 584 477 566 453 549 C 428 532 408 515 392 497 C 376 479 364 460 356 438 C 348 416 344 391 344 362 C 344 312 365 272 407 242 C 449 212 508 197 584 197 C 623 197 661 202 697 212 C 733 222 766 236 798 254 C 829 271 858 291 884 315 C 910 338 934 363 954 389 L 1102 213 C 1074 179 1041 148 1005 118 C 969 88 928 63 884 41 C 839 19 790 2 736 -10 C 682 -22 623 -29 559 -29 C 486 -29 421 -19 364 -1 C 306 17 258 43 218 76 C 178 108 148 148 127 194 C 106 240 96 290 96 344 C 96 392 102 435 115 472 C 128 509 146 542 169 570 C 191 598 218 624 248 646 C 278 668 311 689 346 709 C 390 733 425 756 450 776 C 474 796 492 819 504 845 C 516 870 523 900 525 935 C 527 970 528 1014 528 1067 Z" unicode="¿" />
<glyph horiz-adv-x="1425" d="M 51 0 L 51 0 Z M 289 0 L 51 0 L 588 1522 L 838 1522 L 1368 20 L 1120 -20 L 991 360 L 416 360 L 289 0 Z M 705 1200 L 492 586 L 918 586 L 709 1200 L 705 1200 Z M 643 1605 L 348 1945 L 618 1945 L 808 1605 L 643 1605 Z" unicode="À" />
<glyph horiz-adv-x="1425" d="M 51 0 L 51 0 Z M 289 0 L 51 0 L 588 1522 L 838 1522 L 1368 20 L 1120 -20 L 991 360 L 416 360 L 289 0 Z M 705 1200 L 492 586 L 918 586 L 709 1200 L 705 1200 Z M 617 1605 L 807 1945 L 1079 1945 L 782 1605 L 617 1605 Z" unicode="Á" />
<glyph horiz-adv-x="1425" d="M 51 0 L 51 0 Z M 289 0 L 51 0 L 588 1522 L 838 1522 L 1368 20 L 1120 -20 L 991 360 L 416 360 L 289 0 Z M 705 1200 L 492 586 L 918 586 L 709 1200 L 705 1200 Z M 361 1605 L 625 1945 L 799 1945 L 1063 1605 L 916 1605 L 709 1777 L 506 1605 L 361 1605 Z" unicode="Â" />
<glyph horiz-adv-x="1425" d="M 51 0 L 51 0 Z M 289 0 L 51 0 L 588 1522 L 838 1522 L 1368 20 L 1120 -20 L 991 360 L 416 360 L 289 0 Z M 705 1200 L 492 586 L 918 586 L 709 1200 L 705 1200 Z M 868 1591 C 834 1591 804 1597 776 1609 C 748 1621 723 1634 700 1648 C 676 1662 654 1676 632 1688 C 610 1700 589 1706 567 1706 C 539 1706 519 1696 505 1678 C 491 1659 485 1627 487 1583 L 344 1607 C 344 1696 363 1764 402 1810 C 440 1856 493 1880 559 1880 C 592 1880 622 1874 650 1862 C 678 1850 703 1836 727 1822 C 750 1808 772 1795 794 1783 C 816 1771 838 1765 860 1765 C 887 1765 908 1774 922 1792 C 936 1810 942 1842 942 1886 L 1081 1863 C 1081 1773 1062 1706 1024 1660 C 986 1614 934 1591 868 1591 Z" unicode="Ã" />
<glyph horiz-adv-x="1425" d="M 51 0 L 51 0 Z M 289 0 L 51 0 L 588 1522 L 838 1522 L 1368 20 L 1120 -20 L 991 360 L 416 360 L 289 0 Z M 705 1200 L 492 586 L 918 586 L 709 1200 L 705 1200 Z M 913 1585 C 872 1585 840 1598 818 1625 C 795 1652 784 1685 784 1724 C 784 1762 795 1794 818 1820 C 840 1846 872 1859 913 1859 C 955 1859 988 1846 1011 1820 C 1034 1794 1046 1762 1046 1724 C 1046 1685 1034 1652 1011 1625 C 988 1598 955 1585 913 1585 Z M 508 1585 C 466 1585 434 1598 412 1625 C 390 1652 379 1685 379 1724 C 379 1762 390 1794 412 1820 C 434 1846 466 1859 508 1859 C 550 1859 583 1846 605 1820 C 627 1794 639 1762 639 1724 C 639 1685 627 1652 605 1625 C 583 1598 550 1585 508 1585 Z" unicode="Ä" />
<glyph horiz-adv-x="1425" d="M 51 0 L 573 1483 C 551 1499 534 1520 522 1546 C 510 1571 504 1599 504 1630 C 504 1659 509 1686 520 1712 C 530 1738 545 1760 564 1779 C 582 1797 604 1812 630 1823 C 656 1833 683 1839 713 1839 C 742 1839 769 1833 795 1823 C 821 1812 843 1797 862 1779 C 880 1760 895 1738 906 1712 C 916 1686 922 1659 922 1630 C 922 1599 915 1571 903 1546 C 890 1520 873 1500 852 1485 L 1368 20 L 1120 -20 L 991 360 L 416 360 L 289 0 L 51 0 Z M 713 1526 C 741 1526 765 1535 784 1555 C 803 1574 813 1599 813 1630 C 813 1660 803 1685 784 1705 C 765 1725 741 1735 713 1735 C 684 1735 660 1725 641 1705 C 621 1685 612 1660 612 1630 C 612 1599 621 1574 641 1555 C 660 1535 684 1526 713 1526 Z M 492 586 L 918 586 L 709 1202 L 705 1202 L 492 586 Z" unicode="Å" />
<glyph horiz-adv-x="2134" d="M 1032 1303 L 666 651 L 1034 651 L 1034 1303 L 1032 1303 Z M 299 0 L 41 0 L 903 1516 L 2011 1516 L 2011 1278 L 1288 1278 L 1288 901 L 1798 901 L 1837 674 L 1288 674 L 1288 231 L 2050 231 L 2050 0 L 1034 0 L 1034 426 L 539 426 L 299 0 Z" unicode="Æ" />
<glyph horiz-adv-x="1454" d="M 98 0 L 98 0 Z M 770 -29 C 672 -29 582 -11 500 23 C 417 57 346 108 287 174 C 227 240 181 323 148 422 C 114 521 98 634 98 762 C 98 886 114 996 148 1094 C 182 1191 228 1273 287 1339 C 345 1405 415 1456 496 1491 C 576 1526 663 1544 756 1544 C 898 1544 1015 1513 1108 1453 C 1200 1392 1273 1306 1325 1194 L 1108 1065 C 1093 1100 1075 1133 1053 1163 C 1031 1193 1006 1218 978 1240 C 949 1261 916 1278 879 1290 C 842 1302 801 1309 756 1309 C 692 1309 634 1296 584 1270 C 534 1244 492 1208 458 1161 C 424 1113 398 1056 380 989 C 362 921 354 846 354 764 C 354 676 363 598 382 528 C 400 458 427 399 463 351 C 498 303 541 266 593 240 C 645 214 704 201 770 201 C 816 201 859 207 898 221 C 937 234 972 253 1003 278 C 1034 302 1061 332 1084 367 C 1107 402 1126 441 1141 483 L 1362 383 C 1339 321 1310 264 1276 213 C 1241 162 1199 119 1151 83 C 1103 47 1047 20 983 0 C 919 -19 848 -29 770 -29 Z M 776 -408 C 721 -408 669 -401 620 -387 C 571 -373 529 -355 494 -332 L 545 -250 C 575 -270 609 -286 646 -296 C 683 -306 719 -311 754 -311 C 794 -311 825 -304 846 -290 C 866 -276 877 -255 877 -229 C 877 -208 870 -193 857 -183 C 843 -173 825 -168 803 -168 C 783 -168 766 -171 751 -178 C 735 -184 721 -193 707 -205 L 635 -170 L 688 0 L 803 0 L 776 -100 C 790 -91 808 -84 828 -78 C 848 -72 872 -70 899 -70 C 918 -70 937 -73 955 -79 C 973 -85 988 -94 1002 -106 C 1016 -118 1027 -132 1035 -150 C 1043 -168 1047 -188 1047 -211 C 1047 -243 1039 -271 1025 -296 C 1011 -320 991 -341 967 -358 C 943 -374 914 -387 881 -395 C 848 -403 813 -408 776 -408 Z" unicode="Ç" />
<glyph horiz-adv-x="1272" d="M 172 0 L 172 0 Z M 1192 0 L 172 0 L 172 1516 L 1151 1516 L 1151 1278 L 428 1278 L 428 901 L 981 901 L 1018 674 L 428 674 L 428 231 L 1192 231 L 1192 0 Z M 633 1605 L 338 1945 L 608 1945 L 798 1605 L 633 1605 Z" unicode="È" />
<glyph horiz-adv-x="1272" d="M 172 0 L 172 0 Z M 515 1605 L 705 1945 L 977 1945 L 680 1605 L 515 1605 Z M 1192 0 L 172 0 L 172 1516 L 1151 1516 L 1151 1278 L 428 1278 L 428 901 L 981 901 L 1018 674 L 428 674 L 428 231 L 1192 231 L 1192 0 Z" unicode="É" />
<glyph horiz-adv-x="1272" d="M 172 0 L 172 0 Z M 308 1605 L 572 1945 L 746 1945 L 1010 1605 L 863 1605 L 656 1777 L 453 1605 L 308 1605 Z M 1192 0 L 172 0 L 172 1516 L 1151 1516 L 1151 1278 L 428 1278 L 428 901 L 981 901 L 1018 674 L 428 674 L 428 231 L 1192 231 L 1192 0 Z" unicode="Ê" />
<glyph horiz-adv-x="1272" d="M 172 0 L 172 0 Z M 870 1585 C 829 1585 797 1598 775 1625 C 752 1652 741 1685 741 1724 C 741 1762 752 1794 775 1820 C 797 1846 829 1859 870 1859 C 912 1859 945 1846 968 1820 C 991 1794 1003 1762 1003 1724 C 1003 1685 991 1652 968 1625 C 945 1598 912 1585 870 1585 Z M 465 1585 C 423 1585 391 1598 369 1625 C 347 1652 336 1685 336 1724 C 336 1762 347 1794 369 1820 C 391 1846 423 1859 465 1859 C 507 1859 540 1846 562 1820 C 584 1794 596 1762 596 1724 C 596 1685 584 1652 562 1625 C 540 1598 507 1585 465 1585 Z M 1192 0 L 172 0 L 172 1516 L 1151 1516 L 1151 1278 L 428 1278 L 428 901 L 981 901 L 1018 674 L 428 674 L 428 231 L 1192 231 L 1192 0 Z" unicode="Ë" />
<glyph horiz-adv-x="635" d="M 0 0 L 0 0 Z M 444 0 L 190 0 L 190 1516 L 444 1516 L 444 0 Z M 258 1605 L -37 1945 L 233 1945 L 423 1605 L 258 1605 Z" unicode="Ì" />
<glyph horiz-adv-x="635" d="M 190 0 L 190 0 Z M 444 0 L 190 0 L 190 1516 L 444 1516 L 444 0 Z M 226 1605 L 416 1945 L 688 1945 L 391 1605 L 226 1605 Z" unicode="Í" />
<glyph horiz-adv-x="635" d="M 0 0 L 0 0 Z M 444 0 L 190 0 L 190 1516 L 444 1516 L 444 0 Z M -32 1605 L 232 1945 L 406 1945 L 670 1605 L 523 1605 L 316 1777 L 113 1605 L -32 1605 Z" unicode="Î" />
<glyph horiz-adv-x="635" d="M 0 0 L 0 0 Z M 444 0 L 190 0 L 190 1516 L 444 1516 L 444 0 Z M 518 1585 C 477 1585 445 1598 423 1625 C 400 1652 389 1685 389 1724 C 389 1762 400 1794 423 1820 C 445 1846 477 1859 518 1859 C 560 1859 593 1846 616 1820 C 639 1794 651 1762 651 1724 C 651 1685 639 1652 616 1625 C 593 1598 560 1585 518 1585 Z M 113 1585 C 71 1585 39 1598 17 1625 C -5 1652 -16 1685 -16 1724 C -16 1762 -5 1794 17 1820 C 39 1846 71 1859 113 1859 C 155 1859 188 1846 210 1820 C 232 1794 244 1762 244 1724 C 244 1685 232 1652 210 1625 C 188 1598 155 1585 113 1585 Z" unicode="Ï" />
<glyph horiz-adv-x="1489" d="M 602 0 L 172 0 L 172 686 L 23 686 L 23 883 L 172 883 L 172 1516 L 602 1516 C 720 1516 827 1501 925 1472 C 1023 1443 1106 1398 1175 1338 C 1243 1277 1296 1198 1334 1102 C 1372 1006 1391 891 1391 758 C 1391 626 1371 512 1333 416 C 1295 320 1241 241 1172 180 C 1103 118 1020 73 923 44 C 825 14 718 0 602 0 Z M 426 686 L 426 227 L 625 227 C 799 227 927 269 1010 354 C 1093 439 1135 574 1135 760 C 1135 936 1093 1066 1009 1151 C 925 1235 796 1278 621 1278 L 426 1278 L 426 883 L 741 883 L 741 686 L 426 686 Z" unicode="Ð" />
<glyph horiz-adv-x="1563" d="M 172 0 L 172 0 Z M 408 0 L 172 0 L 172 1516 L 432 1516 L 1149 432 L 1153 432 L 1153 1516 L 1391 1516 L 1391 0 L 1157 0 L 412 1104 L 408 1104 L 408 0 Z M 948 1591 C 914 1591 884 1597 856 1609 C 828 1621 803 1634 780 1648 C 756 1662 734 1676 712 1688 C 690 1700 669 1706 647 1706 C 619 1706 599 1696 585 1678 C 571 1659 565 1627 567 1583 L 424 1607 C 424 1696 443 1764 482 1810 C 520 1856 573 1880 639 1880 C 672 1880 702 1874 730 1862 C 758 1850 783 1836 807 1822 C 830 1808 852 1795 874 1783 C 896 1771 918 1765 940 1765 C 967 1765 988 1774 1002 1792 C 1016 1810 1022 1842 1022 1886 L 1161 1863 C 1161 1773 1142 1706 1104 1660 C 1066 1614 1014 1591 948 1591 Z" unicode="Ñ" />
<glyph horiz-adv-x="1565" d="M 98 0 L 98 0 Z M 782 -29 C 690 -29 603 -11 520 22 C 437 56 364 107 302 173 C 240 239 190 322 153 420 C 116 518 98 631 98 758 C 98 884 116 997 153 1095 C 190 1193 240 1276 302 1342 C 364 1408 437 1458 520 1492 C 603 1526 690 1544 782 1544 C 872 1544 959 1526 1042 1492 C 1125 1458 1198 1408 1260 1342 C 1322 1276 1371 1193 1408 1095 C 1445 997 1464 884 1464 758 C 1464 631 1445 518 1408 420 C 1371 322 1322 239 1260 173 C 1198 107 1125 56 1042 22 C 959 -11 872 -29 782 -29 Z M 782 201 C 846 201 904 214 957 240 C 1009 266 1054 302 1092 350 C 1129 398 1158 456 1179 526 C 1199 595 1210 672 1210 758 C 1210 843 1199 920 1179 988 C 1158 1056 1129 1114 1092 1162 C 1054 1209 1009 1245 957 1271 C 904 1296 846 1309 782 1309 C 718 1309 659 1296 607 1271 C 554 1245 509 1209 472 1162 C 434 1114 405 1056 385 988 C 364 920 354 843 354 758 C 354 672 364 595 385 526 C 405 456 434 398 472 350 C 509 302 554 266 607 240 C 659 214 718 201 782 201 Z M 740 1605 L 445 1945 L 715 1945 L 905 1605 L 740 1605 Z" unicode="Ò" />
<glyph horiz-adv-x="1565" d="M 98 0 L 98 0 Z M 654 1605 L 844 1945 L 1116 1945 L 819 1605 L 654 1605 Z M 782 -29 C 690 -29 603 -11 520 22 C 437 56 364 107 302 173 C 240 239 190 322 153 420 C 116 518 98 631 98 758 C 98 884 116 997 153 1095 C 190 1193 240 1276 302 1342 C 364 1408 437 1458 520 1492 C 603 1526 690 1544 782 1544 C 872 1544 959 1526 1042 1492 C 1125 1458 1198 1408 1260 1342 C 1322 1276 1371 1193 1408 1095 C 1445 997 1464 884 1464 758 C 1464 631 1445 518 1408 420 C 1371 322 1322 239 1260 173 C 1198 107 1125 56 1042 22 C 959 -11 872 -29 782 -29 Z M 782 201 C 846 201 904 214 957 240 C 1009 266 1054 302 1092 350 C 1129 398 1158 456 1179 526 C 1199 595 1210 672 1210 758 C 1210 843 1199 920 1179 988 C 1158 1056 1129 1114 1092 1162 C 1054 1209 1009 1245 957 1271 C 904 1296 846 1309 782 1309 C 718 1309 659 1296 607 1271 C 554 1245 509 1209 472 1162 C 434 1114 405 1056 385 988 C 364 920 354 843 354 758 C 354 672 364 595 385 526 C 405 456 434 398 472 350 C 509 302 554 266 607 240 C 659 214 718 201 782 201 Z" unicode="Ó" />
<glyph horiz-adv-x="1565" d="M 98 0 L 98 0 Z M 430 1605 L 694 1945 L 868 1945 L 1132 1605 L 985 1605 L 778 1777 L 575 1605 L 430 1605 Z M 782 -29 C 690 -29 603 -11 520 22 C 437 56 364 107 302 173 C 240 239 190 322 153 420 C 116 518 98 631 98 758 C 98 884 116 997 153 1095 C 190 1193 240 1276 302 1342 C 364 1408 437 1458 520 1492 C 603 1526 690 1544 782 1544 C 872 1544 959 1526 1042 1492 C 1125 1458 1198 1408 1260 1342 C 1322 1276 1371 1193 1408 1095 C 1445 997 1464 884 1464 758 C 1464 631 1445 518 1408 420 C 1371 322 1322 239 1260 173 C 1198 107 1125 56 1042 22 C 959 -11 872 -29 782 -29 Z M 782 201 C 846 201 904 214 957 240 C 1009 266 1054 302 1092 350 C 1129 398 1158 456 1179 526 C 1199 595 1210 672 1210 758 C 1210 843 1199 920 1179 988 C 1158 1056 1129 1114 1092 1162 C 1054 1209 1009 1245 957 1271 C 904 1296 846 1309 782 1309 C 718 1309 659 1296 607 1271 C 554 1245 509 1209 472 1162 C 434 1114 405 1056 385 988 C 364 920 354 843 354 758 C 354 672 364 595 385 526 C 405 456 434 398 472 350 C 509 302 554 266 607 240 C 659 214 718 201 782 201 Z" unicode="Ô" />
<glyph horiz-adv-x="1565" d="M 98 0 L 98 0 Z M 782 -29 C 690 -29 603 -11 520 22 C 437 56 364 107 302 173 C 240 239 190 322 153 420 C 116 518 98 631 98 758 C 98 884 116 997 153 1095 C 190 1193 240 1276 302 1342 C 364 1408 437 1458 520 1492 C 603 1526 690 1544 782 1544 C 872 1544 959 1526 1042 1492 C 1125 1458 1198 1408 1260 1342 C 1322 1276 1371 1193 1408 1095 C 1445 997 1464 884 1464 758 C 1464 631 1445 518 1408 420 C 1371 322 1322 239 1260 173 C 1198 107 1125 56 1042 22 C 959 -11 872 -29 782 -29 Z M 782 201 C 846 201 904 214 957 240 C 1009 266 1054 302 1092 350 C 1129 398 1158 456 1179 526 C 1199 595 1210 672 1210 758 C 1210 843 1199 920 1179 988 C 1158 1056 1129 1114 1092 1162 C 1054 1209 1009 1245 957 1271 C 904 1296 846 1309 782 1309 C 718 1309 659 1296 607 1271 C 554 1245 509 1209 472 1162 C 434 1114 405 1056 385 988 C 364 920 354 843 354 758 C 354 672 364 595 385 526 C 405 456 434 398 472 350 C 509 302 554 266 607 240 C 659 214 718 201 782 201 Z M 934 1591 C 900 1591 870 1597 842 1609 C 814 1621 789 1634 766 1648 C 742 1662 720 1676 698 1688 C 676 1700 655 1706 633 1706 C 605 1706 585 1696 571 1678 C 557 1659 551 1627 553 1583 L 410 1607 C 410 1696 429 1764 468 1810 C 506 1856 559 1880 625 1880 C 658 1880 688 1874 716 1862 C 744 1850 769 1836 793 1822 C 816 1808 838 1795 860 1783 C 882 1771 904 1765 926 1765 C 953 1765 974 1774 988 1792 C 1002 1810 1008 1842 1008 1886 L 1147 1863 C 1147 1773 1128 1706 1090 1660 C 1052 1614 1000 1591 934 1591 Z" unicode="Õ" />
<glyph horiz-adv-x="1565" d="M 98 0 L 98 0 Z M 981 1585 C 940 1585 908 1598 886 1625 C 863 1652 852 1685 852 1724 C 852 1762 863 1794 886 1820 C 908 1846 940 1859 981 1859 C 1023 1859 1056 1846 1079 1820 C 1102 1794 1114 1762 1114 1724 C 1114 1685 1102 1652 1079 1625 C 1056 1598 1023 1585 981 1585 Z M 576 1585 C 534 1585 502 1598 480 1625 C 458 1652 447 1685 447 1724 C 447 1762 458 1794 480 1820 C 502 1846 534 1859 576 1859 C 618 1859 651 1846 673 1820 C 695 1794 707 1762 707 1724 C 707 1685 695 1652 673 1625 C 651 1598 618 1585 576 1585 Z M 782 -29 C 690 -29 603 -11 520 22 C 437 56 364 107 302 173 C 240 239 190 322 153 420 C 116 518 98 631 98 758 C 98 884 116 997 153 1095 C 190 1193 240 1276 302 1342 C 364 1408 437 1458 520 1492 C 603 1526 690 1544 782 1544 C 872 1544 959 1526 1042 1492 C 1125 1458 1198 1408 1260 1342 C 1322 1276 1371 1193 1408 1095 C 1445 997 1464 884 1464 758 C 1464 631 1445 518 1408 420 C 1371 322 1322 239 1260 173 C 1198 107 1125 56 1042 22 C 959 -11 872 -29 782 -29 Z M 782 201 C 846 201 904 214 957 240 C 1009 266 1054 302 1092 350 C 1129 398 1158 456 1179 526 C 1199 595 1210 672 1210 758 C 1210 843 1199 920 1179 988 C 1158 1056 1129 1114 1092 1162 C 1054 1209 1009 1245 957 1271 C 904 1296 846 1309 782 1309 C 718 1309 659 1296 607 1271 C 554 1245 509 1209 472 1162 C 434 1114 405 1056 385 988 C 364 920 354 843 354 758 C 354 672 364 595 385 526 C 405 456 434 398 472 350 C 509 302 554 266 607 240 C 659 214 718 201 782 201 Z" unicode="Ö" />
<glyph horiz-adv-x="1315" d="M 657 510 L 319 172 L 174 322 L 508 655 L 174 989 L 319 1137 L 655 803 L 989 1137 L 1137 989 L 803 655 L 1139 324 L 993 176 L 657 510 Z" unicode="×" />
<glyph horiz-adv-x="1565" d="M 416 426 L 1055 1214 C 1019 1248 978 1273 932 1291 C 886 1308 837 1317 784 1317 C 719 1317 660 1304 606 1280 C 552 1255 507 1219 469 1172 C 431 1124 402 1066 381 996 C 360 926 350 847 350 758 C 350 692 355 631 367 575 C 379 519 395 470 416 426 Z M 1149 1087 L 508 299 C 544 264 585 238 632 220 C 678 202 729 193 784 193 C 848 193 906 205 959 231 C 1012 256 1057 293 1095 341 C 1132 389 1161 448 1182 518 C 1203 588 1214 668 1214 758 C 1214 823 1208 883 1197 938 C 1186 993 1170 1043 1149 1087 Z M 1468 1466 L 1317 1282 C 1363 1218 1400 1141 1426 1053 C 1452 965 1466 866 1466 758 C 1466 631 1448 518 1413 420 C 1377 322 1329 239 1268 173 C 1207 107 1135 56 1052 22 C 968 -11 879 -29 784 -29 C 704 -29 628 -16 556 7 C 484 31 419 67 362 113 L 225 -51 L 96 49 L 248 231 C 201 296 164 373 138 462 C 111 550 98 649 98 758 C 98 884 115 997 151 1095 C 187 1193 235 1276 297 1342 C 358 1408 430 1458 514 1492 C 598 1526 688 1544 784 1544 C 863 1544 938 1532 1010 1508 C 1082 1484 1146 1449 1202 1403 L 1339 1567 L 1468 1466 Z" unicode="Ø" />
<glyph horiz-adv-x="1477" d="M 152 0 L 152 0 Z M 739 -27 C 639 -27 552 -12 478 15 C 404 43 343 83 295 134 C 247 185 211 246 187 317 C 163 388 152 466 152 551 L 152 1516 L 408 1516 L 408 565 C 408 511 414 461 427 417 C 440 373 460 335 487 304 C 514 273 549 249 591 232 C 633 215 683 207 741 207 C 799 207 849 215 891 232 C 933 248 967 272 994 303 C 1020 333 1040 371 1053 415 C 1066 459 1073 508 1073 563 L 1073 1516 L 1325 1516 L 1325 555 C 1325 469 1313 391 1289 319 C 1265 247 1230 185 1182 135 C 1134 84 1073 44 999 16 C 925 -12 838 -27 739 -27 Z M 703 1605 L 408 1945 L 678 1945 L 868 1605 L 703 1605 Z" unicode="Ù" />
<glyph horiz-adv-x="1477" d="M 152 0 L 152 0 Z M 590 1605 L 780 1945 L 1052 1945 L 755 1605 L 590 1605 Z M 739 -27 C 639 -27 552 -12 478 15 C 404 43 343 83 295 134 C 247 185 211 246 187 317 C 163 388 152 466 152 551 L 152 1516 L 408 1516 L 408 565 C 408 511 414 461 427 417 C 440 373 460 335 487 304 C 514 273 549 249 591 232 C 633 215 683 207 741 207 C 799 207 849 215 891 232 C 933 248 967 272 994 303 C 1020 333 1040 371 1053 415 C 1066 459 1073 508 1073 563 L 1073 1516 L 1325 1516 L 1325 555 C 1325 469 1313 391 1289 319 C 1265 247 1230 185 1182 135 C 1134 84 1073 44 999 16 C 925 -12 838 -27 739 -27 Z" unicode="Ú" />
<glyph horiz-adv-x="1477" d="M 152 0 L 152 0 Z M 385 1605 L 649 1945 L 823 1945 L 1087 1605 L 940 1605 L 733 1777 L 530 1605 L 385 1605 Z M 739 -27 C 639 -27 552 -12 478 15 C 404 43 343 83 295 134 C 247 185 211 246 187 317 C 163 388 152 466 152 551 L 152 1516 L 408 1516 L 408 565 C 408 511 414 461 427 417 C 440 373 460 335 487 304 C 514 273 549 249 591 232 C 633 215 683 207 741 207 C 799 207 849 215 891 232 C 933 248 967 272 994 303 C 1020 333 1040 371 1053 415 C 1066 459 1073 508 1073 563 L 1073 1516 L 1325 1516 L 1325 555 C 1325 469 1313 391 1289 319 C 1265 247 1230 185 1182 135 C 1134 84 1073 44 999 16 C 925 -12 838 -27 739 -27 Z" unicode="Û" />
<glyph horiz-adv-x="1477" d="M 152 0 L 152 0 Z M 938 1585 C 897 1585 865 1598 843 1625 C 820 1652 809 1685 809 1724 C 809 1762 820 1794 843 1820 C 865 1846 897 1859 938 1859 C 980 1859 1013 1846 1036 1820 C 1059 1794 1071 1762 1071 1724 C 1071 1685 1059 1652 1036 1625 C 1013 1598 980 1585 938 1585 Z M 533 1585 C 491 1585 459 1598 437 1625 C 415 1652 404 1685 404 1724 C 404 1762 415 1794 437 1820 C 459 1846 491 1859 533 1859 C 575 1859 608 1846 630 1820 C 652 1794 664 1762 664 1724 C 664 1685 652 1652 630 1625 C 608 1598 575 1585 533 1585 Z M 739 -27 C 639 -27 552 -12 478 15 C 404 43 343 83 295 134 C 247 185 211 246 187 317 C 163 388 152 466 152 551 L 152 1516 L 408 1516 L 408 565 C 408 511 414 461 427 417 C 440 373 460 335 487 304 C 514 273 549 249 591 232 C 633 215 683 207 741 207 C 799 207 849 215 891 232 C 933 248 967 272 994 303 C 1020 333 1040 371 1053 415 C 1066 459 1073 508 1073 563 L 1073 1516 L 1325 1516 L 1325 555 C 1325 469 1313 391 1289 319 C 1265 247 1230 185 1182 135 C 1134 84 1073 44 999 16 C 925 -12 838 -27 739 -27 Z" unicode="Ü" />
<glyph horiz-adv-x="1354" d="M 43 0 L 43 0 Z M 803 0 L 549 0 L 549 653 L 43 1495 L 287 1536 L 678 870 L 1059 1516 L 1321 1516 L 803 653 L 803 0 Z M 521 1610 L 711 1950 L 983 1950 L 686 1610 L 521 1610 Z" unicode="Ý" />
<glyph horiz-adv-x="1362" d="M 428 0 L 172 0 L 172 1516 L 428 1516 L 428 1262 L 698 1262 C 779 1262 855 1254 927 1238 C 998 1222 1060 1197 1113 1161 C 1165 1125 1207 1076 1238 1016 C 1268 956 1284 881 1284 793 C 1284 700 1267 623 1234 561 C 1201 499 1157 449 1103 413 C 1049 376 986 350 914 335 C 842 320 767 313 690 313 L 428 313 L 428 0 Z M 428 1026 L 428 541 L 698 541 C 810 541 893 560 946 600 C 999 640 1026 701 1026 784 C 1026 865 999 926 947 966 C 894 1006 810 1026 696 1026 L 428 1026 Z" unicode="Þ" />
<glyph horiz-adv-x="1339" d="M 846 -23 C 771 -23 705 -13 648 5 C 591 24 546 45 514 68 L 590 244 C 619 226 654 210 695 196 C 736 181 780 174 827 174 C 890 174 941 195 979 239 C 1017 283 1036 340 1036 412 C 1036 468 1024 516 1002 554 C 980 592 948 623 908 646 C 868 669 819 686 763 696 C 707 706 645 713 578 715 L 578 897 C 636 897 686 903 726 915 C 766 927 798 943 822 963 C 846 983 863 1006 873 1034 C 883 1062 889 1092 889 1124 C 889 1176 868 1219 826 1253 C 784 1287 726 1305 651 1305 C 567 1305 503 1282 457 1238 C 411 1193 389 1124 389 1030 L 389 0 L 141 0 L 141 1022 C 141 1105 153 1178 177 1240 C 201 1302 235 1354 279 1395 C 323 1435 376 1466 438 1486 C 500 1506 570 1516 647 1516 C 719 1516 784 1507 843 1491 C 902 1474 952 1450 994 1419 C 1035 1387 1067 1348 1090 1302 C 1112 1255 1124 1202 1124 1143 C 1124 1101 1117 1063 1104 1029 C 1091 995 1073 964 1050 938 C 1027 912 1000 889 968 871 C 936 852 901 837 864 827 C 914 820 964 807 1013 789 C 1062 770 1105 744 1143 712 C 1181 679 1211 639 1235 591 C 1258 543 1270 486 1270 422 C 1270 352 1259 289 1239 234 C 1219 178 1190 132 1154 94 C 1117 56 1072 27 1020 7 C 968 -13 910 -23 846 -23 Z" unicode="ß" />
<glyph horiz-adv-x="1157" d="M 72 0 L 72 0 Z M 471 178 C 535 178 593 189 645 212 C 697 234 742 265 780 303 L 780 543 C 693 531 620 517 560 501 C 500 485 453 467 417 448 C 381 428 356 407 340 384 C 324 360 317 335 317 309 C 317 266 331 233 359 211 C 387 189 424 178 471 178 Z M 381 -16 C 337 -16 296 -9 258 3 C 220 16 187 35 160 59 C 132 83 111 113 95 149 C 79 184 72 224 72 268 C 72 327 85 381 111 430 C 137 478 179 521 235 558 C 291 595 365 626 455 652 C 545 678 653 698 780 713 L 780 745 C 780 795 764 833 734 860 C 703 887 656 901 592 901 C 522 901 458 887 402 860 C 345 832 292 798 242 756 L 104 909 C 132 935 164 961 199 985 C 233 1009 272 1030 314 1048 C 356 1066 402 1081 454 1092 C 506 1102 563 1108 625 1108 C 764 1108 866 1074 930 1006 C 994 938 1026 841 1026 715 L 1026 0 L 801 0 L 780 139 C 728 86 668 47 602 22 C 535 -3 461 -16 381 -16 Z M 557 1202 L 262 1542 L 532 1542 L 722 1202 L 557 1202 Z" unicode="à" />
<glyph horiz-adv-x="1157" d="M 72 0 L 72 0 Z M 471 178 C 535 178 593 189 645 212 C 697 234 742 265 780 303 L 780 543 C 693 531 620 517 560 501 C 500 485 453 467 417 448 C 381 428 356 407 340 384 C 324 360 317 335 317 309 C 317 266 331 233 359 211 C 387 189 424 178 471 178 Z M 381 -16 C 337 -16 296 -9 258 3 C 220 16 187 35 160 59 C 132 83 111 113 95 149 C 79 184 72 224 72 268 C 72 327 85 381 111 430 C 137 478 179 521 235 558 C 291 595 365 626 455 652 C 545 678 653 698 780 713 L 780 745 C 780 795 764 833 734 860 C 703 887 656 901 592 901 C 522 901 458 887 402 860 C 345 832 292 798 242 756 L 104 909 C 132 935 164 961 199 985 C 233 1009 272 1030 314 1048 C 356 1066 402 1081 454 1092 C 506 1102 563 1108 625 1108 C 764 1108 866 1074 930 1006 C 994 938 1026 841 1026 715 L 1026 0 L 801 0 L 780 139 C 728 86 668 47 602 22 C 535 -3 461 -16 381 -16 Z M 457 1202 L 647 1542 L 919 1542 L 622 1202 L 457 1202 Z" unicode="á" />
<glyph horiz-adv-x="1157" d="M 72 0 L 72 0 Z M 471 178 C 535 178 593 189 645 212 C 697 234 742 265 780 303 L 780 543 C 693 531 620 517 560 501 C 500 485 453 467 417 448 C 381 428 356 407 340 384 C 324 360 317 335 317 309 C 317 266 331 233 359 211 C 387 189 424 178 471 178 Z M 381 -16 C 337 -16 296 -9 258 3 C 220 16 187 35 160 59 C 132 83 111 113 95 149 C 79 184 72 224 72 268 C 72 327 85 381 111 430 C 137 478 179 521 235 558 C 291 595 365 626 455 652 C 545 678 653 698 780 713 L 780 745 C 780 795 764 833 734 860 C 703 887 656 901 592 901 C 522 901 458 887 402 860 C 345 832 292 798 242 756 L 104 909 C 132 935 164 961 199 985 C 233 1009 272 1030 314 1048 C 356 1066 402 1081 454 1092 C 506 1102 563 1108 625 1108 C 764 1108 866 1074 930 1006 C 994 938 1026 841 1026 715 L 1026 0 L 801 0 L 780 139 C 728 86 668 47 602 22 C 535 -3 461 -16 381 -16 Z M 234 1202 L 498 1542 L 672 1542 L 936 1202 L 789 1202 L 582 1374 L 379 1202 L 234 1202 Z" unicode="â" />
<glyph horiz-adv-x="1157" d="M 72 0 L 72 0 Z M 471 178 C 535 178 593 189 645 212 C 697 234 742 265 780 303 L 780 543 C 693 531 620 517 560 501 C 500 485 453 467 417 448 C 381 428 356 407 340 384 C 324 360 317 335 317 309 C 317 266 331 233 359 211 C 387 189 424 178 471 178 Z M 381 -16 C 337 -16 296 -9 258 3 C 220 16 187 35 160 59 C 132 83 111 113 95 149 C 79 184 72 224 72 268 C 72 327 85 381 111 430 C 137 478 179 521 235 558 C 291 595 365 626 455 652 C 545 678 653 698 780 713 L 780 745 C 780 795 764 833 734 860 C 703 887 656 901 592 901 C 522 901 458 887 402 860 C 345 832 292 798 242 756 L 104 909 C 132 935 164 961 199 985 C 233 1009 272 1030 314 1048 C 356 1066 402 1081 454 1092 C 506 1102 563 1108 625 1108 C 764 1108 866 1074 930 1006 C 994 938 1026 841 1026 715 L 1026 0 L 801 0 L 780 139 C 728 86 668 47 602 22 C 535 -3 461 -16 381 -16 Z M 737 1188 C 703 1188 673 1194 645 1206 C 617 1218 592 1231 569 1245 C 545 1259 523 1273 501 1285 C 479 1297 458 1303 436 1303 C 408 1303 388 1293 374 1275 C 360 1256 354 1224 356 1180 L 213 1204 C 213 1293 232 1361 271 1407 C 309 1453 362 1477 428 1477 C 461 1477 491 1471 519 1459 C 547 1447 572 1433 596 1419 C 619 1405 641 1392 663 1380 C 685 1368 707 1362 729 1362 C 756 1362 777 1371 791 1389 C 805 1407 811 1439 811 1483 L 950 1460 C 950 1370 931 1303 893 1257 C 855 1211 803 1188 737 1188 Z" unicode="ã" />
<glyph horiz-adv-x="1157" d="M 72 0 L 72 0 Z M 471 178 C 535 178 593 189 645 212 C 697 234 742 265 780 303 L 780 543 C 693 531 620 517 560 501 C 500 485 453 467 417 448 C 381 428 356 407 340 384 C 324 360 317 335 317 309 C 317 266 331 233 359 211 C 387 189 424 178 471 178 Z M 381 -16 C 337 -16 296 -9 258 3 C 220 16 187 35 160 59 C 132 83 111 113 95 149 C 79 184 72 224 72 268 C 72 327 85 381 111 430 C 137 478 179 521 235 558 C 291 595 365 626 455 652 C 545 678 653 698 780 713 L 780 745 C 780 795 764 833 734 860 C 703 887 656 901 592 901 C 522 901 458 887 402 860 C 345 832 292 798 242 756 L 104 909 C 132 935 164 961 199 985 C 233 1009 272 1030 314 1048 C 356 1066 402 1081 454 1092 C 506 1102 563 1108 625 1108 C 764 1108 866 1074 930 1006 C 994 938 1026 841 1026 715 L 1026 0 L 801 0 L 780 139 C 728 86 668 47 602 22 C 535 -3 461 -16 381 -16 Z M 792 1182 C 751 1182 719 1195 697 1222 C 674 1249 663 1282 663 1321 C 663 1359 674 1391 697 1417 C 719 1443 751 1456 792 1456 C 834 1456 867 1443 890 1417 C 913 1391 925 1359 925 1321 C 925 1282 913 1249 890 1222 C 867 1195 834 1182 792 1182 Z M 387 1182 C 345 1182 313 1195 291 1222 C 269 1249 258 1282 258 1321 C 258 1359 269 1391 291 1417 C 313 1443 345 1456 387 1456 C 429 1456 462 1443 484 1417 C 506 1391 518 1359 518 1321 C 518 1282 506 1249 484 1222 C 462 1195 429 1182 387 1182 Z" unicode="ä" />
<glyph horiz-adv-x="1157" d="M 72 0 L 72 0 Z M 471 178 C 535 178 593 189 645 212 C 697 234 742 265 780 303 L 780 543 C 693 531 620 517 560 501 C 500 485 453 467 417 448 C 381 428 356 407 340 384 C 324 360 317 335 317 309 C 317 266 331 233 359 211 C 387 189 424 178 471 178 Z M 381 -16 C 337 -16 296 -9 258 3 C 220 16 187 35 160 59 C 132 83 111 113 95 149 C 79 184 72 224 72 268 C 72 327 85 381 111 430 C 137 478 179 521 235 558 C 291 595 365 626 455 652 C 545 678 653 698 780 713 L 780 745 C 780 795 764 833 734 860 C 703 887 656 901 592 901 C 522 901 458 887 402 860 C 345 832 292 798 242 756 L 104 909 C 132 935 164 961 199 985 C 233 1009 272 1030 314 1048 C 356 1066 402 1081 454 1092 C 506 1102 563 1108 625 1108 C 764 1108 866 1074 930 1006 C 994 938 1026 841 1026 715 L 1026 0 L 801 0 L 780 139 C 728 86 668 47 602 22 C 535 -3 461 -16 381 -16 Z M 594 1186 C 564 1186 536 1191 510 1202 C 484 1212 462 1227 444 1246 C 425 1264 410 1286 400 1312 C 390 1338 385 1365 385 1395 C 385 1423 390 1450 400 1476 C 410 1501 425 1523 444 1542 C 462 1560 484 1575 510 1586 C 536 1596 564 1602 594 1602 C 624 1602 651 1596 677 1586 C 703 1575 725 1560 744 1542 C 762 1523 777 1501 787 1476 C 797 1450 803 1423 803 1395 C 803 1365 797 1338 787 1312 C 777 1286 762 1264 744 1246 C 725 1227 703 1212 677 1202 C 651 1191 624 1186 594 1186 Z M 594 1288 C 623 1288 647 1298 666 1318 C 684 1338 694 1364 694 1395 C 694 1424 684 1449 666 1469 C 647 1489 623 1499 594 1499 C 564 1499 540 1489 522 1469 C 503 1449 494 1424 494 1395 C 494 1364 503 1338 522 1318 C 540 1298 564 1288 594 1288 Z" unicode="å" />
<glyph horiz-adv-x="1833" d="M 379 -23 C 335 -23 294 -16 256 -4 C 218 7 186 25 159 49 C 132 73 111 102 95 137 C 79 172 72 212 72 256 C 72 315 85 370 111 420 C 137 470 178 514 234 552 C 290 590 363 623 453 650 C 543 677 651 698 778 713 L 778 745 C 778 795 763 833 735 860 C 706 887 662 901 602 901 C 528 901 463 887 405 860 C 347 832 292 798 242 756 L 104 909 C 133 935 165 961 200 985 C 235 1009 274 1030 317 1048 C 360 1066 408 1081 460 1092 C 512 1102 571 1108 635 1108 C 719 1108 787 1091 837 1059 C 887 1027 923 986 944 936 C 962 961 983 984 1008 1006 C 1032 1027 1059 1045 1088 1060 C 1116 1075 1147 1087 1179 1095 C 1211 1103 1243 1108 1276 1108 C 1336 1108 1394 1098 1452 1078 C 1510 1058 1561 1026 1605 980 C 1649 934 1685 874 1712 798 C 1739 722 1753 630 1753 520 L 1753 471 L 1012 471 C 1014 417 1023 371 1039 334 C 1055 296 1076 266 1102 243 C 1128 220 1158 203 1194 193 C 1229 183 1267 178 1307 178 C 1371 178 1430 191 1486 218 C 1542 245 1591 280 1634 322 L 1739 152 C 1677 94 1609 50 1535 21 C 1461 -8 1378 -23 1288 -23 C 1244 -23 1200 -18 1158 -10 C 1116 -2 1076 11 1039 29 C 1001 47 967 70 936 99 C 904 127 878 161 856 201 C 788 125 713 69 633 32 C 553 -4 468 -23 379 -23 Z M 1014 649 L 1522 649 C 1515 727 1491 789 1449 835 C 1407 880 1349 903 1274 903 C 1243 903 1213 898 1184 888 C 1155 878 1129 862 1106 842 C 1083 821 1063 795 1047 763 C 1031 731 1020 693 1014 649 Z M 471 170 C 533 170 591 182 645 208 C 699 233 753 272 805 326 C 798 349 792 374 787 402 C 781 430 778 460 778 492 C 777 501 777 510 777 520 C 777 530 777 539 778 549 C 687 537 612 522 552 505 C 492 488 445 469 411 449 C 376 428 352 405 338 381 C 324 356 317 330 317 303 C 317 259 331 225 359 203 C 387 181 424 170 471 170 Z" unicode="æ" />
<glyph horiz-adv-x="1126" d="M 80 0 L 80 0 Z M 588 -23 C 525 -23 463 -12 402 9 C 341 31 287 64 239 110 C 191 156 153 214 124 286 C 94 358 80 443 80 543 C 80 646 95 734 127 806 C 159 878 200 936 250 981 C 300 1025 356 1058 418 1078 C 480 1098 542 1108 602 1108 C 700 1108 787 1084 864 1037 C 940 990 1000 922 1042 834 L 856 715 C 828 777 795 823 755 853 C 715 883 664 899 602 899 C 565 899 530 892 498 878 C 465 864 436 842 412 813 C 387 783 367 746 353 701 C 339 656 332 603 332 541 C 332 487 338 437 350 393 C 362 348 379 310 402 279 C 424 247 452 223 486 206 C 520 188 558 180 602 180 C 665 180 718 197 761 232 C 804 267 841 317 872 383 L 1059 266 C 1010 166 944 93 862 47 C 780 0 688 -23 588 -23 Z M 589 -408 C 534 -408 482 -401 433 -387 C 384 -373 342 -355 307 -332 L 358 -250 C 388 -270 422 -286 459 -296 C 496 -306 532 -311 567 -311 C 607 -311 638 -304 659 -290 C 679 -276 690 -255 690 -229 C 690 -208 683 -193 670 -183 C 656 -173 638 -168 616 -168 C 596 -168 579 -171 564 -178 C 548 -184 534 -193 520 -205 L 448 -170 L 501 0 L 616 0 L 589 -100 C 603 -91 621 -84 641 -78 C 661 -72 685 -70 712 -70 C 731 -70 750 -73 768 -79 C 786 -85 801 -94 815 -106 C 829 -118 840 -132 848 -150 C 856 -168 860 -188 860 -211 C 860 -243 852 -271 838 -296 C 824 -320 804 -341 780 -358 C 756 -374 727 -387 694 -395 C 661 -403 626 -408 589 -408 Z" unicode="ç" />
<glyph horiz-adv-x="1155" d="M 80 0 L 80 0 Z M 612 -23 C 542 -23 475 -12 411 9 C 346 31 289 64 241 110 C 192 155 153 214 124 286 C 94 358 80 443 80 543 C 80 644 96 731 129 803 C 162 875 204 933 254 978 C 304 1023 360 1056 422 1077 C 483 1097 542 1108 598 1108 C 656 1108 714 1098 772 1078 C 829 1058 880 1026 925 980 C 969 934 1005 874 1033 798 C 1061 722 1075 630 1075 520 L 1075 461 L 332 461 C 334 413 342 372 358 336 C 374 300 395 271 421 248 C 447 224 477 207 513 195 C 548 183 586 178 627 178 C 694 178 756 191 814 217 C 871 243 921 277 963 317 L 1063 152 C 1001 94 934 50 861 21 C 788 -8 705 -23 612 -23 Z M 334 647 L 844 647 C 838 726 814 788 772 834 C 730 880 671 903 596 903 C 564 903 534 897 505 887 C 476 877 450 861 427 840 C 403 819 383 792 367 760 C 351 728 340 690 334 647 Z M 539 1202 L 244 1542 L 514 1542 L 704 1202 L 539 1202 Z" unicode="è" />
<glyph horiz-adv-x="1155" d="M 80 0 L 80 0 Z M 459 1202 L 649 1542 L 921 1542 L 624 1202 L 459 1202 Z M 612 -23 C 542 -23 475 -12 411 9 C 346 31 289 64 241 110 C 192 155 153 214 124 286 C 94 358 80 443 80 543 C 80 644 96 731 129 803 C 162 875 204 933 254 978 C 304 1023 360 1056 422 1077 C 483 1097 542 1108 598 1108 C 656 1108 714 1098 772 1078 C 829 1058 880 1026 925 980 C 969 934 1005 874 1033 798 C 1061 722 1075 630 1075 520 L 1075 461 L 332 461 C 334 413 342 372 358 336 C 374 300 395 271 421 248 C 447 224 477 207 513 195 C 548 183 586 178 627 178 C 694 178 756 191 814 217 C 871 243 921 277 963 317 L 1063 152 C 1001 94 934 50 861 21 C 788 -8 705 -23 612 -23 Z M 334 647 L 844 647 C 838 726 814 788 772 834 C 730 880 671 903 596 903 C 564 903 534 897 505 887 C 476 877 450 861 427 840 C 403 819 383 792 367 760 C 351 728 340 690 334 647 Z" unicode="é" />
<glyph horiz-adv-x="1155" d="M 80 0 L 80 0 Z M 234 1202 L 498 1542 L 672 1542 L 936 1202 L 789 1202 L 582 1374 L 379 1202 L 234 1202 Z M 612 -23 C 542 -23 475 -12 411 9 C 346 31 289 64 241 110 C 192 155 153 214 124 286 C 94 358 80 443 80 543 C 80 644 96 731 129 803 C 162 875 204 933 254 978 C 304 1023 360 1056 422 1077 C 483 1097 542 1108 598 1108 C 656 1108 714 1098 772 1078 C 829 1058 880 1026 925 980 C 969 934 1005 874 1033 798 C 1061 722 1075 630 1075 520 L 1075 461 L 332 461 C 334 413 342 372 358 336 C 374 300 395 271 421 248 C 447 224 477 207 513 195 C 548 183 586 178 627 178 C 694 178 756 191 814 217 C 871 243 921 277 963 317 L 1063 152 C 1001 94 934 50 861 21 C 788 -8 705 -23 612 -23 Z M 334 647 L 844 647 C 838 726 814 788 772 834 C 730 880 671 903 596 903 C 564 903 534 897 505 887 C 476 877 450 861 427 840 C 403 819 383 792 367 760 C 351 728 340 690 334 647 Z" unicode="ê" />
<glyph horiz-adv-x="1155" d="M 80 0 L 80 0 Z M 782 1182 C 741 1182 709 1195 687 1222 C 664 1249 653 1282 653 1321 C 653 1359 664 1391 687 1417 C 709 1443 741 1456 782 1456 C 824 1456 857 1443 880 1417 C 903 1391 915 1359 915 1321 C 915 1282 903 1249 880 1222 C 857 1195 824 1182 782 1182 Z M 377 1182 C 335 1182 303 1195 281 1222 C 259 1249 248 1282 248 1321 C 248 1359 259 1391 281 1417 C 303 1443 335 1456 377 1456 C 419 1456 452 1443 474 1417 C 496 1391 508 1359 508 1321 C 508 1282 496 1249 474 1222 C 452 1195 419 1182 377 1182 Z M 612 -23 C 542 -23 475 -12 411 9 C 346 31 289 64 241 110 C 192 155 153 214 124 286 C 94 358 80 443 80 543 C 80 644 96 731 129 803 C 162 875 204 933 254 978 C 304 1023 360 1056 422 1077 C 483 1097 542 1108 598 1108 C 656 1108 714 1098 772 1078 C 829 1058 880 1026 925 980 C 969 934 1005 874 1033 798 C 1061 722 1075 630 1075 520 L 1075 461 L 332 461 C 334 413 342 372 358 336 C 374 300 395 271 421 248 C 447 224 477 207 513 195 C 548 183 586 178 627 178 C 694 178 756 191 814 217 C 871 243 921 277 963 317 L 1063 152 C 1001 94 934 50 861 21 C 788 -8 705 -23 612 -23 Z M 334 647 L 844 647 C 838 726 814 788 772 834 C 730 880 671 903 596 903 C 564 903 534 897 505 887 C 476 877 450 861 427 840 C 403 819 383 792 367 760 C 351 728 340 690 334 647 Z" unicode="ë" />
<glyph horiz-adv-x="557" d="M 0 0 L 0 0 Z M 403 0 L 154 0 L 154 1085 L 403 1085 L 403 0 Z M 213 1202 L -82 1542 L 188 1542 L 378 1202 L 213 1202 Z" unicode="ì" />
<glyph horiz-adv-x="557" d="M 154 0 L 154 0 Z M 195 1202 L 385 1542 L 657 1542 L 360 1202 L 195 1202 Z M 403 0 L 154 0 L 154 1085 L 403 1085 L 403 0 Z" unicode="í" />
<glyph horiz-adv-x="557" d="M 0 0 L 0 0 Z M -71 1202 L 193 1542 L 367 1542 L 631 1202 L 484 1202 L 277 1374 L 74 1202 L -71 1202 Z M 403 0 L 154 0 L 154 1085 L 403 1085 L 403 0 Z" unicode="î" />
<glyph horiz-adv-x="557" d="M 0 0 L 0 0 Z M 479 1182 C 438 1182 406 1195 384 1222 C 361 1249 350 1282 350 1321 C 350 1359 361 1391 384 1417 C 406 1443 438 1456 479 1456 C 521 1456 554 1443 577 1417 C 600 1391 612 1359 612 1321 C 612 1282 600 1249 577 1222 C 554 1195 521 1182 479 1182 Z M 74 1182 C 32 1182 0 1195 -22 1222 C -44 1249 -55 1282 -55 1321 C -55 1359 -44 1391 -22 1417 C 0 1443 32 1456 74 1456 C 116 1456 149 1443 171 1417 C 193 1391 205 1359 205 1321 C 205 1282 193 1249 171 1222 C 149 1195 116 1182 74 1182 Z M 403 0 L 154 0 L 154 1085 L 403 1085 L 403 0 Z" unicode="ï" />
<glyph horiz-adv-x="1219" d="M 610 -23 C 534 -23 464 -10 400 13 C 335 37 279 72 233 118 C 187 163 150 218 124 284 C 97 350 84 424 84 506 C 84 591 96 666 122 731 C 147 796 181 850 224 894 C 266 937 316 970 374 992 C 432 1014 493 1026 557 1026 C 583 1026 611 1022 641 1016 C 670 1009 699 999 727 987 C 755 974 782 958 808 939 C 833 919 855 897 874 872 C 862 925 844 977 822 1029 C 799 1081 769 1130 731 1178 L 549 1098 L 475 1239 L 629 1303 C 607 1323 585 1342 563 1360 C 541 1378 517 1396 492 1415 L 610 1556 C 646 1533 682 1509 717 1483 C 751 1457 783 1430 813 1401 L 995 1483 L 1067 1343 L 920 1274 C 989 1180 1042 1073 1079 951 C 1116 829 1135 691 1135 539 C 1135 451 1121 372 1095 302 C 1068 232 1031 174 985 126 C 939 78 883 41 819 15 C 754 -10 684 -23 610 -23 Z M 610 180 C 693 180 760 208 810 265 C 860 321 885 403 885 510 C 885 558 878 601 866 641 C 853 681 835 714 811 742 C 787 770 758 791 724 807 C 690 823 652 831 610 831 C 525 831 458 802 408 745 C 358 687 334 608 334 508 C 334 407 358 327 406 268 C 454 209 522 180 610 180 Z" unicode="ð" />
<glyph horiz-adv-x="1235" d="M 143 0 L 143 0 Z M 395 0 L 143 0 L 143 1085 L 375 1085 L 395 932 C 414 954 437 976 464 998 C 490 1019 520 1038 552 1054 C 584 1070 620 1083 660 1093 C 699 1103 741 1108 786 1108 C 884 1108 961 1081 1019 1029 C 1077 977 1106 897 1106 791 L 1106 0 L 856 0 L 856 717 C 856 777 842 822 816 853 C 790 883 748 899 690 899 C 636 899 585 886 537 860 C 489 834 441 800 395 758 L 395 0 Z M 780 1188 C 746 1188 716 1194 688 1206 C 660 1218 635 1231 612 1245 C 588 1259 566 1273 544 1285 C 522 1297 501 1303 479 1303 C 451 1303 431 1293 417 1275 C 403 1256 397 1224 399 1180 L 256 1204 C 256 1293 275 1361 314 1407 C 352 1453 405 1477 471 1477 C 504 1477 534 1471 562 1459 C 590 1447 615 1433 639 1419 C 662 1405 684 1392 706 1380 C 728 1368 750 1362 772 1362 C 799 1362 820 1371 834 1389 C 848 1407 854 1439 854 1483 L 993 1460 C 993 1370 974 1303 936 1257 C 898 1211 846 1188 780 1188 Z" unicode="ñ" />
<glyph horiz-adv-x="1221" d="M 80 0 L 80 0 Z M 610 -23 C 544 -23 479 -12 415 9 C 351 31 295 64 246 110 C 196 156 156 214 126 286 C 95 358 80 443 80 543 C 80 642 95 727 125 799 C 155 871 195 929 245 975 C 294 1020 351 1053 415 1075 C 479 1097 544 1108 610 1108 C 676 1108 740 1097 804 1075 C 867 1053 923 1020 973 975 C 1023 929 1063 871 1093 799 C 1123 727 1139 642 1139 543 C 1139 443 1123 358 1093 286 C 1063 214 1023 156 973 110 C 923 64 867 31 804 9 C 740 -12 676 -23 610 -23 Z M 610 188 C 655 188 695 196 730 214 C 765 231 794 255 818 286 C 841 317 859 354 871 398 C 883 442 889 489 889 541 C 889 591 883 637 872 680 C 860 723 843 760 821 792 C 798 823 769 848 734 866 C 698 884 657 893 610 893 C 564 893 524 884 490 868 C 455 851 426 827 403 797 C 379 767 362 730 350 686 C 338 642 332 594 332 541 C 332 489 337 442 348 398 C 358 354 375 317 398 286 C 420 255 449 231 485 214 C 520 196 562 188 610 188 Z M 568 1202 L 273 1542 L 543 1542 L 733 1202 L 568 1202 Z" unicode="ò" />
<glyph horiz-adv-x="1221" d="M 80 0 L 80 0 Z M 484 1202 L 674 1542 L 946 1542 L 649 1202 L 484 1202 Z M 610 -23 C 544 -23 479 -12 415 9 C 351 31 295 64 246 110 C 196 156 156 214 126 286 C 95 358 80 443 80 543 C 80 642 95 727 125 799 C 155 871 195 929 245 975 C 294 1020 351 1053 415 1075 C 479 1097 544 1108 610 1108 C 676 1108 740 1097 804 1075 C 867 1053 923 1020 973 975 C 1023 929 1063 871 1093 799 C 1123 727 1139 642 1139 543 C 1139 443 1123 358 1093 286 C 1063 214 1023 156 973 110 C 923 64 867 31 804 9 C 740 -12 676 -23 610 -23 Z M 610 188 C 655 188 695 196 730 214 C 765 231 794 255 818 286 C 841 317 859 354 871 398 C 883 442 889 489 889 541 C 889 591 883 637 872 680 C 860 723 843 760 821 792 C 798 823 769 848 734 866 C 698 884 657 893 610 893 C 564 893 524 884 490 868 C 455 851 426 827 403 797 C 379 767 362 730 350 686 C 338 642 332 594 332 541 C 332 489 337 442 348 398 C 358 354 375 317 398 286 C 420 255 449 231 485 214 C 520 196 562 188 610 188 Z" unicode="ó" />
<glyph horiz-adv-x="1221" d="M 80 0 L 80 0 Z M 258 1202 L 522 1542 L 696 1542 L 960 1202 L 813 1202 L 606 1374 L 403 1202 L 258 1202 Z M 610 -23 C 544 -23 479 -12 415 9 C 351 31 295 64 246 110 C 196 156 156 214 126 286 C 95 358 80 443 80 543 C 80 642 95 727 125 799 C 155 871 195 929 245 975 C 294 1020 351 1053 415 1075 C 479 1097 544 1108 610 1108 C 676 1108 740 1097 804 1075 C 867 1053 923 1020 973 975 C 1023 929 1063 871 1093 799 C 1123 727 1139 642 1139 543 C 1139 443 1123 358 1093 286 C 1063 214 1023 156 973 110 C 923 64 867 31 804 9 C 740 -12 676 -23 610 -23 Z M 610 188 C 655 188 695 196 730 214 C 765 231 794 255 818 286 C 841 317 859 354 871 398 C 883 442 889 489 889 541 C 889 591 883 637 872 680 C 860 723 843 760 821 792 C 798 823 769 848 734 866 C 698 884 657 893 610 893 C 564 893 524 884 490 868 C 455 851 426 827 403 797 C 379 767 362 730 350 686 C 338 642 332 594 332 541 C 332 489 337 442 348 398 C 358 354 375 317 398 286 C 420 255 449 231 485 214 C 520 196 562 188 610 188 Z" unicode="ô" />
<glyph horiz-adv-x="1221" d="M 80 0 L 80 0 Z M 610 -23 C 544 -23 479 -12 415 9 C 351 31 295 64 246 110 C 196 156 156 214 126 286 C 95 358 80 443 80 543 C 80 642 95 727 125 799 C 155 871 195 929 245 975 C 294 1020 351 1053 415 1075 C 479 1097 544 1108 610 1108 C 676 1108 740 1097 804 1075 C 867 1053 923 1020 973 975 C 1023 929 1063 871 1093 799 C 1123 727 1139 642 1139 543 C 1139 443 1123 358 1093 286 C 1063 214 1023 156 973 110 C 923 64 867 31 804 9 C 740 -12 676 -23 610 -23 Z M 610 188 C 655 188 695 196 730 214 C 765 231 794 255 818 286 C 841 317 859 354 871 398 C 883 442 889 489 889 541 C 889 591 883 637 872 680 C 860 723 843 760 821 792 C 798 823 769 848 734 866 C 698 884 657 893 610 893 C 564 893 524 884 490 868 C 455 851 426 827 403 797 C 379 767 362 730 350 686 C 338 642 332 594 332 541 C 332 489 337 442 348 398 C 358 354 375 317 398 286 C 420 255 449 231 485 214 C 520 196 562 188 610 188 Z M 766 1188 C 732 1188 702 1194 674 1206 C 646 1218 621 1231 598 1245 C 574 1259 552 1273 530 1285 C 508 1297 487 1303 465 1303 C 437 1303 417 1293 403 1275 C 389 1256 383 1224 385 1180 L 242 1204 C 242 1293 261 1361 300 1407 C 338 1453 391 1477 457 1477 C 490 1477 520 1471 548 1459 C 576 1447 601 1433 625 1419 C 648 1405 670 1392 692 1380 C 714 1368 736 1362 758 1362 C 785 1362 806 1371 820 1389 C 834 1407 840 1439 840 1483 L 979 1460 C 979 1370 960 1303 922 1257 C 884 1211 832 1188 766 1188 Z" unicode="õ" />
<glyph horiz-adv-x="1221" d="M 80 0 L 80 0 Z M 809 1182 C 768 1182 736 1195 714 1222 C 691 1249 680 1282 680 1321 C 680 1359 691 1391 714 1417 C 736 1443 768 1456 809 1456 C 851 1456 884 1443 907 1417 C 930 1391 942 1359 942 1321 C 942 1282 930 1249 907 1222 C 884 1195 851 1182 809 1182 Z M 404 1182 C 362 1182 330 1195 308 1222 C 286 1249 275 1282 275 1321 C 275 1359 286 1391 308 1417 C 330 1443 362 1456 404 1456 C 446 1456 479 1443 501 1417 C 523 1391 535 1359 535 1321 C 535 1282 523 1249 501 1222 C 479 1195 446 1182 404 1182 Z M 610 -23 C 544 -23 479 -12 415 9 C 351 31 295 64 246 110 C 196 156 156 214 126 286 C 95 358 80 443 80 543 C 80 642 95 727 125 799 C 155 871 195 929 245 975 C 294 1020 351 1053 415 1075 C 479 1097 544 1108 610 1108 C 676 1108 740 1097 804 1075 C 867 1053 923 1020 973 975 C 1023 929 1063 871 1093 799 C 1123 727 1139 642 1139 543 C 1139 443 1123 358 1093 286 C 1063 214 1023 156 973 110 C 923 64 867 31 804 9 C 740 -12 676 -23 610 -23 Z M 610 188 C 655 188 695 196 730 214 C 765 231 794 255 818 286 C 841 317 859 354 871 398 C 883 442 889 489 889 541 C 889 591 883 637 872 680 C 860 723 843 760 821 792 C 798 823 769 848 734 866 C 698 884 657 893 610 893 C 564 893 524 884 490 868 C 455 851 426 827 403 797 C 379 767 362 730 350 686 C 338 642 332 594 332 541 C 332 489 337 442 348 398 C 358 354 375 317 398 286 C 420 255 449 231 485 214 C 520 196 562 188 610 188 Z" unicode="ö" />
<glyph horiz-adv-x="1315" d="M 653 952 C 611 952 578 964 556 989 C 533 1013 522 1043 522 1079 C 522 1115 533 1144 556 1168 C 578 1192 611 1204 653 1204 C 695 1204 727 1192 751 1168 C 774 1144 786 1115 786 1079 C 786 1043 774 1013 751 989 C 727 964 695 952 653 952 Z M 1180 598 L 135 598 L 135 801 L 1180 801 L 1180 598 Z M 653 186 C 611 186 578 198 556 223 C 533 247 522 277 522 313 C 522 349 533 380 556 404 C 578 428 611 440 653 440 C 695 440 727 428 751 404 C 774 380 786 349 786 313 C 786 277 774 247 751 223 C 727 198 695 186 653 186 Z" unicode="÷" />
<glyph horiz-adv-x="1221" d="M 365 340 L 778 850 C 756 867 731 880 703 890 C 675 900 644 905 610 905 C 564 905 523 896 488 879 C 452 862 423 838 400 807 C 376 775 358 737 346 692 C 334 647 328 597 328 543 C 328 505 331 468 337 434 C 343 400 352 368 365 340 Z M 860 735 L 446 227 C 466 211 490 198 518 188 C 546 178 576 174 610 174 C 656 174 696 182 732 200 C 767 217 796 242 820 274 C 844 306 862 344 874 390 C 886 436 893 487 893 543 C 893 578 890 612 885 645 C 879 677 871 707 860 735 Z M 1141 1055 L 1026 922 C 1060 876 1088 822 1109 759 C 1130 696 1141 624 1141 543 C 1141 443 1125 358 1095 286 C 1064 214 1024 156 974 110 C 924 64 868 31 804 9 C 740 -12 676 -23 610 -23 C 557 -23 505 -16 453 -2 C 401 11 353 32 309 61 L 188 -78 L 82 20 L 201 158 C 164 204 135 259 113 323 C 91 387 80 460 80 543 C 80 643 95 728 125 800 C 155 872 195 930 245 976 C 294 1021 351 1054 415 1076 C 479 1097 544 1108 610 1108 C 664 1108 717 1101 770 1087 C 823 1073 872 1050 918 1020 L 1032 1155 L 1141 1055 Z" unicode="ø" />
<glyph horiz-adv-x="1235" d="M 131 0 L 131 0 Z M 453 -23 C 353 -23 275 3 217 56 C 159 108 131 188 131 295 L 131 1085 L 383 1085 L 383 362 C 383 305 395 262 421 233 C 447 204 489 190 547 190 C 601 190 652 203 700 230 C 748 256 795 291 842 334 L 842 1085 L 1094 1085 L 1094 0 L 862 0 L 842 152 C 822 130 798 109 772 88 C 746 66 716 47 684 31 C 652 15 616 2 577 -8 C 538 -18 497 -23 453 -23 Z M 578 1202 L 283 1542 L 553 1542 L 743 1202 L 578 1202 Z" unicode="ù" />
<glyph horiz-adv-x="1235" d="M 131 0 L 131 0 Z M 478 1202 L 668 1542 L 940 1542 L 643 1202 L 478 1202 Z M 453 -23 C 353 -23 275 3 217 56 C 159 108 131 188 131 295 L 131 1085 L 383 1085 L 383 362 C 383 305 395 262 421 233 C 447 204 489 190 547 190 C 601 190 652 203 700 230 C 748 256 795 291 842 334 L 842 1085 L 1094 1085 L 1094 0 L 862 0 L 842 152 C 822 130 798 109 772 88 C 746 66 716 47 684 31 C 652 15 616 2 577 -8 C 538 -18 497 -23 453 -23 Z" unicode="ú" />
<glyph horiz-adv-x="1235" d="M 131 0 L 131 0 Z M 260 1202 L 524 1542 L 698 1542 L 962 1202 L 815 1202 L 608 1374 L 405 1202 L 260 1202 Z M 453 -23 C 353 -23 275 3 217 56 C 159 108 131 188 131 295 L 131 1085 L 383 1085 L 383 362 C 383 305 395 262 421 233 C 447 204 489 190 547 190 C 601 190 652 203 700 230 C 748 256 795 291 842 334 L 842 1085 L 1094 1085 L 1094 0 L 862 0 L 842 152 C 822 130 798 109 772 88 C 746 66 716 47 684 31 C 652 15 616 2 577 -8 C 538 -18 497 -23 453 -23 Z" unicode="û" />
<glyph horiz-adv-x="1235" d="M 131 0 L 131 0 Z M 813 1182 C 772 1182 740 1195 718 1222 C 695 1249 684 1282 684 1321 C 684 1359 695 1391 718 1417 C 740 1443 772 1456 813 1456 C 855 1456 888 1443 911 1417 C 934 1391 946 1359 946 1321 C 946 1282 934 1249 911 1222 C 888 1195 855 1182 813 1182 Z M 408 1182 C 366 1182 334 1195 312 1222 C 290 1249 279 1282 279 1321 C 279 1359 290 1391 312 1417 C 334 1443 366 1456 408 1456 C 450 1456 483 1443 505 1417 C 527 1391 539 1359 539 1321 C 539 1282 527 1249 505 1222 C 483 1195 450 1182 408 1182 Z M 453 -23 C 353 -23 275 3 217 56 C 159 108 131 188 131 295 L 131 1085 L 383 1085 L 383 362 C 383 305 395 262 421 233 C 447 204 489 190 547 190 C 601 190 652 203 700 230 C 748 256 795 291 842 334 L 842 1085 L 1094 1085 L 1094 0 L 862 0 L 842 152 C 822 130 798 109 772 88 C 746 66 716 47 684 31 C 652 15 616 2 577 -8 C 538 -18 497 -23 453 -23 Z" unicode="ü" />
<glyph horiz-adv-x="1118" d="M 33 0 L 33 0 Z M 256 -416 C 221 -416 189 -414 159 -412 C 129 -410 102 -405 78 -399 L 59 -188 C 81 -194 108 -200 138 -204 C 168 -208 201 -211 238 -211 C 284 -211 320 -201 346 -181 C 372 -161 394 -130 412 -86 L 442 -6 L 33 1067 L 281 1106 L 565 295 L 569 295 L 850 1085 L 1098 1085 L 637 -119 C 618 -166 598 -208 576 -245 C 554 -282 528 -313 499 -338 C 469 -363 435 -382 395 -396 C 355 -409 309 -416 256 -416 Z M 416 1202 L 606 1542 L 878 1542 L 581 1202 L 416 1202 Z" unicode="ý" />
<glyph horiz-adv-x="1251" d="M 662 182 C 739 182 801 212 848 273 C 894 333 918 423 918 543 C 918 655 894 741 848 802 C 801 862 737 893 657 893 C 605 893 557 880 514 854 C 471 828 431 796 393 758 L 393 313 C 437 270 479 237 521 215 C 563 193 610 182 662 182 Z M 393 -391 L 141 -428 L 141 1497 L 393 1534 L 393 944 C 429 988 475 1027 533 1059 C 590 1091 659 1108 739 1108 C 801 1108 858 1096 911 1073 C 963 1049 1009 1014 1047 968 C 1085 921 1114 862 1136 792 C 1158 721 1169 639 1169 545 C 1169 451 1157 368 1135 298 C 1113 228 1082 169 1043 123 C 1004 77 958 42 905 19 C 852 -4 795 -16 735 -16 C 661 -16 596 -4 539 18 C 482 40 433 74 393 119 L 393 -391 Z" unicode="þ" />
<glyph horiz-adv-x="1118" d="M 33 0 L 33 0 Z M 256 -416 C 221 -416 189 -414 159 -412 C 129 -410 102 -405 78 -399 L 59 -188 C 81 -194 108 -200 138 -204 C 168 -208 201 -211 238 -211 C 284 -211 320 -201 346 -181 C 372 -161 394 -130 412 -86 L 442 -6 L 33 1067 L 281 1106 L 565 295 L 569 295 L 850 1085 L 1098 1085 L 637 -119 C 618 -166 598 -208 576 -245 C 554 -282 528 -313 499 -338 C 469 -363 435 -382 395 -396 C 355 -409 309 -416 256 -416 Z M 768 1182 C 727 1182 695 1195 673 1222 C 650 1249 639 1282 639 1321 C 639 1359 650 1391 673 1417 C 695 1443 727 1456 768 1456 C 810 1456 843 1443 866 1417 C 889 1391 901 1359 901 1321 C 901 1282 889 1249 866 1222 C 843 1195 810 1182 768 1182 Z M 363 1182 C 321 1182 289 1195 267 1222 C 245 1249 234 1282 234 1321 C 234 1359 245 1391 267 1417 C 289 1443 321 1456 363 1456 C 405 1456 438 1443 460 1417 C 482 1391 494 1359 494 1321 C 494 1282 482 1249 460 1222 C 438 1195 405 1182 363 1182 Z" unicode="ÿ" />
<glyph horiz-adv-x="1425" d="" unicode="Ā" />
<glyph horiz-adv-x="1157" d="" unicode="ā" />
<glyph horiz-adv-x="1425" d="" unicode="Ă" />
<glyph horiz-adv-x="1157" d="" unicode="ă" />
<glyph horiz-adv-x="1425" d="" unicode="Ą" />
<glyph horiz-adv-x="1157" d="" unicode="ą" />
<glyph horiz-adv-x="1468" d="" unicode="Ć" />
<glyph horiz-adv-x="1116" d="" unicode="ć" />
<glyph horiz-adv-x="1468" d="" unicode="Ĉ" />
<glyph horiz-adv-x="1116" d="" unicode="ĉ" />
<glyph horiz-adv-x="1468" d="" unicode="Ċ" />
<glyph horiz-adv-x="1116" d="" unicode="ċ" />
<glyph horiz-adv-x="1468" d="" unicode="Č" />
<glyph horiz-adv-x="1116" d="" unicode="č" />
<glyph horiz-adv-x="1489" d="" unicode="Ď" />
<glyph horiz-adv-x="1251" d="" unicode="ď" />
<glyph horiz-adv-x="1489" d="" unicode="Đ" />
<glyph horiz-adv-x="1251" d="" unicode="đ" />
<glyph horiz-adv-x="1272" d="" unicode="Ē" />
<glyph horiz-adv-x="1155" d="" unicode="ē" />
<glyph horiz-adv-x="1272" d="" unicode="Ĕ" />
<glyph horiz-adv-x="1155" d="" unicode="ĕ" />
<glyph horiz-adv-x="1272" d="" unicode="Ė" />
<glyph horiz-adv-x="1155" d="" unicode="ė" />
<glyph horiz-adv-x="1272" d="" unicode="Ę" />
<glyph horiz-adv-x="1155" d="" unicode="ę" />
<glyph horiz-adv-x="1272" d="" unicode="Ě" />
<glyph horiz-adv-x="1155" d="" unicode="ě" />
<glyph horiz-adv-x="1526" d="" unicode="Ĝ" />
<glyph horiz-adv-x="1219" d="" unicode="ĝ" />
<glyph horiz-adv-x="1526" d="" unicode="Ğ" />
<glyph horiz-adv-x="1219" d="" unicode="ğ" />
<glyph horiz-adv-x="1526" d="" unicode="Ġ" />
<glyph horiz-adv-x="1219" d="" unicode="ġ" />
<glyph horiz-adv-x="1526" d="" unicode="Ģ" />
<glyph horiz-adv-x="1219" d="" unicode="ģ" />
<glyph horiz-adv-x="1544" d="" unicode="Ĥ" />
<glyph horiz-adv-x="1235" d="" unicode="ĥ" />
<glyph horiz-adv-x="1544" d="" unicode="Ħ" />
<glyph horiz-adv-x="1235" d="" unicode="ħ" />
<glyph horiz-adv-x="635" d="" unicode="Ĩ" />
<glyph horiz-adv-x="557" d="" unicode="ĩ" />
<glyph horiz-adv-x="635" d="" unicode="Ī" />
<glyph horiz-adv-x="557" d="" unicode="ī" />
<glyph horiz-adv-x="635" d="" unicode="Ĭ" />
<glyph horiz-adv-x="557" d="" unicode="ĭ" />
<glyph horiz-adv-x="635" d="" unicode="Į" />
<glyph horiz-adv-x="557" d="" unicode="į" />
<glyph horiz-adv-x="635" d="" unicode="İ" />
<glyph horiz-adv-x="557" d="M 403 0 L 154 0 L 154 1085 L 403 1085 L 403 0 Z" unicode="ı" />
<glyph horiz-adv-x="1618" d="" unicode="Ĳ" />
<glyph horiz-adv-x="1114" d="" unicode="ĳ" />
<glyph horiz-adv-x="1065" d="" unicode="Ĵ" />
<glyph horiz-adv-x="557" d="" unicode="ĵ" />
<glyph horiz-adv-x="1427" d="" unicode="Ķ" />
<glyph horiz-adv-x="1151" d="" unicode="ķ" />
<glyph horiz-adv-x="1151" d="" unicode="ĸ" />
<glyph horiz-adv-x="1182" d="" unicode="Ĺ" />
<glyph horiz-adv-x="557" d="" unicode="ĺ" />
<glyph horiz-adv-x="1182" d="" unicode="Ļ" />
<glyph horiz-adv-x="557" d="" unicode="ļ" />
<glyph horiz-adv-x="1182" d="" unicode="Ľ" />
<glyph horiz-adv-x="557" d="" unicode="ľ" />
<glyph horiz-adv-x="1233" d="" unicode="Ŀ" />
<glyph horiz-adv-x="809" d="" unicode="ŀ" />
<glyph horiz-adv-x="1182" d="" unicode="Ł" />
<glyph horiz-adv-x="655" d="" unicode="ł" />
<glyph horiz-adv-x="1563" d="" unicode="Ń" />
<glyph horiz-adv-x="1235" d="" unicode="ń" />
<glyph horiz-adv-x="1563" d="" unicode="Ņ" />
<glyph horiz-adv-x="1235" d="" unicode="ņ" />
<glyph horiz-adv-x="1563" d="" unicode="Ň" />
<glyph horiz-adv-x="1235" d="" unicode="ň" />
<glyph horiz-adv-x="1563" d="" unicode="Ŋ" />
<glyph horiz-adv-x="1235" d="" unicode="ŋ" />
<glyph horiz-adv-x="1565" d="" unicode="Ō" />
<glyph horiz-adv-x="1221" d="" unicode="ō" />
<glyph horiz-adv-x="1565" d="" unicode="Ŏ" />
<glyph horiz-adv-x="1221" d="" unicode="ŏ" />
<glyph horiz-adv-x="1565" d="" unicode="Ő" />
<glyph horiz-adv-x="1221" d="" unicode="ő" />
<glyph horiz-adv-x="2304" d="M 782 201 C 845 201 903 214 955 240 C 1007 266 1052 302 1089 350 C 1126 398 1155 456 1175 526 C 1195 595 1206 672 1206 758 C 1206 843 1195 920 1175 988 C 1155 1056 1126 1114 1089 1162 C 1052 1209 1007 1245 955 1271 C 903 1296 845 1309 782 1309 C 718 1309 659 1296 606 1271 C 552 1245 507 1209 470 1162 C 432 1114 403 1056 383 988 C 362 920 352 843 352 758 C 352 672 362 595 383 526 C 403 456 432 398 470 350 C 507 302 552 266 606 240 C 659 214 718 201 782 201 Z M 770 -29 C 679 -29 593 -11 511 22 C 429 56 358 107 297 173 C 236 239 188 322 152 420 C 116 518 98 631 98 758 C 98 884 116 997 153 1095 C 190 1193 240 1276 302 1342 C 364 1408 437 1458 520 1492 C 603 1526 690 1544 782 1544 C 877 1544 963 1523 1039 1483 C 1115 1443 1179 1388 1229 1319 L 1229 1516 L 2185 1516 L 2185 1278 L 1460 1278 L 1460 901 L 1972 901 L 2011 674 L 1460 674 L 1460 231 L 2224 231 L 2224 0 L 1229 0 L 1229 219 C 1202 183 1172 149 1140 119 C 1108 88 1073 62 1035 40 C 997 18 956 1 912 -10 C 868 -22 820 -29 770 -29 Z" unicode="Œ" />
<glyph horiz-adv-x="1946" d="M 608 -23 C 542 -23 477 -12 414 9 C 350 31 294 64 245 110 C 195 156 155 214 125 286 C 95 358 80 443 80 543 C 80 642 95 727 125 799 C 155 871 195 929 244 975 C 293 1020 349 1053 413 1075 C 477 1097 542 1108 608 1108 C 692 1108 770 1089 840 1052 C 910 1014 964 960 1004 889 C 1024 925 1049 956 1077 984 C 1105 1011 1136 1034 1170 1052 C 1204 1070 1239 1084 1277 1094 C 1315 1103 1353 1108 1391 1108 C 1451 1108 1509 1098 1567 1078 C 1624 1058 1675 1026 1719 980 C 1763 934 1798 874 1825 798 C 1852 722 1866 630 1866 520 L 1866 471 L 1126 471 C 1128 416 1138 370 1154 333 C 1170 295 1191 265 1217 242 C 1243 219 1273 203 1308 193 C 1343 183 1381 178 1421 178 C 1487 178 1548 191 1605 217 C 1662 243 1712 277 1755 317 L 1855 152 C 1793 94 1725 50 1651 21 C 1577 -8 1494 -23 1403 -23 C 1361 -23 1319 -18 1279 -9 C 1239 0 1201 13 1167 31 C 1132 49 1100 71 1071 98 C 1042 124 1018 155 999 190 C 980 155 957 124 929 98 C 901 71 871 49 838 31 C 804 13 768 0 729 -9 C 690 -18 650 -23 608 -23 Z M 1128 649 L 1636 649 C 1628 736 1603 800 1563 840 C 1522 880 1464 901 1389 901 C 1358 901 1328 897 1300 889 C 1271 881 1245 867 1222 848 C 1199 828 1179 802 1163 770 C 1146 738 1134 697 1128 649 Z M 608 186 C 699 186 768 217 814 280 C 860 342 883 429 883 541 C 883 591 877 638 867 682 C 856 725 840 762 818 794 C 796 826 767 850 732 868 C 697 886 656 895 608 895 C 517 895 448 863 402 800 C 355 737 332 651 332 541 C 332 490 337 443 348 399 C 358 355 375 318 397 287 C 419 255 448 231 483 213 C 518 195 560 186 608 186 Z" unicode="œ" />
<glyph horiz-adv-x="1415" d="" unicode="Ŕ" />
<glyph horiz-adv-x="842" d="" unicode="ŕ" />
<glyph horiz-adv-x="1415" d="" unicode="Ŗ" />
<glyph horiz-adv-x="842" d="" unicode="ŗ" />
<glyph horiz-adv-x="1415" d="" unicode="Ř" />
<glyph horiz-adv-x="842" d="" unicode="ř" />
<glyph horiz-adv-x="1380" d="" unicode="Ś" />
<glyph horiz-adv-x="1071" d="" unicode="ś" />
<glyph horiz-adv-x="1380" d="" unicode="Ŝ" />
<glyph horiz-adv-x="1071" d="" unicode="ŝ" />
<glyph horiz-adv-x="1380" d="" unicode="Ş" />
<glyph horiz-adv-x="1071" d="" unicode="ş" />
<glyph horiz-adv-x="1380" d="M 74 0 L 74 0 Z M 602 1620 L 338 1960 L 485 1960 L 690 1788 L 895 1960 L 1040 1960 L 776 1620 L 602 1620 Z M 713 -29 C 645 -29 580 -22 519 -9 C 458 4 401 22 348 45 C 295 68 246 95 200 127 C 154 159 112 193 74 229 L 211 424 C 240 394 273 365 311 338 C 349 310 389 286 432 266 C 474 245 519 229 565 217 C 611 205 658 199 705 199 C 752 199 795 203 835 211 C 874 219 908 232 936 248 C 964 264 985 284 1001 309 C 1016 333 1024 362 1024 395 C 1024 428 1017 457 1005 483 C 992 508 972 531 945 552 C 917 572 881 592 837 610 C 793 628 740 647 678 666 C 605 687 536 709 472 732 C 408 755 352 783 305 816 C 257 848 220 889 193 937 C 165 985 152 1046 152 1118 C 152 1182 164 1240 190 1292 C 215 1344 250 1389 296 1427 C 341 1464 395 1493 459 1513 C 523 1533 592 1544 668 1544 C 725 1544 780 1538 833 1527 C 886 1515 936 1500 983 1480 C 1030 1460 1075 1437 1117 1411 C 1159 1384 1197 1356 1233 1327 L 1112 1122 C 1082 1148 1049 1173 1014 1197 C 979 1220 943 1240 906 1257 C 868 1274 830 1288 790 1298 C 750 1308 711 1313 672 1313 C 586 1313 520 1296 472 1263 C 424 1229 401 1188 401 1139 C 401 1103 408 1073 422 1048 C 436 1022 457 1000 486 981 C 515 961 552 943 597 927 C 642 910 696 892 758 874 C 829 853 896 831 959 807 C 1022 783 1077 753 1123 719 C 1169 684 1206 642 1233 593 C 1260 543 1274 483 1274 412 C 1274 350 1261 293 1237 239 C 1212 185 1176 139 1128 99 C 1080 59 1022 28 952 5 C 882 -17 802 -29 713 -29 Z" unicode="Š" />
<glyph horiz-adv-x="1071" d="M 68 0 L 68 0 Z M 449 1206 L 185 1546 L 332 1546 L 537 1374 L 742 1546 L 887 1546 L 623 1206 L 449 1206 Z M 537 -20 C 485 -20 436 -15 390 -6 C 344 2 301 14 263 30 C 224 45 188 63 156 84 C 123 104 94 126 68 150 L 164 319 C 212 277 269 242 335 214 C 400 186 468 172 539 172 C 606 172 659 182 698 203 C 736 223 756 253 756 291 C 756 334 737 366 701 387 C 664 408 601 428 512 446 C 454 458 401 471 351 487 C 301 502 258 522 222 547 C 186 572 157 604 137 643 C 116 681 106 730 106 788 C 106 836 115 879 135 919 C 154 959 181 992 216 1020 C 250 1048 292 1069 342 1085 C 391 1100 446 1108 506 1108 C 602 1108 685 1095 755 1070 C 825 1044 888 1011 946 971 L 858 793 C 807 829 753 857 696 878 C 639 898 582 909 524 909 C 462 909 417 898 387 878 C 357 858 342 831 342 799 C 342 763 358 735 392 715 C 425 695 482 676 563 659 C 623 647 680 633 733 618 C 785 603 831 583 869 559 C 907 534 938 503 960 465 C 982 427 993 380 993 324 C 993 264 980 213 956 170 C 932 126 899 91 858 63 C 817 35 769 14 713 0 C 657 -13 599 -20 537 -20 Z" unicode="š" />
<glyph horiz-adv-x="1300" d="" unicode="Ť" />
<glyph horiz-adv-x="821" d="" unicode="ť" />
<glyph horiz-adv-x="1300" d="" unicode="Ŧ" />
<glyph horiz-adv-x="821" d="" unicode="ŧ" />
<glyph horiz-adv-x="1477" d="" unicode="Ũ" />
<glyph horiz-adv-x="1235" d="" unicode="ũ" />
<glyph horiz-adv-x="1477" d="" unicode="Ū" />
<glyph horiz-adv-x="1235" d="" unicode="ū" />
<glyph horiz-adv-x="1477" d="" unicode="Ŭ" />
<glyph horiz-adv-x="1235" d="" unicode="ŭ" />
<glyph horiz-adv-x="1477" d="" unicode="Ů" />
<glyph horiz-adv-x="1235" d="" unicode="ů" />
<glyph horiz-adv-x="1477" d="" unicode="Ű" />
<glyph horiz-adv-x="1235" d="" unicode="ű" />
<glyph horiz-adv-x="1477" d="" unicode="Ų" />
<glyph horiz-adv-x="1235" d="" unicode="ų" />
<glyph horiz-adv-x="1931" d="" unicode="Ŵ" />
<glyph horiz-adv-x="1565" d="" unicode="ŵ" />
<glyph horiz-adv-x="1354" d="" unicode="Ŷ" />
<glyph horiz-adv-x="1118" d="" unicode="ŷ" />
<glyph horiz-adv-x="1354" d="M 43 0 L 43 0 Z M 803 0 L 549 0 L 549 653 L 43 1495 L 287 1536 L 678 870 L 1059 1516 L 1321 1516 L 803 653 L 803 0 Z M 878 1585 C 837 1585 805 1598 783 1625 C 760 1652 749 1685 749 1724 C 749 1762 760 1794 783 1820 C 805 1846 837 1859 878 1859 C 920 1859 953 1846 976 1820 C 999 1794 1011 1762 1011 1724 C 1011 1685 999 1652 976 1625 C 953 1598 920 1585 878 1585 Z M 473 1585 C 431 1585 399 1598 377 1625 C 355 1652 344 1685 344 1724 C 344 1762 355 1794 377 1820 C 399 1846 431 1859 473 1859 C 515 1859 548 1846 570 1820 C 592 1794 604 1762 604 1724 C 604 1685 592 1652 570 1625 C 548 1598 515 1585 473 1585 Z" unicode="Ÿ" />
<glyph horiz-adv-x="1321" d="" unicode="Ź" />
<glyph horiz-adv-x="1065" d="" unicode="ź" />
<glyph horiz-adv-x="1321" d="" unicode="Ż" />
<glyph horiz-adv-x="1065" d="" unicode="ż" />
<glyph horiz-adv-x="1321" d="M 72 0 L 72 0 Z M 582 1620 L 318 1960 L 465 1960 L 670 1788 L 875 1960 L 1020 1960 L 756 1620 L 582 1620 Z M 1249 0 L 72 0 L 72 178 L 911 1303 L 145 1303 L 106 1516 L 1231 1516 L 1231 1333 L 401 209 L 1210 209 L 1249 0 Z" unicode="Ž" />
<glyph horiz-adv-x="1065" d="M 70 0 L 70 0 Z M 451 1206 L 187 1546 L 334 1546 L 539 1374 L 744 1546 L 889 1546 L 625 1206 L 451 1206 Z M 1016 0 L 70 0 L 70 145 L 651 887 L 131 887 L 98 1085 L 965 1085 L 965 936 L 381 195 L 983 195 L 1016 0 Z" unicode="ž" />
<glyph horiz-adv-x="786" d="M -188 -403 L -166 -227 C -158 -229 -145 -230 -129 -231 C -112 -232 -96 -233 -82 -233 C -30 -233 12 -220 45 -196 C 77 -171 97 -130 104 -72 L 223 813 L 35 813 L 57 995 L 246 995 L 272 1198 C 278 1244 288 1287 304 1327 C 320 1367 343 1401 373 1430 C 403 1458 442 1481 490 1497 C 538 1513 596 1522 666 1522 C 678 1522 691 1521 707 1520 C 723 1519 738 1518 752 1517 C 766 1515 779 1514 791 1513 C 802 1512 810 1511 815 1511 L 791 1329 C 782 1331 769 1332 753 1333 C 736 1334 721 1335 707 1335 C 661 1335 621 1326 586 1308 C 550 1290 529 1252 522 1194 L 498 995 L 735 995 L 713 813 L 475 813 L 350 -113 C 344 -155 334 -194 319 -231 C 303 -268 281 -300 251 -327 C 221 -354 183 -375 135 -391 C 87 -406 29 -414 -41 -414 C -53 -414 -66 -413 -82 -413 C -97 -412 -112 -411 -126 -410 C -140 -409 -153 -408 -165 -407 C -176 -405 -184 -404 -188 -403 Z" unicode="ƒ" />
<glyph horiz-adv-x="1380" d="" unicode="Ș" />
<glyph horiz-adv-x="1071" d="" unicode="ș" />
<glyph horiz-adv-x="1300" d="" unicode="Ț" />
<glyph horiz-adv-x="821" d="" unicode="ț" />
<glyph horiz-adv-x="1155" d="" unicode="ə" />
<glyph horiz-adv-x="565" d="" unicode="ʻ" />
<glyph horiz-adv-x="565" d="" unicode="ʼ" />
<glyph horiz-adv-x="1096" d="M 197 1202 L 461 1542 L 635 1542 L 899 1202 L 752 1202 L 545 1374 L 342 1202 L 197 1202 Z" unicode="ˆ" />
<glyph horiz-adv-x="1096" d="M 461 1206 L 197 1546 L 344 1546 L 549 1374 L 754 1546 L 899 1546 L 635 1206 L 461 1206 Z" unicode="ˇ" />
<glyph horiz-adv-x="1024" d="" unicode="ˉ" />
<glyph horiz-adv-x="1024" d="" unicode="˘" />
<glyph horiz-adv-x="1024" d="" unicode="˙" />
<glyph horiz-adv-x="1106" d="M 553 1186 C 523 1186 495 1191 469 1202 C 443 1212 421 1227 403 1246 C 384 1264 369 1286 359 1312 C 349 1338 344 1365 344 1395 C 344 1423 349 1450 359 1476 C 369 1501 384 1523 403 1542 C 421 1560 443 1575 469 1586 C 495 1596 523 1602 553 1602 C 583 1602 610 1596 636 1586 C 662 1575 684 1560 703 1542 C 721 1523 736 1501 746 1476 C 756 1450 762 1423 762 1395 C 762 1365 756 1338 746 1312 C 736 1286 721 1264 703 1246 C 684 1227 662 1212 636 1202 C 610 1191 583 1186 553 1186 Z M 553 1288 C 582 1288 606 1298 625 1318 C 643 1338 653 1364 653 1395 C 653 1424 643 1449 625 1469 C 606 1489 582 1499 553 1499 C 523 1499 499 1489 481 1469 C 462 1449 453 1424 453 1395 C 453 1364 462 1338 481 1318 C 499 1298 523 1288 553 1288 Z" unicode="˚" />
<glyph horiz-adv-x="1024" d="" unicode="˛" />
<glyph horiz-adv-x="1055" d="M 682 1188 C 648 1188 618 1194 590 1206 C 562 1218 537 1231 514 1245 C 490 1259 468 1273 446 1285 C 424 1297 403 1303 381 1303 C 353 1303 333 1293 319 1275 C 305 1256 299 1224 301 1180 L 158 1204 C 158 1293 177 1361 216 1407 C 254 1453 307 1477 373 1477 C 406 1477 436 1471 464 1459 C 492 1447 517 1433 541 1419 C 564 1405 586 1392 608 1380 C 630 1368 652 1362 674 1362 C 701 1362 722 1371 736 1389 C 750 1407 756 1439 756 1483 L 895 1460 C 895 1370 876 1303 838 1257 C 800 1211 748 1188 682 1188 Z" unicode="˜" />
<glyph horiz-adv-x="1059" d="" unicode="˝" />
<glyph horiz-adv-x="1421" d="" unicode="Δ" />
<glyph horiz-adv-x="1561" d="" unicode="Ω" />
<glyph horiz-adv-x="1245" d="M 393 -410 L 141 -410 L 141 1085 L 393 1085 L 393 367 C 393 307 405 262 431 232 C 457 201 499 186 557 186 C 611 186 662 199 710 225 C 758 251 805 285 852 328 L 852 1085 L 1104 1085 L 1104 0 L 852 0 L 852 172 C 833 151 812 131 790 111 C 767 91 743 74 717 58 C 691 42 664 28 635 16 C 605 4 574 -3 541 -8 C 511 -10 483 -8 458 -4 C 433 0 411 10 393 27 L 393 -410 Z" unicode="μ" />
<glyph horiz-adv-x="1368" d="" unicode="π" />
<glyph horiz-adv-x="1931" d="" unicode="Ẁ" />
<glyph horiz-adv-x="1565" d="" unicode="ẁ" />
<glyph horiz-adv-x="1931" d="" unicode="Ẃ" />
<glyph horiz-adv-x="1565" d="" unicode="ẃ" />
<glyph horiz-adv-x="1931" d="" unicode="Ẅ" />
<glyph horiz-adv-x="1565" d="" unicode="ẅ" />
<glyph horiz-adv-x="1354" d="" unicode="Ỳ" />
<glyph horiz-adv-x="1118" d="" unicode="ỳ" />
<glyph horiz-adv-x="1024" d="" unicode=" " />
<glyph horiz-adv-x="2048" d="" unicode=" " />
<glyph horiz-adv-x="1024" d="" unicode=" " />
<glyph horiz-adv-x="2048" d="" unicode=" " />
<glyph horiz-adv-x="682" d="" unicode=" " />
<glyph horiz-adv-x="512" d="" unicode=" " />
<glyph horiz-adv-x="1331" d="" unicode=" " />
<glyph horiz-adv-x="410" d="" unicode=" " />
<glyph horiz-adv-x="205" d="" unicode=" " />
<glyph horiz-adv-x="0" d="" unicode="​" />
<glyph horiz-adv-x="731" d="M 618 553 L 113 553 L 113 733 L 618 733 L 618 553 Z" unicode="‐" />
<glyph horiz-adv-x="731" d="M 618 553 L 113 553 L 113 733 L 618 733 L 618 553 Z" unicode="‑" />
<glyph horiz-adv-x="1331" d="M 106 532 L 106 748 L 1225 748 L 1225 532 L 106 532 Z" unicode="‒" />
<glyph horiz-adv-x="1362" d="M 1239 532 L 123 532 L 123 748 L 1239 748 L 1239 532 Z" unicode="–" />
<glyph horiz-adv-x="1915" d="M 1792 530 L 123 530 L 123 748 L 1792 748 L 1792 530 Z" unicode="—" />
<glyph horiz-adv-x="2048" d="M 0 530 L 0 748 L 2048 748 L 2048 530 L 0 530 Z" unicode="―" />
<glyph horiz-adv-x="565" d="M 309 1516 L 459 1516 L 406 1020 L 125 1020 L 309 1516 Z" unicode="‘" />
<glyph horiz-adv-x="565" d="M 274 1020 L 125 1020 L 180 1516 L 459 1516 L 274 1020 Z" unicode="’" />
<glyph horiz-adv-x="565" d="M 113 0 L 113 0 Z M 262 -229 L 113 -229 L 166 266 L 446 266 L 262 -229 Z" unicode="‚" />
<glyph horiz-adv-x="1006" d="M 309 1516 L 459 1516 L 406 1020 L 125 1020 L 309 1516 Z M 750 1516 L 899 1516 L 844 1020 L 565 1020 L 750 1516 Z" unicode="“" />
<glyph horiz-adv-x="1006" d="M 715 1020 L 565 1020 L 618 1516 L 899 1516 L 715 1020 Z M 274 1020 L 125 1020 L 180 1516 L 459 1516 L 274 1020 Z" unicode="”" />
<glyph horiz-adv-x="1006" d="M 113 0 L 113 0 Z M 703 -229 L 553 -229 L 606 267 L 887 267 L 703 -229 Z M 262 -229 L 113 -229 L 168 267 L 447 267 L 262 -229 Z" unicode="„" />
<glyph horiz-adv-x="1204" d="M 735 -410 L 469 -410 L 510 801 L 78 772 L 78 1006 L 510 975 L 469 1516 L 735 1516 L 694 975 L 1126 1006 L 1126 772 L 694 801 L 735 -410 Z" unicode="†" />
<glyph horiz-adv-x="1204" d="M 735 -410 L 469 -410 L 510 39 L 109 8 L 109 231 L 510 203 L 477 555 L 510 903 L 109 874 L 109 1098 L 510 1067 L 469 1516 L 735 1516 L 694 1067 L 1096 1098 L 1096 874 L 694 903 L 727 555 L 694 203 L 1096 231 L 1096 8 L 694 39 L 735 -410 Z" unicode="‡" />
<glyph horiz-adv-x="948" d="M 473 455 C 435 455 400 461 368 474 C 336 487 308 505 285 529 C 262 552 244 580 231 612 C 217 644 211 679 211 717 C 211 755 217 790 231 822 C 244 854 262 882 285 906 C 308 929 336 947 368 961 C 400 974 435 981 473 981 C 511 981 546 974 579 961 C 611 947 639 929 663 906 C 686 882 704 854 717 822 C 730 790 737 755 737 717 C 737 679 730 644 717 612 C 704 580 686 552 663 529 C 639 505 611 487 579 474 C 546 461 511 455 473 455 Z" unicode="•" />
<glyph horiz-adv-x="1696" d="M 127 0 L 127 0 Z M 283 -14 C 233 -14 194 0 167 29 C 140 57 127 92 127 133 C 127 173 140 208 167 236 C 194 264 233 279 283 279 C 333 279 372 264 399 236 C 426 208 440 173 440 133 C 440 92 426 57 399 29 C 372 0 333 -14 283 -14 Z M 846 -14 C 796 -14 757 0 730 29 C 703 57 690 92 690 133 C 690 173 703 208 730 236 C 757 264 796 279 846 279 C 896 279 935 264 962 236 C 989 208 1003 173 1003 133 C 1003 92 989 57 962 29 C 935 0 896 -14 846 -14 Z M 1411 -14 C 1361 -14 1322 0 1295 29 C 1268 57 1255 92 1255 133 C 1255 173 1268 208 1295 236 C 1322 264 1361 279 1411 279 C 1461 279 1500 264 1527 236 C 1554 208 1568 173 1568 133 C 1568 92 1554 57 1527 29 C 1500 0 1461 -14 1411 -14 Z" unicode="…" />
<glyph horiz-adv-x="3035" d="M 485 582 C 425 582 371 593 324 616 C 276 639 236 671 204 713 C 172 754 147 804 130 863 C 112 922 104 987 104 1059 C 104 1131 113 1197 131 1257 C 149 1316 174 1366 207 1408 C 240 1449 280 1481 328 1504 C 375 1526 428 1538 487 1538 C 545 1538 597 1526 644 1504 C 691 1482 731 1450 764 1409 C 796 1367 821 1317 839 1259 C 857 1200 866 1135 866 1063 C 866 991 857 926 840 867 C 822 807 797 757 765 715 C 733 673 693 640 646 617 C 598 593 545 582 485 582 Z M 733 0 L 514 0 L 1419 1516 L 1638 1516 L 733 0 Z M 487 748 C 515 748 539 755 560 771 C 581 786 598 807 612 835 C 626 862 636 895 643 933 C 649 971 653 1013 653 1059 C 653 1153 639 1229 611 1285 C 583 1341 541 1370 485 1370 C 456 1370 431 1362 409 1347 C 387 1332 370 1311 356 1284 C 342 1257 332 1225 325 1187 C 318 1149 315 1108 315 1063 C 315 967 329 890 357 833 C 385 776 429 748 487 748 Z M 2550 -20 C 2490 -20 2436 -8 2389 14 C 2341 37 2301 69 2269 111 C 2237 153 2212 203 2195 262 C 2177 321 2169 386 2169 457 C 2169 529 2178 595 2196 655 C 2214 715 2239 765 2272 807 C 2304 849 2344 881 2392 904 C 2440 926 2493 938 2552 938 C 2610 938 2663 926 2710 904 C 2757 881 2797 849 2829 808 C 2861 766 2886 716 2904 657 C 2922 598 2931 533 2931 461 C 2931 390 2922 325 2904 266 C 2886 206 2861 155 2829 113 C 2796 71 2756 38 2709 15 C 2661 -8 2608 -20 2550 -20 Z M 1667 -20 C 1607 -20 1553 -8 1506 14 C 1458 37 1418 69 1386 111 C 1354 153 1329 203 1312 262 C 1294 321 1286 386 1286 457 C 1286 529 1295 595 1313 655 C 1331 715 1356 765 1389 807 C 1422 849 1462 881 1510 904 C 1557 926 1610 938 1669 938 C 1727 938 1779 926 1826 904 C 1873 881 1913 849 1946 808 C 1978 766 2003 716 2021 657 C 2039 598 2048 533 2048 461 C 2048 390 2039 325 2022 266 C 2004 206 1979 155 1947 113 C 1915 71 1875 38 1828 15 C 1780 -8 1727 -20 1667 -20 Z M 2550 147 C 2578 147 2603 154 2625 170 C 2646 185 2663 206 2677 234 C 2691 262 2701 295 2708 333 C 2714 371 2718 413 2718 459 C 2718 553 2704 628 2676 684 C 2648 740 2606 768 2550 768 C 2521 768 2496 760 2475 745 C 2453 730 2436 709 2422 682 C 2408 655 2397 623 2390 585 C 2383 547 2380 506 2380 461 C 2380 365 2394 288 2423 232 C 2451 175 2494 147 2550 147 Z M 1669 147 C 1697 147 1722 154 1743 170 C 1764 185 1781 206 1795 234 C 1808 262 1818 295 1825 333 C 1831 371 1835 413 1835 459 C 1835 553 1821 628 1794 684 C 1766 740 1724 768 1667 768 C 1637 768 1612 760 1591 745 C 1570 730 1553 709 1539 682 C 1525 655 1515 623 1509 585 C 1502 547 1499 506 1499 461 C 1499 365 1512 288 1540 232 C 1568 175 1611 147 1669 147 Z" unicode="‰" />
<glyph horiz-adv-x="514" d="M 127 979 L 164 1380 L 186 1516 L 410 1516 L 281 979 L 127 979 Z" unicode="′" />
<glyph horiz-adv-x="895" d="M 508 979 L 545 1380 L 567 1516 L 791 1516 L 662 979 L 508 979 Z M 127 979 L 164 1380 L 186 1516 L 410 1516 L 281 979 L 127 979 Z" unicode="″" />
<glyph horiz-adv-x="723" d="M 637 0 L 391 0 L 68 545 L 391 1085 L 637 1085 L 322 545 L 637 0 Z" unicode="‹" />
<glyph horiz-adv-x="723" d="M 330 0 L 86 0 L 399 545 L 86 1085 L 330 1085 L 655 545 L 330 0 Z" unicode="›" />
<glyph horiz-adv-x="1049" d="M 188 0 L -33 0 L 860 1516 L 1081 1516 L 188 0 Z" unicode="⁄" />
<glyph horiz-adv-x="1038" d="M 520 535 C 455 535 398 546 348 570 C 298 593 256 626 222 669 C 188 712 162 764 145 826 C 127 888 119 956 119 1032 C 119 1106 127 1175 145 1237 C 162 1299 188 1351 222 1395 C 256 1439 298 1473 348 1497 C 398 1521 455 1534 520 1534 C 584 1534 640 1521 690 1497 C 740 1473 782 1439 816 1395 C 850 1351 875 1299 893 1237 C 911 1175 920 1106 920 1032 C 920 956 911 888 893 826 C 875 764 850 712 816 669 C 782 626 740 593 690 570 C 640 546 584 535 520 535 Z M 520 696 C 585 696 634 725 666 783 C 698 841 715 924 715 1032 C 715 1136 698 1218 665 1277 C 632 1336 584 1366 520 1366 C 452 1366 402 1336 371 1277 C 339 1218 324 1136 324 1032 C 324 924 340 841 373 783 C 405 725 454 696 520 696 Z" unicode="⁰" />
<glyph horiz-adv-x="967" d="M 539 551 L 539 762 L 100 762 L 100 893 L 528 1516 L 739 1516 L 739 926 L 877 926 L 907 762 L 739 762 L 739 551 L 539 551 Z M 301 915 L 547 915 L 547 1284 L 301 915 Z" unicode="⁴" />
<glyph horiz-adv-x="924" d="M 444 535 C 362 535 292 548 236 575 C 179 602 130 639 88 686 L 188 813 C 218 778 256 749 301 726 C 345 703 392 692 440 692 C 502 692 548 709 580 744 C 611 778 627 822 627 874 C 627 931 611 974 580 1004 C 549 1034 509 1049 459 1049 C 423 1049 391 1041 365 1026 C 338 1010 312 986 287 954 L 141 1004 L 178 1516 L 743 1516 L 772 1354 L 336 1354 L 317 1126 C 335 1145 361 1161 393 1173 C 425 1185 465 1192 514 1192 C 558 1192 600 1185 638 1172 C 676 1158 709 1138 737 1112 C 764 1085 785 1051 801 1011 C 817 971 825 924 825 872 C 825 817 815 768 797 726 C 779 684 753 648 720 620 C 686 592 646 570 599 556 C 552 542 500 535 444 535 Z" unicode="⁵" />
<glyph horiz-adv-x="973" d="M 510 535 C 449 535 394 545 346 565 C 297 585 256 614 223 654 C 189 694 164 744 146 806 C 128 867 119 938 119 1020 C 119 1108 129 1185 151 1250 C 172 1315 201 1368 239 1410 C 276 1452 321 1483 373 1503 C 425 1523 481 1534 541 1534 C 610 1534 670 1524 720 1506 C 770 1488 810 1466 840 1442 L 752 1300 C 720 1321 687 1338 654 1350 C 620 1362 583 1368 541 1368 C 469 1368 415 1344 379 1297 C 342 1249 322 1175 319 1075 C 351 1103 386 1127 424 1146 C 462 1164 510 1174 569 1174 C 615 1174 658 1167 696 1154 C 734 1141 767 1122 794 1096 C 821 1070 842 1038 857 1000 C 871 961 879 916 879 866 C 879 817 870 772 854 731 C 838 690 814 655 783 627 C 752 598 714 575 668 559 C 622 543 569 535 510 535 Z M 512 690 C 567 690 609 705 639 735 C 669 765 684 805 684 856 C 684 908 670 948 644 978 C 618 1007 576 1022 518 1022 C 475 1022 438 1013 407 995 C 375 977 347 955 322 928 C 328 849 348 790 382 750 C 416 710 459 690 512 690 Z" unicode="⁶" />
<glyph horiz-adv-x="852" d="M 176 551 L 545 1346 L 111 1346 L 82 1516 L 762 1516 L 762 1362 L 389 551 L 176 551 Z" unicode="⁷" />
<glyph horiz-adv-x="958" d="M 479 535 C 354 535 259 559 193 607 C 127 655 94 718 94 797 C 94 828 99 856 110 882 C 121 908 136 931 155 952 C 174 973 197 992 223 1010 C 249 1027 278 1043 309 1057 C 255 1084 212 1115 182 1149 C 152 1183 137 1230 137 1288 C 137 1319 144 1349 158 1379 C 172 1409 194 1435 223 1458 C 251 1480 287 1499 330 1513 C 372 1527 422 1534 479 1534 C 537 1534 587 1527 630 1513 C 672 1499 708 1480 736 1458 C 764 1435 784 1409 798 1379 C 812 1349 819 1319 819 1288 C 819 1236 803 1191 771 1155 C 739 1118 697 1087 643 1063 C 707 1033 759 999 800 960 C 841 920 862 866 862 797 C 862 758 853 722 836 690 C 819 658 794 630 762 607 C 730 584 690 566 642 554 C 594 541 540 535 479 535 Z M 496 1120 C 540 1142 574 1164 597 1186 C 619 1208 631 1236 631 1270 C 631 1284 628 1298 622 1312 C 616 1326 608 1339 596 1351 C 584 1362 568 1371 549 1378 C 530 1385 508 1389 483 1389 C 432 1389 394 1377 369 1353 C 344 1329 332 1303 332 1274 C 332 1237 344 1208 370 1187 C 396 1165 438 1143 496 1120 Z M 475 672 C 534 672 580 684 614 708 C 647 732 664 764 664 805 C 664 845 646 880 610 909 C 574 938 523 966 457 993 C 401 967 359 939 331 909 C 303 878 289 843 289 805 C 289 765 305 732 337 708 C 369 684 415 672 475 672 Z" unicode="⁸" />
<glyph horiz-adv-x="973" d="M 455 1040 C 497 1040 534 1048 566 1066 C 597 1083 625 1106 651 1135 C 645 1212 624 1271 590 1312 C 555 1353 511 1374 459 1374 C 405 1374 363 1358 333 1327 C 303 1296 289 1255 289 1204 C 289 1153 302 1113 328 1084 C 354 1054 397 1040 455 1040 Z M 430 535 C 362 535 303 543 253 561 C 203 579 163 600 133 625 L 221 764 C 251 741 283 724 317 713 C 351 701 389 696 432 696 C 503 696 557 719 594 766 C 630 812 650 886 653 987 C 620 959 585 936 547 917 C 509 898 461 889 401 889 C 355 889 313 895 275 909 C 237 923 204 943 178 969 C 151 995 130 1027 116 1066 C 101 1105 94 1150 94 1200 C 94 1248 102 1293 118 1334 C 134 1375 158 1410 189 1440 C 219 1469 258 1492 304 1509 C 350 1525 402 1534 461 1534 C 583 1534 679 1493 749 1412 C 819 1330 854 1209 854 1049 C 854 960 842 883 819 818 C 796 753 765 700 727 658 C 688 616 643 585 592 565 C 540 545 486 535 430 535 Z" unicode="⁹" />
<glyph horiz-adv-x="1038" d="M 119 0 L 119 0 Z M 520 -426 C 455 -426 398 -414 348 -391 C 298 -367 256 -334 222 -291 C 188 -248 162 -196 145 -134 C 127 -72 119 -4 119 71 C 119 145 127 214 145 276 C 162 338 188 390 222 434 C 256 478 298 512 348 536 C 398 560 455 573 520 573 C 584 573 640 560 690 536 C 740 512 782 478 816 434 C 850 390 875 338 893 276 C 911 214 920 145 920 71 C 920 -4 911 -72 893 -134 C 875 -196 850 -248 816 -291 C 782 -334 740 -367 690 -391 C 640 -414 584 -426 520 -426 Z M 520 -265 C 585 -265 634 -236 666 -178 C 698 -120 715 -37 715 71 C 715 175 698 257 665 316 C 632 375 584 405 520 405 C 452 405 402 375 371 316 C 339 257 324 175 324 71 C 324 -37 340 -120 373 -178 C 405 -236 454 -265 520 -265 Z" unicode="₀" />
<glyph horiz-adv-x="756" d="M 129 0 L 129 0 Z M 516 -410 L 309 -410 L 309 385 L 158 342 L 129 489 L 352 555 L 516 555 L 516 -410 Z" unicode="₁" />
<glyph horiz-adv-x="952" d="M 125 0 L 125 0 Z M 125 -408 L 125 -361 C 125 -326 128 -291 135 -256 C 142 -221 156 -186 177 -150 C 198 -114 228 -78 267 -41 C 306 -4 358 33 422 73 C 457 95 487 114 511 131 C 535 147 554 163 569 178 C 583 193 594 209 600 226 C 606 242 610 262 610 284 C 610 320 599 348 578 369 C 556 390 525 401 485 401 C 447 401 410 388 373 364 C 336 340 302 300 272 245 L 127 344 C 171 420 222 477 281 516 C 340 555 409 575 489 575 C 541 575 588 568 628 554 C 668 540 701 521 728 496 C 754 471 774 441 788 405 C 802 369 809 330 809 288 C 809 258 805 230 797 202 C 789 174 776 147 758 121 C 739 94 714 67 682 41 C 650 15 609 -11 561 -39 C 493 -79 445 -115 415 -148 C 385 -181 366 -211 360 -238 L 815 -238 L 815 -408 L 125 -408 Z" unicode="₂" />
<glyph horiz-adv-x="952" d="M 96 0 L 96 0 Z M 469 -424 C 391 -424 320 -407 256 -374 C 191 -340 138 -291 96 -226 L 227 -117 C 263 -169 300 -204 340 -224 C 380 -244 418 -254 455 -254 C 513 -254 555 -241 582 -216 C 609 -191 623 -159 623 -121 C 623 -71 605 -34 570 -10 C 535 14 477 26 397 26 L 330 26 L 330 174 L 403 174 C 477 174 529 184 559 205 C 589 226 604 256 604 294 C 604 326 593 352 571 372 C 549 392 515 403 471 403 C 435 403 398 394 362 378 C 325 361 288 334 250 296 L 133 419 C 181 470 236 509 296 535 C 356 561 419 575 485 575 C 539 575 586 568 627 555 C 667 542 701 524 727 502 C 753 479 773 452 787 420 C 800 388 807 354 807 317 C 807 270 795 228 771 190 C 747 152 709 124 657 106 C 720 86 765 57 793 17 C 820 -22 834 -69 834 -123 C 834 -170 825 -212 808 -250 C 790 -287 766 -318 735 -344 C 703 -370 665 -389 620 -403 C 574 -417 524 -424 469 -424 Z" unicode="₃" />
<glyph horiz-adv-x="967" d="M 100 0 L 100 0 Z M 539 -410 L 539 -199 L 100 -199 L 100 -68 L 528 555 L 739 555 L 739 -35 L 877 -35 L 907 -199 L 739 -199 L 739 -410 L 539 -410 Z M 301 -46 L 547 -46 L 547 323 L 301 -46 Z" unicode="₄" />
<glyph horiz-adv-x="924" d="M 88 0 L 88 0 Z M 444 -426 C 362 -426 292 -412 236 -385 C 179 -358 130 -321 88 -275 L 188 -148 C 218 -182 256 -211 301 -234 C 345 -257 392 -269 440 -269 C 502 -269 548 -251 580 -217 C 611 -182 627 -139 627 -87 C 627 -29 611 13 580 43 C 549 73 509 88 459 88 C 423 88 391 80 365 65 C 338 49 312 25 287 -7 L 141 43 L 178 555 L 743 555 L 772 393 L 336 393 L 317 165 C 335 184 361 200 393 212 C 425 224 465 231 514 231 C 558 231 600 224 638 211 C 676 197 709 177 737 151 C 764 124 785 90 801 50 C 817 10 825 -36 825 -89 C 825 -143 815 -192 797 -234 C 779 -276 753 -312 720 -340 C 686 -368 646 -390 599 -404 C 552 -418 500 -426 444 -426 Z" unicode="₅" />
<glyph horiz-adv-x="973" d="M 119 0 L 119 0 Z M 510 -426 C 449 -426 394 -416 346 -396 C 297 -376 256 -346 223 -306 C 189 -266 164 -216 146 -155 C 128 -93 119 -22 119 59 C 119 147 129 224 151 289 C 172 354 201 407 239 449 C 276 491 321 522 373 542 C 425 562 481 573 541 573 C 610 573 670 563 720 545 C 770 527 810 505 840 481 L 752 339 C 720 360 687 377 654 389 C 620 401 583 407 541 407 C 469 407 415 383 379 336 C 342 288 322 214 319 114 C 351 142 386 166 424 185 C 462 203 510 213 569 213 C 615 213 658 206 696 193 C 734 180 767 161 794 135 C 821 109 842 77 857 39 C 871 0 879 -44 879 -95 C 879 -143 870 -188 854 -229 C 838 -270 814 -305 783 -334 C 752 -362 714 -385 668 -401 C 622 -417 569 -426 510 -426 Z M 512 -271 C 567 -271 609 -256 639 -226 C 669 -196 684 -155 684 -105 C 684 -53 670 -12 644 17 C 618 46 576 61 518 61 C 475 61 438 52 407 34 C 375 16 347 -5 322 -33 C 328 -111 348 -171 382 -211 C 416 -251 459 -271 512 -271 Z" unicode="₆" />
<glyph horiz-adv-x="852" d="M 82 0 L 82 0 Z M 176 -410 L 545 385 L 111 385 L 82 555 L 762 555 L 762 401 L 389 -410 L 176 -410 Z" unicode="₇" />
<glyph horiz-adv-x="958" d="M 94 0 L 94 0 Z M 479 -426 C 354 -426 259 -402 193 -354 C 127 -306 94 -242 94 -164 C 94 -132 99 -104 110 -78 C 121 -52 136 -29 155 -8 C 174 12 197 31 223 49 C 249 66 278 82 309 96 C 255 123 212 154 182 188 C 152 222 137 269 137 327 C 137 358 144 388 158 418 C 172 448 194 474 223 497 C 251 519 287 538 330 552 C 372 566 422 573 479 573 C 537 573 587 566 630 552 C 672 538 708 519 736 497 C 764 474 784 448 798 418 C 812 388 819 358 819 327 C 819 275 803 230 771 194 C 739 157 697 126 643 102 C 707 72 759 38 800 -1 C 841 -40 862 -94 862 -164 C 862 -202 853 -238 836 -270 C 819 -302 794 -330 762 -353 C 730 -376 690 -394 642 -407 C 594 -419 540 -426 479 -426 Z M 496 159 C 540 181 574 203 597 225 C 619 247 631 275 631 309 C 631 323 628 337 622 351 C 616 365 608 378 596 390 C 584 401 568 410 549 417 C 530 424 508 428 483 428 C 432 428 394 416 369 392 C 344 368 332 342 332 313 C 332 276 344 247 370 226 C 396 204 438 182 496 159 Z M 475 -289 C 534 -289 580 -277 614 -253 C 647 -229 664 -196 664 -156 C 664 -115 646 -80 610 -51 C 574 -22 523 5 457 32 C 401 6 359 -21 331 -52 C 303 -82 289 -117 289 -156 C 289 -196 305 -228 337 -252 C 369 -276 415 -289 475 -289 Z" unicode="₈" />
<glyph horiz-adv-x="973" d="M 94 0 L 94 0 Z M 455 79 C 497 79 534 87 566 105 C 597 122 625 145 651 174 C 645 251 624 310 590 351 C 555 392 511 413 459 413 C 405 413 363 397 333 366 C 303 335 289 294 289 243 C 289 192 302 152 328 123 C 354 93 397 79 455 79 Z M 430 -426 C 362 -426 303 -417 253 -399 C 203 -381 163 -360 133 -336 L 221 -197 C 251 -219 283 -236 317 -248 C 351 -259 389 -265 432 -265 C 503 -265 557 -241 594 -195 C 630 -148 650 -74 653 26 C 620 -1 585 -24 547 -43 C 509 -62 461 -72 401 -72 C 355 -72 313 -65 275 -51 C 237 -37 204 -18 178 8 C 151 34 130 66 116 105 C 101 144 94 189 94 239 C 94 287 102 332 118 373 C 134 414 158 449 189 479 C 219 508 258 531 304 548 C 350 564 402 573 461 573 C 583 573 679 532 749 451 C 819 369 854 248 854 88 C 854 0 842 -77 819 -142 C 796 -207 765 -260 727 -302 C 688 -344 643 -375 592 -395 C 540 -415 486 -426 430 -426 Z" unicode="₉" />
<glyph horiz-adv-x="1493" d="M 268 762 L 268 819 L 43 819 L 43 989 L 287 989 C 303 1083 330 1166 367 1236 C 404 1306 448 1363 499 1409 C 549 1454 606 1488 669 1510 C 732 1532 798 1544 866 1544 C 937 1544 1001 1535 1058 1518 C 1114 1500 1164 1477 1206 1447 C 1248 1417 1283 1381 1313 1340 C 1343 1299 1367 1255 1386 1208 L 1174 1087 C 1147 1165 1109 1223 1060 1263 C 1011 1303 947 1323 868 1323 C 784 1323 714 1295 656 1240 C 598 1184 557 1101 535 989 L 915 989 L 915 819 L 516 819 L 516 766 C 516 750 516 735 516 721 C 516 707 517 692 518 678 L 915 678 L 915 506 L 539 506 C 560 402 598 323 652 269 C 706 215 779 188 872 188 C 950 188 1015 207 1065 246 C 1115 285 1156 348 1186 434 L 1395 309 C 1373 260 1346 215 1313 173 C 1280 131 1242 96 1198 66 C 1154 36 1105 13 1050 -3 C 995 -20 935 -29 870 -29 C 799 -29 732 -18 669 3 C 606 24 550 56 500 100 C 450 144 407 199 371 267 C 335 335 308 414 291 506 L 43 506 L 43 678 L 270 678 C 269 691 268 705 268 719 C 268 733 268 747 268 762 Z" unicode="€" />
<glyph horiz-adv-x="1772" d="" unicode="℗" />
<glyph horiz-adv-x="1853" d="M 485 649 L 309 649 L 309 1368 L 59 1368 L 59 1516 L 737 1516 L 737 1368 L 485 1368 L 485 649 Z M 1028 649 L 870 649 L 870 1516 L 1108 1516 L 1309 879 L 1511 1516 L 1747 1516 L 1747 649 L 1573 649 L 1573 1262 L 1374 649 L 1229 649 L 1028 1260 L 1028 649 Z" unicode="™" />
<glyph horiz-adv-x="1561" d="" unicode="Ω" />
<glyph horiz-adv-x="1427" d="" unicode="℮" />
<glyph horiz-adv-x="2275" d="" unicode="⅓" />
<glyph horiz-adv-x="2421" d="" unicode="⅔" />
<glyph horiz-adv-x="2281" d="" unicode="⅛" />
<glyph horiz-adv-x="2355" d="" unicode="⅜" />
<glyph horiz-adv-x="2337" d="" unicode="⅝" />
<glyph horiz-adv-x="2152" d="" unicode="⅞" />
<glyph horiz-adv-x="1202" d="" unicode="∂" />
<glyph horiz-adv-x="1421" d="" unicode="∆" />
<glyph horiz-adv-x="1520" d="" unicode="∏" />
<glyph horiz-adv-x="1237" d="" unicode="∑" />
<glyph horiz-adv-x="1315" d="" unicode="−" />
<glyph horiz-adv-x="1049" d="" unicode="∕" />
<glyph horiz-adv-x="575" d="" unicode="∙" />
<glyph horiz-adv-x="1294" d="" unicode="√" />
<glyph horiz-adv-x="1604" d="" unicode="∞" />
<glyph horiz-adv-x="766" d="" unicode="∫" />
<glyph horiz-adv-x="1313" d="" unicode="≈" />
<glyph horiz-adv-x="1315" d="" unicode="≠" />
<glyph horiz-adv-x="1315" d="" unicode="≤" />
<glyph horiz-adv-x="1315" d="" unicode="≥" />
<glyph horiz-adv-x="1331" d="" unicode="◊" />
<glyph horiz-adv-x="1161" d="M 666 -4 L 414 -4 L 18 1085 L 281 1085 L 549 283 L 553 283 L 965 1516 L 1204 1516 L 666 -4 Z" unicode="✓" />
<glyph horiz-adv-x="565" d="" unicode="" />
<glyph horiz-adv-x="1556" d="M 870 1047 L 870 848 L 1067 848 L 1055 1034 L 870 1047 Z M 504 1034 L 489 848 L 686 848 L 686 1047 L 504 1034 Z M 870 664 L 870 469 L 1055 481 L 1067 664 L 870 664 Z M 502 483 L 686 469 L 686 664 L 489 664 L 502 483 Z M 911 0 L 645 0 L 686 336 L 514 324 L 518 262 L 326 262 L 330 309 L 285 305 L 285 498 L 344 496 L 356 664 L 20 623 L 20 889 L 356 848 L 344 1022 L 285 1018 L 285 1210 L 330 1208 L 326 1249 L 518 1249 L 514 1192 L 686 1180 L 645 1516 L 911 1516 L 870 1180 L 1042 1192 L 1038 1249 L 1231 1249 L 1229 1206 L 1272 1210 L 1272 1018 L 1212 1022 L 1200 848 L 1536 889 L 1536 623 L 1200 664 L 1212 494 L 1272 498 L 1272 305 L 1227 309 L 1231 262 L 1038 262 L 1042 324 L 870 336 L 911 0 Z" unicode="" />
<glyph horiz-adv-x="1409" d="M 481 0 L 231 0 L 231 887 L 47 887 L 47 1085 L 231 1085 L 231 1198 C 231 1243 236 1285 248 1325 C 259 1365 277 1399 303 1428 C 328 1457 361 1480 403 1497 C 444 1513 495 1522 555 1522 C 568 1522 582 1521 596 1520 C 610 1519 624 1518 637 1517 C 650 1515 662 1514 672 1513 C 682 1512 689 1511 694 1511 L 698 1331 C 689 1333 677 1334 662 1334 C 646 1334 633 1335 621 1335 C 575 1335 541 1323 517 1300 C 493 1277 481 1242 481 1194 L 481 1085 L 864 1085 L 864 1198 C 864 1243 869 1285 880 1325 C 891 1365 910 1399 936 1428 C 962 1457 998 1480 1044 1497 C 1089 1513 1146 1522 1214 1522 C 1226 1522 1239 1521 1255 1520 C 1270 1519 1285 1518 1300 1517 C 1314 1515 1327 1514 1339 1513 C 1351 1512 1359 1511 1364 1511 L 1368 1329 C 1359 1331 1345 1332 1327 1333 C 1309 1334 1293 1335 1280 1335 C 1235 1335 1196 1326 1164 1308 C 1132 1290 1116 1252 1116 1194 L 1116 1085 L 1354 1085 L 1354 887 L 1116 887 L 1116 0 L 864 0 L 864 887 L 481 887 L 481 0 Z" unicode="ﬀ" />
<glyph horiz-adv-x="1282" d="M 989 1247 C 943 1247 907 1259 883 1285 C 858 1311 846 1342 846 1380 C 846 1418 858 1449 883 1475 C 907 1500 943 1513 989 1513 C 1035 1513 1072 1500 1098 1475 C 1124 1449 1137 1418 1137 1380 C 1137 1342 1124 1311 1098 1285 C 1072 1259 1035 1247 989 1247 Z M 231 1085 L 231 1198 C 231 1243 236 1285 246 1325 C 256 1365 274 1399 299 1428 C 323 1457 357 1480 399 1497 C 441 1513 493 1522 557 1522 C 569 1522 582 1521 597 1520 C 611 1519 625 1518 639 1517 C 652 1515 664 1514 675 1513 C 685 1512 693 1511 698 1511 L 715 1325 C 704 1327 689 1330 670 1332 C 651 1334 635 1335 621 1335 C 582 1335 549 1326 522 1308 C 494 1290 481 1252 481 1194 L 481 1085 L 694 1085 L 694 887 L 481 887 L 481 0 L 231 0 L 231 887 L 47 887 L 47 1085 L 231 1085 Z M 1116 0 L 866 0 L 866 1085 L 1116 1085 L 1116 0 Z" unicode="ﬁ" />
<glyph horiz-adv-x="1278" d="M 1116 0 L 866 0 L 866 1497 L 1116 1534 L 1116 0 Z M 231 1085 L 231 1198 C 231 1243 236 1285 246 1325 C 256 1365 274 1399 299 1428 C 323 1457 357 1480 399 1497 C 441 1513 493 1522 557 1522 C 569 1522 582 1521 597 1520 C 611 1519 625 1518 639 1517 C 652 1515 664 1514 675 1513 C 685 1512 693 1511 698 1511 L 715 1325 C 704 1327 689 1330 670 1332 C 651 1334 635 1335 621 1335 C 582 1335 549 1326 522 1308 C 494 1290 481 1252 481 1194 L 481 1085 L 694 1085 L 694 887 L 481 887 L 481 0 L 231 0 L 231 887 L 47 887 L 47 1085 L 231 1085 Z" unicode="ﬂ" />
<glyph horiz-adv-x="1903" d="M 1620 1247 C 1574 1247 1538 1259 1514 1285 C 1489 1311 1477 1342 1477 1380 C 1477 1418 1489 1449 1514 1475 C 1538 1500 1574 1513 1620 1513 C 1666 1513 1702 1500 1728 1475 C 1754 1449 1767 1418 1767 1380 C 1767 1342 1754 1311 1728 1285 C 1702 1259 1666 1247 1620 1247 Z M 1747 0 L 1497 0 L 1497 1085 L 1747 1085 L 1747 0 Z M 1116 1085 L 1327 1085 L 1327 887 L 1116 887 L 1116 0 L 864 0 L 864 887 L 481 887 L 481 0 L 231 0 L 231 887 L 47 887 L 47 1085 L 231 1085 L 231 1198 C 231 1243 236 1285 246 1325 C 256 1365 274 1399 299 1428 C 323 1457 357 1480 399 1497 C 441 1513 493 1522 557 1522 C 568 1522 581 1521 596 1520 C 611 1519 626 1518 640 1517 C 654 1515 666 1514 677 1513 C 688 1512 695 1511 698 1511 L 715 1325 C 704 1327 689 1330 670 1332 C 651 1334 635 1335 621 1335 C 582 1335 549 1326 522 1308 C 494 1290 481 1252 481 1194 L 481 1085 L 864 1085 L 864 1198 C 864 1243 869 1285 879 1325 C 889 1365 907 1399 932 1428 C 957 1457 991 1480 1033 1497 C 1075 1513 1128 1522 1192 1522 C 1202 1522 1215 1521 1230 1520 C 1244 1519 1259 1518 1273 1517 C 1287 1515 1299 1514 1310 1513 C 1321 1512 1328 1511 1331 1511 L 1350 1325 C 1339 1327 1324 1330 1305 1332 C 1286 1334 1269 1335 1255 1335 C 1217 1335 1184 1326 1157 1308 C 1129 1290 1116 1252 1116 1194 L 1116 1085 Z" unicode="ﬃ" />
<glyph horiz-adv-x="1903" d="M 1749 0 L 1497 0 L 1497 1497 L 1749 1534 L 1749 0 Z M 1116 1085 L 1327 1085 L 1327 887 L 1116 887 L 1116 0 L 864 0 L 864 887 L 481 887 L 481 0 L 231 0 L 231 887 L 47 887 L 47 1085 L 231 1085 L 231 1198 C 231 1243 236 1285 246 1325 C 256 1365 274 1399 299 1428 C 323 1457 357 1480 399 1497 C 441 1513 493 1522 557 1522 C 569 1522 582 1521 597 1520 C 611 1519 625 1518 639 1517 C 652 1515 664 1514 675 1513 C 685 1512 693 1511 698 1511 L 715 1325 C 704 1327 689 1330 670 1332 C 651 1334 635 1335 621 1335 C 582 1335 549 1326 522 1308 C 494 1290 481 1252 481 1194 L 481 1085 L 864 1085 L 864 1198 C 864 1243 869 1285 879 1325 C 889 1365 907 1399 932 1428 C 957 1457 991 1480 1033 1497 C 1075 1513 1128 1522 1192 1522 C 1204 1522 1217 1521 1232 1520 C 1246 1519 1260 1518 1274 1517 C 1287 1515 1299 1514 1309 1513 C 1319 1512 1327 1511 1331 1511 L 1350 1325 C 1339 1327 1324 1330 1305 1332 C 1286 1334 1269 1335 1255 1335 C 1217 1335 1184 1326 1157 1308 C 1129 1290 1116 1252 1116 1194 L 1116 1085 Z" unicode="ﬄ" />
<glyph horiz-adv-x="0" d="" unicode="﻿" />
</font>
</defs>
</svg>
