<?xml version="1.0" encoding="utf-8" ?><svg version="1.1" xmlns = 'http://www.w3.org/2000/svg'><defs><font id='web' horiz-adv-x="1000">
<font-face font-family="web" descent="-436" cap-height="1516" units-per-em="2048" bbox="-258,-555,2857,2005" x-height="1087" ascent="1612" />
<missing-glyph horiz-adv-x="1024" d="" /><glyph horiz-adv-x="514" d="" unicode=" " />
<glyph horiz-adv-x="705" d="M 210 453 L 329 1516 L 644 1516 L 390 453 L 210 453 Z M 222 -14 C 197 -14 175 -9 157 -1 C 139 6 124 18 113 32 C 102 46 95 62 91 80 C 87 98 87 118 91 139 C 97 179 116 213 146 239 C 176 265 217 279 267 279 C 317 279 353 263 376 233 C 399 203 407 167 400 127 C 393 86 375 52 345 26 C 315 0 274 -14 222 -14 Z" unicode="!" />
<glyph horiz-adv-x="895" d="M 375 979 L 221 979 L 256 1380 L 279 1516 L 502 1516 L 479 1380 L 375 979 Z M 756 979 L 602 979 L 637 1380 L 659 1516 L 883 1516 L 860 1380 L 756 979 Z" unicode="&#x22;" />
<glyph horiz-adv-x="1516" d="M 614 918 L 547 598 L 844 598 L 911 918 L 614 918 Z M 422 0 L 195 0 L 281 408 L 49 408 L 49 598 L 319 598 L 387 918 L 137 918 L 137 1108 L 426 1108 L 512 1516 L 739 1516 L 655 1108 L 950 1108 L 1036 1516 L 1264 1516 L 1178 1108 L 1430 1108 L 1430 918 L 1139 918 L 1071 598 L 1341 598 L 1341 408 L 1032 408 L 946 0 L 719 0 L 805 408 L 508 408 L 422 0 Z" unicode="#" />
<glyph horiz-adv-x="1348" d="M 444 1120 C 444 1072 461 1032 497 1002 C 533 972 577 944 631 920 L 702 1331 L 692 1331 C 611 1331 549 1311 507 1271 C 465 1231 444 1181 444 1120 Z M 938 412 C 938 438 932 462 921 484 C 910 505 895 524 877 542 C 858 559 836 575 810 590 C 784 604 756 618 727 631 L 647 180 C 745 184 818 204 866 242 C 914 280 938 336 938 412 Z M 590 -190 L 428 -190 L 461 -4 C 356 14 266 53 192 113 C 118 172 58 248 14 342 L 217 438 C 227 415 240 391 257 366 C 273 340 293 316 317 294 C 340 272 367 251 398 233 C 429 215 464 201 502 193 L 590 688 C 542 706 495 727 449 749 C 403 771 362 798 326 828 C 290 858 260 893 238 935 C 216 977 205 1026 205 1083 C 205 1168 222 1240 256 1298 C 290 1356 333 1402 384 1437 C 435 1472 490 1497 550 1512 C 610 1526 665 1534 715 1534 L 731 1534 L 756 1677 L 918 1677 L 889 1520 C 982 1502 1060 1468 1122 1416 C 1184 1364 1231 1293 1264 1204 L 1055 1126 C 1033 1179 1006 1221 972 1251 C 938 1281 896 1302 848 1315 L 768 864 C 817 844 866 823 915 800 C 964 776 1008 748 1047 715 C 1085 682 1117 643 1141 597 C 1165 551 1178 496 1178 432 C 1178 342 1159 269 1122 211 C 1084 153 1038 107 982 73 C 926 39 866 16 800 3 C 734 -10 674 -17 618 -18 L 590 -190 Z" unicode="$" />
<glyph horiz-adv-x="2124" d="M 481 582 C 424 582 374 591 332 610 C 290 628 255 654 227 687 C 199 720 179 760 165 806 C 151 852 145 902 145 956 C 145 1050 157 1133 183 1207 C 209 1280 242 1341 284 1390 C 325 1439 372 1476 426 1502 C 480 1527 534 1540 590 1540 C 646 1540 696 1530 738 1511 C 780 1492 814 1466 842 1433 C 869 1399 889 1359 903 1313 C 917 1266 924 1215 924 1161 C 924 1070 911 989 887 917 C 862 845 829 784 789 735 C 748 685 701 647 647 621 C 593 595 538 582 481 582 Z M 594 0 L 369 0 L 1530 1516 L 1755 1516 L 594 0 Z M 492 760 C 526 760 556 772 584 798 C 611 824 634 857 653 897 C 672 937 687 983 697 1034 C 707 1085 713 1136 713 1186 C 713 1240 702 1282 681 1313 C 660 1344 626 1360 578 1360 C 544 1360 513 1347 485 1321 C 457 1295 434 1262 415 1222 C 396 1182 381 1136 371 1086 C 361 1035 356 985 356 936 C 356 880 367 837 389 806 C 411 775 446 760 492 760 Z M 1536 -20 C 1479 -20 1430 -10 1388 8 C 1346 26 1311 52 1284 85 C 1256 118 1236 158 1222 204 C 1208 250 1202 300 1202 354 C 1202 448 1214 531 1240 605 C 1265 678 1298 739 1340 788 C 1381 837 1428 874 1482 900 C 1536 925 1591 938 1647 938 C 1703 938 1751 928 1793 910 C 1835 891 1869 865 1897 832 C 1924 799 1944 759 1958 713 C 1971 666 1978 615 1978 561 C 1978 469 1965 388 1941 316 C 1917 244 1884 183 1844 133 C 1803 83 1756 45 1702 19 C 1648 -6 1593 -20 1536 -20 Z M 1548 158 C 1582 158 1612 170 1640 196 C 1667 222 1690 255 1709 296 C 1727 336 1742 382 1752 433 C 1762 484 1767 534 1767 584 C 1767 638 1756 681 1736 712 C 1715 742 1681 758 1634 758 C 1599 758 1568 745 1541 719 C 1513 693 1490 660 1471 620 C 1452 580 1438 534 1428 484 C 1418 433 1413 383 1413 334 C 1413 280 1423 237 1445 205 C 1467 173 1501 158 1548 158 Z" unicode="%" />
<glyph horiz-adv-x="1483" d="M 922 1231 C 922 1245 919 1259 915 1273 C 910 1287 902 1299 892 1311 C 882 1322 868 1331 852 1339 C 835 1346 815 1350 791 1350 C 737 1350 692 1332 658 1297 C 623 1262 606 1205 606 1126 C 606 1096 608 1065 612 1032 C 616 999 624 965 635 930 C 675 946 712 963 747 981 C 782 999 812 1019 838 1043 C 864 1067 884 1094 899 1125 C 914 1155 922 1191 922 1231 Z M 569 514 C 552 541 536 569 520 597 C 504 625 490 653 477 682 C 443 666 412 648 383 630 C 353 611 328 590 307 567 C 286 543 270 517 258 487 C 246 457 240 424 240 387 C 240 321 263 270 309 232 C 355 194 428 176 528 176 C 572 176 615 181 655 192 C 695 202 734 217 770 236 C 737 272 704 313 671 359 C 637 405 603 456 569 514 Z M 512 -29 C 420 -29 340 -19 273 1 C 205 21 150 48 107 82 C 63 116 31 157 11 204 C -9 251 -20 301 -20 354 C -20 428 -8 491 16 545 C 40 598 72 644 112 682 C 152 720 198 752 250 779 C 302 805 356 829 412 850 C 396 896 385 941 378 987 C 370 1033 367 1078 367 1122 C 367 1184 376 1240 396 1292 C 416 1344 444 1388 480 1426 C 516 1463 560 1492 612 1513 C 664 1533 722 1544 786 1544 C 850 1544 905 1535 951 1518 C 996 1500 1032 1478 1060 1450 C 1088 1422 1108 1389 1120 1353 C 1132 1317 1139 1280 1139 1243 C 1139 1173 1126 1113 1101 1063 C 1075 1013 1042 970 1001 934 C 959 898 912 867 859 842 C 805 816 751 793 696 772 C 706 749 718 726 731 703 C 744 680 758 657 774 635 C 808 583 840 536 869 495 C 897 453 925 417 952 387 C 996 441 1035 501 1067 568 C 1099 635 1126 702 1147 770 L 1366 770 C 1339 674 1303 582 1257 494 C 1211 405 1157 326 1096 256 C 1131 234 1169 219 1209 211 C 1249 202 1293 197 1339 197 L 1327 -20 C 1247 -20 1174 -11 1106 7 C 1038 25 975 55 915 98 C 856 58 792 26 724 4 C 656 -17 585 -29 512 -29 Z" unicode="&#x26;" />
<glyph horiz-adv-x="514" d="M 375 979 L 221 979 L 256 1380 L 279 1516 L 502 1516 L 479 1380 L 375 979 Z" unicode="'" />
<glyph horiz-adv-x="821" d="M 561 -305 L 418 -412 C 302 -292 213 -164 151 -27 C 88 110 57 256 57 410 C 57 534 73 649 106 757 C 138 865 185 965 246 1058 C 306 1151 381 1239 469 1323 C 557 1406 657 1485 768 1561 L 862 1430 C 783 1367 710 1297 644 1219 C 577 1141 520 1057 473 969 C 425 881 388 787 362 688 C 335 589 322 487 322 383 C 322 317 327 252 338 189 C 349 126 365 66 386 8 C 406 -50 431 -105 461 -158 C 491 -210 524 -259 561 -305 Z" unicode="(" />
<glyph horiz-adv-x="821" d="M -10 -414 L -113 -289 C -33 -226 40 -155 108 -77 C 176 0 234 84 282 173 C 330 262 368 357 395 457 C 422 557 436 659 436 764 C 436 894 415 1018 373 1134 C 331 1250 275 1353 203 1444 L 340 1559 C 456 1439 545 1311 608 1175 C 670 1038 702 893 702 739 C 702 615 685 500 652 392 C 619 284 572 183 511 89 C 450 -4 375 -92 287 -176 C 199 -259 100 -338 -10 -414 Z" unicode=")" />
<glyph horiz-adv-x="1040" d="M 813 700 L 657 643 L 561 983 L 354 694 L 227 803 L 477 1055 L 125 1092 L 152 1249 L 498 1163 L 348 1485 L 504 1542 L 598 1202 L 805 1491 L 934 1380 L 682 1130 L 1036 1094 L 1008 936 L 664 1020 L 813 700 Z" unicode="*" />
<glyph horiz-adv-x="1315" d="M 752 168 L 545 168 L 545 598 L 127 598 L 127 801 L 545 801 L 545 1231 L 752 1231 L 752 801 L 1169 801 L 1169 598 L 752 598 L 752 168 Z" unicode="+" />
<glyph horiz-adv-x="565" d="M 90 -229 L -59 -229 L 82 266 L 362 266 L 90 -229 Z" unicode="," />
<glyph horiz-adv-x="731" d="M 584 553 L 78 553 L 111 733 L 616 733 L 584 553 Z" unicode="-" />
<glyph horiz-adv-x="565" d="M 153 -14 C 127 -14 105 -9 87 -1 C 69 6 54 18 43 32 C 32 46 25 62 21 80 C 17 98 17 118 21 139 C 28 179 47 213 77 239 C 107 265 148 279 198 279 C 248 279 284 263 307 233 C 329 203 337 167 331 127 C 323 86 305 52 275 26 C 245 0 205 -14 153 -14 Z" unicode="." />
<glyph horiz-adv-x="1245" d="M 184 0 L -86 0 L 1061 1516 L 1331 1516 L 184 0 Z" unicode="/" />
<glyph horiz-adv-x="1368" d="M 594 -29 C 506 -29 429 -14 364 16 C 298 46 244 87 202 141 C 160 195 128 259 107 334 C 86 408 76 490 76 578 C 76 717 93 846 128 965 C 163 1083 212 1185 274 1271 C 336 1356 410 1423 496 1471 C 582 1519 676 1544 778 1544 C 866 1544 942 1529 1008 1499 C 1074 1469 1128 1427 1170 1374 C 1212 1321 1244 1257 1265 1183 C 1285 1109 1296 1028 1296 940 C 1296 800 1278 671 1243 552 C 1208 433 1160 331 1098 245 C 1036 159 962 92 876 44 C 790 -4 696 -29 594 -29 Z M 608 197 C 680 197 744 218 798 261 C 852 304 898 361 934 431 C 970 501 997 582 1015 674 C 1033 765 1042 858 1042 954 C 1042 1074 1018 1165 971 1226 C 923 1286 854 1317 764 1317 C 692 1317 628 1295 574 1253 C 519 1211 473 1155 437 1085 C 401 1015 373 935 355 845 C 337 754 328 661 328 565 C 328 442 351 350 399 289 C 447 227 516 197 608 197 Z" unicode="0" />
<glyph horiz-adv-x="918" d="M 528 0 L 279 0 L 504 1278 L 244 1196 L 256 1417 L 555 1516 L 795 1516 L 528 0 Z" unicode="1" />
<glyph horiz-adv-x="1214" d="M 995 0 L -61 0 L -57 33 C -33 224 31 368 136 465 C 241 562 351 641 466 701 C 581 761 685 820 778 877 C 871 933 918 1018 918 1130 C 918 1187 899 1232 863 1265 C 826 1298 768 1315 690 1315 C 661 1315 632 1312 602 1306 C 572 1300 541 1290 511 1276 C 481 1262 450 1242 419 1217 C 388 1191 357 1160 326 1122 L 170 1276 C 210 1326 251 1369 294 1404 C 336 1438 380 1466 425 1487 C 470 1507 517 1522 565 1531 C 613 1539 662 1544 713 1544 C 790 1544 857 1534 915 1514 C 973 1494 1020 1468 1058 1434 C 1096 1400 1124 1359 1143 1313 C 1161 1266 1171 1216 1171 1163 C 1171 1021 1128 909 1042 827 C 956 745 859 674 751 616 C 643 557 540 500 440 444 C 340 388 276 315 248 225 L 995 225 L 995 0 Z" unicode="2" />
<glyph horiz-adv-x="1229" d="M 514 -29 C 365 -29 244 -2 152 51 C 60 105 -10 181 -59 279 L 125 430 C 145 384 169 347 197 317 C 225 287 255 263 288 246 C 320 228 355 216 392 209 C 429 202 468 199 508 199 C 554 199 596 203 634 212 C 672 221 705 236 733 257 C 761 278 782 306 798 342 C 813 377 821 421 821 473 C 821 549 793 605 737 639 C 681 673 589 690 463 690 L 426 690 L 418 903 L 504 903 C 584 903 651 908 704 920 C 757 932 799 948 829 970 C 859 991 881 1017 893 1048 C 905 1078 911 1113 911 1151 C 911 1203 892 1243 854 1271 C 816 1299 751 1313 657 1313 C 598 1313 539 1303 480 1284 C 420 1264 363 1228 307 1174 L 199 1372 C 263 1428 336 1470 419 1500 C 502 1529 592 1544 690 1544 C 775 1544 848 1535 910 1517 C 972 1499 1022 1474 1061 1443 C 1099 1411 1128 1374 1146 1332 C 1164 1289 1174 1243 1174 1194 C 1174 1080 1143 990 1082 925 C 1021 860 938 817 834 797 C 878 788 917 773 949 753 C 981 732 1007 707 1027 678 C 1047 648 1061 615 1071 578 C 1080 541 1085 502 1085 461 C 1085 377 1069 305 1038 243 C 1006 181 964 130 912 90 C 860 50 799 20 730 0 C 660 -19 588 -29 514 -29 Z" unicode="3" />
<glyph horiz-adv-x="1296" d="M 872 0 L 635 0 L 688 311 L -25 311 L 10 512 L 860 1516 L 1139 1516 L 967 532 L 1204 532 L 1204 311 L 928 311 L 872 0 Z M 842 1206 L 285 532 L 727 532 L 846 1206 L 842 1206 Z" unicode="4" />
<glyph horiz-adv-x="1204" d="M 512 -29 C 433 -29 364 -22 305 -10 C 246 2 195 19 152 41 C 108 63 71 88 39 118 C 7 147 -20 178 -45 211 L 111 401 C 130 371 153 344 179 319 C 205 293 234 271 266 253 C 298 235 335 220 376 210 C 417 200 462 195 512 195 C 616 195 698 227 758 291 C 818 355 848 444 848 559 C 848 593 842 624 831 654 C 820 683 803 708 781 730 C 759 751 731 768 697 780 C 663 792 624 799 580 799 C 522 799 468 787 418 764 C 367 741 323 704 285 653 L 119 711 L 319 1516 L 1153 1516 L 1159 1294 L 485 1294 L 383 899 C 411 927 450 953 500 977 C 550 1000 606 1012 670 1012 C 741 1012 804 1001 859 980 C 914 958 960 928 997 890 C 1033 852 1061 806 1080 752 C 1098 698 1108 639 1108 575 C 1108 475 1091 387 1059 311 C 1026 235 982 172 928 122 C 873 72 810 34 738 9 C 666 -16 590 -29 512 -29 Z" unicode="5" />
<glyph horiz-adv-x="1282" d="M 594 -29 C 510 -29 436 -15 371 11 C 306 37 252 76 208 126 C 164 176 130 238 107 312 C 83 386 72 469 72 561 C 72 715 92 854 132 976 C 172 1098 226 1201 293 1285 C 359 1369 436 1433 524 1477 C 611 1521 701 1544 793 1544 C 901 1544 989 1533 1059 1511 C 1128 1489 1182 1462 1221 1432 L 1118 1217 C 1077 1249 1029 1275 975 1293 C 920 1311 859 1321 791 1321 C 737 1321 685 1309 636 1286 C 587 1263 543 1230 503 1186 C 463 1142 429 1088 400 1024 C 371 960 349 887 334 805 C 354 821 379 839 407 858 C 435 877 467 894 503 910 C 538 926 577 939 620 949 C 662 959 708 965 758 965 C 823 965 881 955 933 937 C 984 918 1027 891 1062 857 C 1097 822 1124 780 1143 730 C 1161 680 1171 625 1171 563 C 1171 468 1155 384 1124 310 C 1092 236 1050 174 998 124 C 945 74 884 36 814 10 C 744 -16 670 -29 594 -29 Z M 313 600 L 313 547 C 313 476 321 417 337 371 C 353 324 375 287 402 260 C 429 233 460 214 496 204 C 532 193 569 188 608 188 C 654 188 697 195 736 211 C 775 227 808 249 836 279 C 864 309 885 345 901 389 C 916 433 924 483 924 539 C 924 602 905 653 868 693 C 831 732 767 752 676 752 C 638 752 601 747 567 739 C 532 730 500 719 470 705 C 440 691 412 674 386 656 C 360 638 335 619 313 600 Z" unicode="6" />
<glyph horiz-adv-x="1092" d="M 307 -20 L 72 20 L 877 1290 L 172 1290 L 172 1516 L 1178 1516 L 1143 1307 L 307 -20 Z" unicode="7" />
<glyph horiz-adv-x="1280" d="M 578 -29 C 480 -29 395 -18 322 2 C 249 23 189 51 142 87 C 94 123 59 165 35 213 C 11 261 0 311 0 365 C 0 425 11 478 35 525 C 59 572 90 613 130 649 C 169 685 214 715 266 741 C 318 767 371 789 426 807 C 396 826 367 847 341 870 C 314 892 291 917 272 944 C 252 970 237 1000 226 1033 C 214 1065 209 1101 209 1141 C 209 1197 221 1250 247 1300 C 272 1350 307 1392 352 1428 C 397 1464 451 1492 514 1513 C 577 1533 646 1544 721 1544 C 813 1544 891 1533 956 1511 C 1021 1489 1074 1461 1114 1427 C 1154 1392 1184 1353 1203 1309 C 1221 1265 1231 1222 1231 1178 C 1231 1121 1220 1071 1199 1029 C 1178 986 1151 949 1119 918 C 1086 887 1049 861 1009 840 C 969 818 930 800 893 786 C 929 766 963 743 996 719 C 1029 695 1058 668 1083 638 C 1108 608 1128 575 1143 538 C 1157 501 1165 460 1165 414 C 1165 340 1149 276 1119 220 C 1088 164 1046 118 994 82 C 941 45 879 17 807 -1 C 735 -19 659 -29 578 -29 Z M 979 1163 C 979 1185 974 1207 965 1229 C 956 1251 941 1270 921 1286 C 901 1302 874 1316 841 1326 C 808 1336 768 1341 721 1341 C 637 1341 572 1322 526 1284 C 480 1246 457 1199 457 1143 C 457 1113 463 1085 477 1061 C 490 1036 508 1013 531 993 C 553 973 580 954 611 936 C 642 918 675 900 709 883 C 803 920 872 961 915 1007 C 957 1053 979 1105 979 1163 Z M 262 383 C 262 353 268 325 282 299 C 296 273 316 250 342 232 C 368 213 400 198 440 188 C 479 177 524 172 575 172 C 620 172 663 177 703 187 C 743 197 779 211 809 231 C 839 251 862 276 880 307 C 898 337 907 373 907 414 C 907 448 898 478 882 506 C 865 533 843 558 815 581 C 787 604 754 626 718 646 C 682 666 644 687 606 707 C 553 688 505 668 463 646 C 420 624 384 600 354 574 C 324 548 302 519 286 487 C 270 455 262 421 262 383 Z" unicode="8" />
<glyph horiz-adv-x="1282" d="M 973 969 C 973 1038 964 1096 948 1142 C 932 1188 910 1224 884 1251 C 857 1277 826 1296 790 1307 C 754 1317 716 1323 678 1323 C 632 1323 589 1315 550 1300 C 511 1284 478 1262 450 1233 C 422 1204 401 1168 385 1125 C 369 1082 362 1033 362 979 C 362 915 379 863 414 823 C 449 783 512 764 604 764 C 642 764 679 768 714 777 C 749 786 782 798 813 813 C 843 827 872 844 898 863 C 924 881 949 900 971 920 C 971 928 971 936 972 944 C 972 952 973 960 973 969 Z M 494 -29 C 385 -29 293 -17 219 5 C 145 28 83 59 35 98 L 154 303 C 198 266 248 238 304 219 C 359 199 423 190 496 190 C 550 190 601 201 650 225 C 699 248 743 282 783 326 C 823 370 857 425 886 491 C 915 557 937 631 952 715 C 931 697 906 679 878 660 C 850 640 818 623 783 607 C 747 591 708 577 666 567 C 623 556 577 551 528 551 C 462 551 404 560 353 579 C 301 598 258 625 223 660 C 188 694 161 736 143 786 C 124 836 115 891 115 952 C 115 1047 130 1132 161 1206 C 191 1280 233 1341 285 1391 C 337 1441 399 1479 469 1505 C 539 1531 613 1544 692 1544 C 775 1544 849 1530 914 1504 C 979 1477 1034 1439 1078 1389 C 1122 1339 1155 1277 1179 1204 C 1202 1130 1214 1048 1214 956 C 1214 801 1194 662 1154 540 C 1114 417 1062 314 996 230 C 930 146 853 82 766 38 C 678 -6 588 -29 494 -29 Z" unicode="9" />
<glyph horiz-adv-x="584" d="M 305 807 C 280 807 258 811 240 819 C 222 827 207 839 196 853 C 185 867 178 883 174 902 C 170 920 170 940 174 961 C 180 1001 199 1034 229 1060 C 259 1086 300 1100 350 1100 C 400 1100 436 1084 459 1054 C 482 1024 490 988 483 948 C 476 907 458 873 428 847 C 398 820 357 807 305 807 Z M 160 -14 C 134 -14 112 -9 94 -1 C 76 6 61 18 51 32 C 40 46 33 62 29 80 C 25 98 25 118 29 139 C 35 179 54 213 84 239 C 114 265 155 279 205 279 C 255 279 291 263 314 233 C 336 203 344 167 338 127 C 331 86 313 52 283 26 C 253 0 212 -14 160 -14 Z" unicode=":" />
<glyph horiz-adv-x="584" d="M 305 807 C 280 807 258 811 240 819 C 222 827 207 839 196 853 C 185 867 178 883 174 902 C 170 920 170 940 174 961 C 180 1001 199 1034 229 1060 C 259 1086 300 1100 350 1100 C 400 1100 436 1084 459 1054 C 482 1024 490 988 483 948 C 476 907 458 873 428 847 C 398 820 357 807 305 807 Z M 90 -229 L -59 -229 L 82 266 L 362 266 L 90 -229 Z" unicode=";" />
<glyph horiz-adv-x="1315" d="M 1184 119 L 100 590 L 100 737 L 1184 1208 L 1184 995 L 375 664 L 1184 332 L 1184 119 Z" unicode="&#x3C;" />
<glyph horiz-adv-x="1315" d="M 1159 809 L 125 809 L 125 995 L 1159 995 L 1159 809 Z M 1159 342 L 125 342 L 125 528 L 1159 528 L 1159 342 Z" unicode="=" />
<glyph horiz-adv-x="1315" d="M 1192 590 L 109 119 L 109 332 L 918 664 L 109 995 L 109 1208 L 1192 737 L 1192 590 Z" unicode="&#x3E;" />
<glyph horiz-adv-x="1151" d="M 578 449 L 371 449 C 373 485 375 516 379 544 C 382 571 386 599 391 627 C 399 669 411 704 428 734 C 445 763 466 789 490 811 C 514 833 541 853 573 871 C 604 888 638 906 674 924 C 700 937 726 950 751 963 C 776 975 798 990 817 1007 C 835 1023 850 1043 862 1067 C 873 1090 879 1119 879 1153 C 879 1203 860 1244 822 1274 C 784 1304 725 1319 645 1319 C 585 1319 525 1308 467 1287 C 409 1266 352 1230 297 1180 L 147 1335 C 181 1371 220 1402 262 1428 C 304 1454 347 1476 393 1493 C 438 1510 484 1523 532 1531 C 580 1539 627 1544 674 1544 C 753 1544 822 1534 880 1516 C 938 1497 986 1472 1024 1440 C 1061 1408 1089 1371 1107 1329 C 1125 1287 1135 1242 1135 1196 C 1135 1128 1124 1072 1104 1027 C 1084 982 1058 944 1027 913 C 995 882 960 856 921 835 C 882 813 844 792 807 772 C 765 749 730 728 702 709 C 674 689 652 668 635 645 C 618 622 605 595 597 564 C 589 533 582 495 578 449 Z M 395 -14 C 370 -14 348 -9 330 -1 C 312 6 297 18 286 32 C 275 46 268 62 264 80 C 260 98 260 118 264 139 C 271 179 290 213 320 239 C 350 265 390 279 440 279 C 490 279 526 263 549 233 C 572 203 580 167 573 127 C 566 86 548 52 518 26 C 488 0 447 -14 395 -14 Z" unicode="?" />
<glyph horiz-adv-x="1778" d="M 879 -29 C 761 -29 654 -9 557 29 C 459 68 377 122 309 191 C 241 260 188 343 150 440 C 112 536 94 642 94 756 C 94 870 113 975 153 1072 C 192 1168 247 1251 317 1321 C 387 1391 472 1445 570 1485 C 668 1524 776 1544 893 1544 C 1009 1544 1117 1525 1215 1487 C 1313 1449 1396 1396 1466 1329 C 1536 1261 1590 1181 1629 1087 C 1668 993 1688 890 1688 778 C 1688 708 1679 645 1661 588 C 1643 530 1618 481 1586 441 C 1553 401 1513 370 1466 348 C 1419 326 1367 315 1309 315 C 1234 315 1175 328 1133 354 C 1090 380 1061 419 1047 469 C 1005 427 957 394 905 370 C 852 346 790 334 719 334 C 677 334 638 340 602 354 C 566 368 536 388 511 414 C 486 440 467 474 453 514 C 439 554 432 600 432 653 C 432 734 442 808 463 876 C 484 944 513 1002 549 1050 C 585 1098 629 1136 679 1163 C 729 1190 782 1204 840 1204 C 902 1204 952 1193 990 1173 C 1028 1152 1060 1127 1087 1098 L 1102 1188 L 1298 1188 L 1202 580 C 1195 534 1202 497 1224 470 C 1246 443 1283 430 1335 430 C 1367 430 1398 437 1426 452 C 1454 466 1479 488 1500 516 C 1520 544 1537 580 1549 623 C 1561 666 1567 716 1567 772 C 1567 868 1550 956 1517 1037 C 1484 1118 1438 1187 1379 1245 C 1320 1302 1249 1347 1166 1379 C 1083 1411 992 1427 893 1427 C 793 1427 701 1410 619 1377 C 536 1343 465 1297 407 1238 C 348 1179 302 1108 270 1026 C 237 944 221 854 221 756 C 221 657 236 566 268 483 C 300 400 345 329 403 269 C 461 209 531 163 613 130 C 695 96 785 80 885 80 C 963 80 1034 88 1099 106 C 1164 124 1226 150 1284 186 L 1339 98 C 1278 58 1208 26 1129 4 C 1049 -17 966 -29 879 -29 Z M 791 487 C 829 487 866 495 902 513 C 938 530 974 555 1008 588 L 1065 950 C 1037 982 1008 1005 978 1019 C 948 1033 912 1040 872 1040 C 834 1040 801 1029 771 1009 C 741 989 715 962 695 928 C 674 894 658 855 647 811 C 636 767 631 721 631 674 C 631 610 644 563 670 533 C 696 502 737 487 791 487 Z" unicode="@" />
<glyph horiz-adv-x="1407" d="M 168 0 L -82 0 L 713 1522 L 965 1522 L 1219 20 L 973 -20 L 911 385 L 367 385 L 168 0 Z M 782 1200 L 471 598 L 881 598 L 786 1200 L 782 1200 Z" unicode="A" />
<glyph horiz-adv-x="1417" d="M 684 0 L 39 0 L 305 1516 L 793 1516 C 873 1516 946 1509 1012 1495 C 1078 1481 1133 1461 1179 1433 C 1224 1405 1259 1370 1284 1327 C 1308 1284 1321 1234 1321 1176 C 1321 1108 1311 1051 1292 1005 C 1273 958 1248 920 1216 890 C 1184 860 1148 837 1108 820 C 1067 803 1025 790 983 782 L 981 778 C 1060 763 1124 729 1173 677 C 1222 625 1247 552 1247 459 C 1247 373 1230 301 1198 243 C 1165 184 1122 137 1070 101 C 1017 65 957 40 889 24 C 821 8 753 0 684 0 Z M 518 1292 L 446 879 L 739 879 C 786 879 830 883 870 891 C 910 899 945 912 974 930 C 1002 948 1025 973 1041 1004 C 1057 1035 1065 1074 1065 1120 C 1065 1180 1040 1223 990 1251 C 940 1278 860 1292 750 1292 L 518 1292 Z M 410 672 L 330 221 L 684 221 C 730 221 772 225 811 233 C 849 241 882 255 910 274 C 937 293 958 318 974 350 C 989 382 997 421 997 467 C 997 538 968 590 911 623 C 853 655 767 672 653 672 L 410 672 Z" unicode="B" />
<glyph horiz-adv-x="1434" d="M 666 -29 C 575 -29 493 -14 421 15 C 348 44 287 86 237 140 C 187 194 148 261 122 339 C 95 417 82 505 82 602 C 82 744 102 874 142 991 C 182 1107 236 1206 304 1288 C 372 1369 452 1432 544 1477 C 636 1521 734 1544 838 1544 C 922 1544 996 1534 1060 1515 C 1123 1495 1177 1469 1221 1435 C 1265 1401 1300 1360 1327 1314 C 1354 1267 1374 1217 1386 1163 L 1147 1075 C 1131 1150 1098 1208 1047 1248 C 995 1288 921 1309 823 1309 C 753 1309 689 1291 629 1257 C 569 1223 518 1175 476 1114 C 434 1052 400 978 376 892 C 352 805 340 710 340 606 C 340 478 368 379 426 309 C 483 238 567 203 678 203 C 765 203 843 223 913 264 C 982 305 1040 379 1087 485 L 1294 362 C 1232 234 1149 137 1044 71 C 938 4 812 -29 666 -29 Z" unicode="C" />
<glyph horiz-adv-x="1470" d="M 502 0 L 39 0 L 305 1516 L 666 1516 C 778 1516 880 1502 970 1476 C 1060 1449 1137 1410 1199 1358 C 1261 1306 1308 1242 1341 1164 C 1374 1086 1391 996 1391 895 C 1391 740 1369 606 1326 493 C 1282 379 1222 286 1144 214 C 1066 141 972 87 862 52 C 752 17 632 0 502 0 Z M 522 1298 L 332 213 L 541 213 C 736 213 883 269 983 383 C 1083 497 1133 663 1133 883 C 1133 1014 1095 1116 1019 1189 C 943 1261 822 1298 655 1298 L 522 1298 Z" unicode="D" />
<glyph horiz-adv-x="1251" d="M 1036 0 L 39 0 L 305 1516 L 1264 1516 L 1221 1278 L 518 1278 L 453 901 L 983 901 L 983 674 L 414 674 L 336 233 L 1077 233 L 1036 0 Z" unicode="E" />
<glyph horiz-adv-x="1163" d="M 295 0 L 39 0 L 305 1516 L 1239 1516 L 1196 1278 L 518 1278 L 449 872 L 934 872 L 934 645 L 408 645 L 295 0 Z" unicode="F" />
<glyph horiz-adv-x="1511" d="M 629 -29 C 537 -29 456 -13 388 18 C 320 49 263 92 219 147 C 174 201 141 266 119 341 C 97 416 86 497 86 584 C 86 738 106 874 148 994 C 190 1114 245 1214 315 1295 C 385 1376 465 1438 557 1480 C 649 1522 744 1544 844 1544 C 994 1544 1113 1511 1203 1447 C 1292 1383 1353 1288 1386 1163 L 1149 1092 C 1129 1167 1092 1222 1038 1257 C 984 1291 913 1309 827 1309 C 762 1309 700 1293 642 1263 C 583 1233 532 1188 489 1130 C 445 1072 411 999 385 912 C 359 824 346 724 346 612 C 346 544 354 484 370 432 C 386 380 409 336 438 302 C 467 268 502 242 543 225 C 583 207 628 199 678 199 C 726 199 771 206 814 221 C 856 236 895 258 929 287 C 963 315 993 351 1018 394 C 1043 437 1063 487 1077 543 L 797 543 L 797 760 L 1362 760 L 1227 0 L 1016 0 L 1047 176 L 1042 176 C 1027 152 1007 127 982 103 C 957 79 928 57 894 37 C 860 17 820 1 776 -10 C 731 -22 682 -29 629 -29 Z" unicode="G" />
<glyph horiz-adv-x="1524" d="M 295 0 L 39 0 L 305 1516 L 561 1516 L 455 911 L 1122 911 L 1229 1516 L 1485 1516 L 1219 0 L 963 0 L 1081 674 L 414 674 L 295 0 Z" unicode="H" />
<glyph horiz-adv-x="635" d="M 311 0 L 55 0 L 322 1516 L 578 1516 L 311 0 Z" unicode="I" />
<glyph horiz-adv-x="1055" d="M 369 -29 C 323 -29 282 -25 245 -19 C 207 -12 172 -2 140 11 C 108 25 76 42 46 63 C 15 83 -16 108 -49 137 L 68 354 C 128 292 178 251 219 231 C 260 211 304 201 350 201 C 381 201 410 204 436 210 C 462 216 486 228 506 246 C 526 263 544 287 559 319 C 573 351 585 392 594 442 L 782 1516 L 1038 1516 L 844 401 C 818 259 768 152 692 80 C 616 7 508 -29 369 -29 Z" unicode="J" />
<glyph horiz-adv-x="1409" d="M 1245 20 L 991 -20 L 631 760 L 387 524 L 295 0 L 39 0 L 305 1516 L 561 1516 L 438 823 L 1159 1516 L 1440 1516 L 829 930 L 1245 20 Z" unicode="K" />
<glyph horiz-adv-x="1163" d="M 991 0 L 39 0 L 305 1516 L 561 1516 L 336 233 L 991 233 L 991 0 Z" unicode="L" />
<glyph horiz-adv-x="1808" d="M 270 0 L 39 0 L 305 1516 L 643 1516 L 827 313 L 831 313 L 1427 1516 L 1769 1516 L 1503 0 L 1255 0 L 1456 1137 L 1452 1137 C 1431 1083 1409 1031 1385 979 C 1361 927 1336 875 1311 823 L 879 0 L 651 0 L 514 823 C 510 850 506 875 502 899 C 498 923 495 947 492 971 C 488 995 485 1022 483 1051 C 480 1079 478 1112 477 1149 L 473 1149 L 270 0 Z" unicode="M" />
<glyph horiz-adv-x="1542" d="M 276 0 L 39 0 L 305 1516 L 565 1516 L 1071 428 L 1075 428 L 1268 1516 L 1503 1516 L 1237 0 L 1004 0 L 475 1110 L 471 1110 L 276 0 Z" unicode="N" />
<glyph horiz-adv-x="1544" d="M 680 -29 C 592 -29 511 -13 437 16 C 363 46 300 89 248 145 C 196 201 155 269 126 349 C 96 429 82 519 82 618 C 82 768 104 902 150 1018 C 196 1134 256 1230 330 1308 C 404 1385 490 1444 586 1484 C 682 1524 781 1544 881 1544 C 966 1544 1044 1529 1116 1499 C 1188 1469 1249 1426 1301 1370 C 1352 1314 1392 1247 1421 1167 C 1449 1087 1464 997 1464 899 C 1464 749 1441 616 1397 500 C 1353 384 1294 287 1222 209 C 1149 131 1065 71 971 31 C 876 -8 779 -29 680 -29 Z M 692 203 C 757 203 821 217 883 245 C 945 273 999 316 1047 374 C 1095 431 1133 503 1162 591 C 1191 678 1206 780 1206 897 C 1206 1026 1175 1127 1115 1200 C 1055 1272 968 1309 854 1309 C 790 1309 727 1295 665 1267 C 603 1239 549 1197 501 1141 C 453 1085 414 1013 384 927 C 354 840 340 738 340 621 C 340 490 370 388 431 314 C 492 240 579 203 692 203 Z" unicode="O" />
<glyph horiz-adv-x="1337" d="M 39 0 L 305 1516 L 754 1516 C 841 1516 920 1508 991 1493 C 1062 1477 1122 1453 1172 1421 C 1222 1389 1260 1347 1288 1297 C 1315 1247 1329 1187 1329 1118 C 1329 1014 1311 928 1275 858 C 1239 788 1193 732 1135 690 C 1077 648 1012 619 938 601 C 864 583 789 575 713 575 L 393 575 L 293 0 L 39 0 Z M 432 799 L 737 799 C 786 799 831 803 872 813 C 913 822 948 838 978 860 C 1007 882 1030 912 1046 950 C 1062 987 1071 1034 1071 1090 C 1071 1156 1045 1204 993 1235 C 941 1266 856 1282 739 1282 L 518 1282 L 432 799 Z" unicode="P" />
<glyph horiz-adv-x="1544" d="M 1071 -395 L 924 -395 C 774 -395 662 -361 590 -293 C 517 -225 487 -127 500 0 C 436 16 378 43 326 79 C 274 115 231 159 195 211 C 159 263 131 324 111 393 C 91 461 82 536 82 618 C 82 768 104 902 150 1018 C 196 1134 256 1230 330 1308 C 404 1385 489 1444 585 1484 C 681 1524 779 1544 879 1544 C 964 1544 1043 1529 1115 1499 C 1187 1469 1248 1426 1299 1370 C 1350 1314 1390 1247 1419 1167 C 1447 1087 1462 997 1462 899 C 1462 757 1442 631 1402 521 C 1362 411 1310 317 1244 241 C 1178 165 1103 105 1017 62 C 931 18 842 -7 750 -16 C 748 -50 751 -78 759 -98 C 767 -118 783 -134 805 -144 C 827 -154 856 -161 894 -164 C 932 -166 978 -168 1034 -168 L 1153 -168 L 1071 -395 Z M 696 203 C 760 203 822 217 883 245 C 944 273 998 316 1046 374 C 1093 431 1131 503 1160 591 C 1189 678 1204 780 1204 897 C 1204 1026 1173 1127 1111 1200 C 1049 1272 962 1309 850 1309 C 786 1309 723 1295 661 1267 C 599 1239 545 1197 497 1141 C 449 1085 411 1013 382 927 C 352 840 338 738 338 621 C 338 490 369 388 431 314 C 493 240 582 203 696 203 Z" unicode="Q" />
<glyph horiz-adv-x="1395" d="M 291 0 L 39 0 L 305 1516 L 766 1516 C 855 1516 935 1507 1005 1491 C 1075 1474 1134 1449 1182 1417 C 1230 1385 1266 1344 1291 1295 C 1316 1245 1329 1188 1329 1124 C 1329 1055 1319 992 1299 936 C 1279 879 1251 830 1215 788 C 1179 746 1136 711 1086 684 C 1036 657 981 639 922 629 L 1163 20 L 915 -20 L 678 598 L 395 598 L 291 0 Z M 516 1282 L 436 821 L 741 821 C 786 821 829 824 869 831 C 909 838 944 851 974 871 C 1004 891 1027 919 1045 955 C 1062 991 1071 1038 1071 1096 C 1071 1163 1044 1211 992 1239 C 939 1267 858 1282 750 1282 L 516 1282 Z" unicode="R" />
<glyph horiz-adv-x="1360" d="M 731 1546 C 800 1546 862 1540 918 1529 C 974 1518 1024 1503 1068 1484 C 1112 1465 1153 1443 1189 1417 C 1225 1391 1258 1364 1290 1335 L 1147 1141 C 1087 1193 1022 1235 953 1266 C 883 1297 804 1313 715 1313 C 636 1313 573 1296 525 1264 C 477 1231 453 1181 453 1114 C 453 1041 492 987 570 951 C 648 915 733 880 826 845 C 919 809 1005 764 1083 709 C 1161 653 1200 570 1200 459 C 1200 375 1185 303 1155 241 C 1125 179 1085 128 1033 88 C 981 48 919 18 847 -1 C 775 -21 697 -31 614 -31 C 538 -31 469 -24 409 -10 C 348 4 293 23 244 47 C 194 71 149 100 108 134 C 66 168 27 204 -10 242 L 154 426 C 182 396 212 367 243 339 C 274 311 308 287 346 267 C 383 246 425 229 473 217 C 520 205 575 199 637 199 C 677 199 715 202 752 209 C 789 215 822 227 850 243 C 878 259 901 281 918 309 C 935 337 944 373 944 416 C 944 494 905 551 827 588 C 749 625 663 661 570 696 C 477 731 392 776 314 830 C 236 884 197 968 197 1081 C 197 1159 211 1227 239 1286 C 267 1344 306 1393 354 1431 C 402 1469 459 1498 524 1517 C 589 1536 658 1546 731 1546 Z" unicode="S" />
<glyph horiz-adv-x="1280" d="M 635 0 L 379 0 L 602 1278 L 145 1278 L 188 1516 L 1335 1516 L 1335 1278 L 858 1278 L 635 0 Z" unicode="T" />
<glyph horiz-adv-x="1456" d="M 643 -27 C 529 -27 435 -10 361 21 C 287 53 230 97 190 153 C 150 209 125 275 116 351 C 106 427 109 508 125 596 L 285 1516 L 541 1516 L 379 582 C 369 524 365 471 369 425 C 373 379 385 339 406 307 C 427 275 458 250 499 233 C 539 215 591 207 655 207 C 759 207 840 231 897 280 C 954 329 993 412 1014 528 L 1186 1516 L 1438 1516 L 1260 498 C 1229 323 1162 192 1058 104 C 954 16 816 -27 643 -27 Z" unicode="U" />
<glyph horiz-adv-x="1376" d="M 674 -6 L 432 -6 L 188 1495 L 436 1536 L 612 334 L 616 334 L 1210 1516 L 1458 1516 L 674 -6 Z" unicode="V" />
<glyph horiz-adv-x="1913" d="M 545 0 L 319 0 L 195 1495 L 446 1536 L 494 731 C 496 671 499 612 503 554 C 507 496 510 438 512 379 L 516 379 C 538 438 561 496 584 553 C 606 610 630 669 655 729 L 975 1516 L 1221 1516 L 1272 725 C 1276 661 1279 603 1282 551 C 1285 499 1287 442 1288 379 L 1292 379 C 1304 412 1316 442 1327 470 C 1337 498 1348 524 1358 550 C 1368 576 1379 602 1390 630 C 1401 657 1413 687 1427 719 L 1747 1516 L 1987 1516 L 1331 0 L 1108 0 L 1038 1161 L 1034 1161 L 545 0 Z" unicode="W" />
<glyph horiz-adv-x="1407" d="M 1198 20 L 954 -20 L 666 608 L 199 0 L -72 0 L 569 819 L 262 1495 L 506 1536 L 750 999 L 1141 1516 L 1411 1516 L 846 788 L 1198 20 Z" unicode="X" />
<glyph horiz-adv-x="1333" d="M 662 0 L 406 0 L 520 653 L 174 1495 L 418 1536 L 682 870 L 1163 1516 L 1436 1516 L 776 653 L 662 0 Z" unicode="Y" />
<glyph horiz-adv-x="1300" d="M 1098 0 L -61 0 L -25 199 L 979 1282 L 240 1282 L 240 1516 L 1343 1516 L 1309 1313 L 313 229 L 1098 229 L 1098 0 Z" unicode="Z" />
<glyph horiz-adv-x="852" d="M 573 -410 L -47 -410 L 291 1516 L 911 1516 L 881 1335 L 514 1335 L 240 -229 L 606 -229 L 573 -410 Z" unicode="[" />
<glyph horiz-adv-x="1184" d="M 1022 0 L 776 0 L 162 1516 L 408 1516 L 1022 0 Z" unicode="\" />
<glyph horiz-adv-x="852" d="M 489 -410 L -131 -410 L -100 -229 L 268 -229 L 543 1335 L 176 1335 L 207 1516 L 827 1516 L 489 -410 Z" unicode="]" />
<glyph horiz-adv-x="1315" d="M 117 678 L 588 1516 L 735 1516 L 1206 678 L 993 678 L 662 1260 L 330 678 L 117 678 Z" unicode="^" />
<glyph horiz-adv-x="1014" d="M 829 -297 L -186 -297 L -154 -115 L 860 -115 L 829 -297 Z" unicode="_" />
<glyph horiz-adv-x="1024" d="M 705 1202 L 539 1202 L 274 1542 L 545 1542 L 705 1202 Z" unicode="`" />
<glyph horiz-adv-x="1147" d="M 389 176 C 444 176 496 187 546 211 C 596 234 644 265 690 303 L 731 541 C 637 533 559 522 496 508 C 432 494 382 476 344 456 C 306 436 278 412 262 386 C 246 359 238 329 238 297 C 238 261 251 231 277 209 C 303 187 340 176 389 176 Z M 281 -18 C 189 -18 116 6 62 55 C 8 103 -18 167 -18 246 C -18 376 44 482 168 564 C 292 645 490 694 762 711 L 768 741 C 779 795 771 835 743 861 C 715 887 666 901 596 901 C 536 901 475 892 413 874 C 351 856 296 829 248 793 L 137 948 C 161 969 191 989 225 1009 C 259 1028 297 1045 339 1060 C 381 1074 428 1086 479 1095 C 530 1103 585 1108 643 1108 C 722 1108 788 1097 840 1077 C 892 1057 933 1028 961 992 C 989 956 1007 912 1014 861 C 1020 810 1018 754 1008 694 L 885 0 L 662 0 L 662 139 C 600 83 537 42 472 18 C 406 -5 343 -18 281 -18 Z" unicode="a" />
<glyph horiz-adv-x="1231" d="M 614 -18 C 536 -18 471 -7 417 12 C 363 32 316 65 276 109 L 242 0 L 8 0 L 270 1495 L 530 1536 L 426 944 C 440 964 459 983 481 1003 C 503 1023 529 1040 557 1056 C 585 1071 616 1083 650 1093 C 684 1103 720 1108 758 1108 C 815 1108 867 1098 913 1078 C 959 1058 997 1029 1029 992 C 1060 955 1084 910 1101 857 C 1117 803 1126 744 1126 678 C 1126 569 1112 471 1085 385 C 1057 299 1020 226 974 166 C 928 106 873 61 811 29 C 749 -2 683 -18 614 -18 Z M 553 182 C 593 182 632 191 670 210 C 708 228 741 256 771 294 C 801 332 825 380 843 438 C 861 496 870 563 870 641 C 870 718 851 779 813 825 C 775 870 722 893 653 893 C 627 893 602 889 577 881 C 552 873 528 863 506 851 C 483 839 462 825 443 809 C 424 793 408 778 395 762 L 309 291 C 341 254 377 227 418 209 C 459 191 504 182 553 182 Z" unicode="b" />
<glyph horiz-adv-x="1096" d="M 487 -23 C 422 -23 362 -12 306 7 C 250 27 201 57 161 96 C 121 135 89 184 66 243 C 42 301 31 369 31 446 C 31 568 49 672 87 757 C 124 841 171 909 227 961 C 283 1013 346 1050 414 1073 C 482 1096 548 1108 610 1108 C 677 1108 735 1100 783 1086 C 831 1072 872 1052 905 1026 C 937 1000 963 968 983 932 C 1003 895 1018 855 1030 811 L 823 729 C 808 788 784 831 752 858 C 719 885 668 899 598 899 C 556 899 517 889 479 870 C 441 851 407 823 379 785 C 350 747 327 699 310 641 C 293 583 285 515 285 438 C 285 355 302 292 337 248 C 372 204 426 182 500 182 C 527 182 552 184 576 190 C 599 195 621 205 643 219 C 665 233 687 254 709 280 C 731 306 756 339 782 381 L 963 266 C 942 228 918 192 891 157 C 863 122 831 91 794 65 C 756 38 712 17 662 1 C 612 -15 553 -23 487 -23 Z" unicode="c" />
<glyph horiz-adv-x="1231" d="M 502 182 C 548 182 593 193 637 216 C 680 238 721 271 760 313 L 844 784 C 815 816 781 843 742 863 C 702 883 655 893 600 893 C 564 893 528 884 491 868 C 453 852 419 825 389 789 C 358 753 333 705 313 646 C 293 587 283 516 283 432 C 283 351 302 289 340 246 C 378 203 432 182 502 182 Z M 399 -18 C 349 -18 301 -9 256 7 C 210 24 171 50 138 85 C 104 119 78 164 58 218 C 38 272 29 337 29 412 C 29 532 44 636 75 724 C 105 812 145 884 194 941 C 242 997 297 1039 359 1067 C 420 1094 481 1108 541 1108 C 620 1108 688 1096 744 1073 C 800 1049 845 1019 879 983 L 967 1495 L 1227 1536 L 956 0 L 729 0 L 729 143 C 691 93 644 53 590 25 C 535 -3 471 -18 399 -18 Z" unicode="d" />
<glyph horiz-adv-x="1135" d="M 498 -23 C 430 -23 367 -13 310 6 C 252 26 203 55 162 94 C 120 132 88 181 65 239 C 42 297 31 364 31 440 C 31 570 52 679 94 765 C 136 851 188 920 248 971 C 308 1021 372 1057 439 1077 C 506 1097 564 1108 614 1108 C 695 1108 765 1094 823 1067 C 881 1040 926 1001 960 951 C 993 900 1014 838 1024 765 C 1033 692 1030 610 1014 520 L 1004 461 L 276 461 L 276 436 C 276 383 283 340 299 306 C 315 272 335 245 359 227 C 383 208 411 195 441 188 C 471 181 501 178 530 178 C 563 178 594 181 622 187 C 650 193 678 203 704 215 C 730 227 755 242 781 260 C 807 278 834 298 862 322 L 969 162 C 908 106 842 61 770 27 C 698 -6 607 -23 498 -23 Z M 303 649 L 807 649 C 815 725 803 787 773 833 C 742 879 683 903 596 903 C 532 903 474 882 421 840 C 367 798 328 734 303 649 Z" unicode="e" />
<glyph horiz-adv-x="756" d="M 350 0 L 98 0 L 254 887 L 70 887 L 106 1087 L 291 1087 L 313 1221 C 320 1266 331 1307 347 1345 C 363 1382 385 1414 414 1440 C 442 1466 479 1486 523 1500 C 567 1514 622 1522 686 1522 C 698 1522 712 1521 728 1520 C 744 1518 759 1517 775 1516 C 791 1514 805 1513 818 1511 C 830 1509 839 1507 844 1507 L 825 1325 C 817 1327 802 1329 781 1331 C 760 1333 739 1335 719 1335 C 699 1335 681 1333 664 1331 C 647 1328 632 1322 619 1313 C 606 1304 595 1291 585 1274 C 575 1256 568 1233 563 1204 L 543 1087 L 770 1087 L 733 887 L 506 887 L 350 0 Z" unicode="f" />
<glyph horiz-adv-x="1198" d="M 530 502 C 564 502 596 506 626 516 C 656 525 681 539 702 559 C 723 579 740 604 752 635 C 764 666 770 703 770 745 C 770 800 754 843 722 875 C 690 906 638 922 567 922 C 533 922 502 917 472 907 C 442 897 416 881 394 861 C 372 841 354 815 341 785 C 328 754 322 718 322 678 C 322 622 339 579 373 548 C 407 517 460 502 530 502 Z M 514 332 C 474 332 437 335 403 341 C 369 347 337 355 309 367 C 295 357 284 348 278 338 C 271 328 268 318 268 309 C 268 293 273 280 285 270 C 297 260 314 252 338 245 C 361 238 390 232 426 226 C 462 220 503 214 551 207 C 603 199 655 189 705 178 C 755 166 800 150 840 130 C 879 109 911 82 935 50 C 959 17 971 -24 971 -74 C 971 -140 955 -195 924 -240 C 893 -285 852 -321 801 -348 C 750 -375 691 -394 625 -406 C 558 -418 490 -424 420 -424 C 316 -424 227 -415 155 -399 C 83 -383 24 -361 -20 -335 C -64 -309 -97 -278 -117 -244 C -137 -210 -147 -175 -147 -139 C -147 -102 -139 -69 -123 -41 C -107 -12 -88 12 -65 33 C -42 54 -17 72 9 86 C 36 100 61 111 84 119 C 65 131 51 146 41 164 C 31 181 27 201 27 225 C 27 257 39 293 63 331 C 87 369 131 402 197 432 C 159 464 130 502 112 546 C 93 589 84 636 84 686 C 84 753 97 813 124 866 C 150 919 186 963 232 999 C 277 1034 330 1061 391 1080 C 451 1098 515 1108 582 1108 C 658 1108 723 1096 779 1074 C 834 1051 879 1021 913 983 C 953 1013 997 1039 1044 1060 C 1090 1081 1135 1094 1178 1098 L 1178 897 C 1145 896 1111 893 1076 889 C 1041 885 1009 878 981 870 C 987 850 991 830 995 809 C 999 787 1001 766 1001 745 C 1001 677 988 618 962 566 C 936 514 901 470 857 436 C 813 402 761 376 702 358 C 642 340 580 332 514 332 Z M 115 -100 C 115 -122 120 -142 131 -160 C 142 -177 161 -191 188 -203 C 214 -215 250 -224 296 -230 C 341 -236 397 -240 465 -240 C 501 -240 536 -238 569 -234 C 601 -230 630 -224 655 -216 C 679 -207 699 -195 713 -181 C 727 -166 735 -147 735 -125 C 735 -102 728 -83 714 -67 C 700 -51 680 -38 656 -28 C 632 -17 603 -8 569 -1 C 535 5 498 12 459 18 C 419 24 379 30 341 36 C 303 42 267 49 233 57 C 201 42 174 21 150 -7 C 126 -35 115 -66 115 -100 Z" unicode="g" />
<glyph horiz-adv-x="1214" d="M 260 0 L 8 0 L 272 1495 L 532 1536 L 426 934 C 444 955 467 976 493 997 C 519 1018 549 1037 581 1053 C 613 1069 649 1083 687 1093 C 725 1103 764 1108 805 1108 C 913 1108 992 1078 1041 1018 C 1089 958 1104 874 1085 768 L 950 0 L 698 0 L 823 713 C 834 771 828 816 806 847 C 784 877 741 893 678 893 C 632 893 583 880 533 855 C 482 830 435 798 393 758 L 260 0 Z" unicode="h" />
<glyph horiz-adv-x="557" d="M 369 1247 C 323 1247 289 1261 268 1289 C 247 1317 240 1351 248 1389 C 254 1426 271 1456 298 1479 C 325 1501 362 1513 408 1513 C 454 1513 488 1499 510 1471 C 532 1443 539 1410 532 1372 C 525 1334 508 1303 480 1281 C 452 1258 415 1247 369 1247 Z M 270 0 L 18 0 L 211 1087 L 463 1087 L 270 0 Z" unicode="i" />
<glyph horiz-adv-x="557" d="M 367 1247 C 321 1247 287 1261 266 1289 C 245 1317 238 1351 246 1389 C 252 1426 269 1456 296 1479 C 323 1501 360 1513 406 1513 C 452 1513 486 1499 508 1471 C 530 1443 537 1410 530 1372 C 523 1334 506 1303 478 1281 C 450 1258 413 1247 367 1247 Z M -47 -416 C -89 -416 -126 -414 -158 -412 C -189 -409 -214 -406 -233 -403 L -219 -225 C -208 -227 -192 -229 -170 -232 C -148 -234 -129 -236 -113 -236 C -79 -236 -53 -226 -37 -208 C -20 -190 -8 -157 0 -109 L 213 1087 L 465 1087 L 244 -168 C 229 -242 200 -301 158 -347 C 116 -393 47 -416 -47 -416 Z" unicode="j" />
<glyph horiz-adv-x="1133" d="M 260 0 L 8 0 L 274 1516 L 526 1516 L 371 627 L 852 1087 L 1120 1087 L 696 686 L 963 20 L 723 -20 L 504 522 L 322 352 L 260 0 Z" unicode="k" />
<glyph horiz-adv-x="557" d="M 270 0 L 18 0 L 281 1495 L 541 1536 L 270 0 Z" unicode="l" />
<glyph horiz-adv-x="1872" d="M 260 0 L 8 0 L 201 1087 L 432 1087 L 426 934 C 444 955 466 976 491 997 C 515 1018 543 1037 573 1053 C 603 1069 637 1083 673 1093 C 709 1103 747 1108 788 1108 C 870 1108 934 1091 980 1057 C 1025 1023 1054 980 1067 926 C 1117 980 1175 1023 1241 1057 C 1307 1091 1380 1108 1462 1108 C 1570 1108 1649 1078 1698 1018 C 1747 958 1762 874 1743 768 L 1608 0 L 1356 0 L 1481 713 C 1491 771 1485 816 1463 847 C 1441 877 1398 893 1335 893 C 1291 893 1246 880 1201 856 C 1155 832 1111 800 1067 760 L 934 0 L 682 0 L 807 713 C 817 771 811 816 789 847 C 767 877 724 893 662 893 C 616 893 571 880 525 855 C 479 830 435 798 393 758 L 260 0 Z" unicode="m" />
<glyph horiz-adv-x="1214" d="M 260 0 L 8 0 L 201 1087 L 432 1087 L 426 934 C 444 955 467 976 493 997 C 519 1018 549 1037 581 1053 C 613 1069 649 1083 687 1093 C 725 1103 764 1108 805 1108 C 913 1108 992 1078 1041 1018 C 1089 958 1104 874 1085 768 L 950 0 L 698 0 L 823 713 C 834 771 828 816 806 847 C 784 877 741 893 678 893 C 632 893 583 880 533 855 C 482 830 435 798 393 758 L 260 0 Z" unicode="n" />
<glyph horiz-adv-x="1200" d="M 498 -23 C 434 -23 373 -12 317 7 C 260 27 210 57 168 97 C 126 136 92 185 68 244 C 43 303 31 371 31 449 C 31 567 49 668 85 752 C 121 836 168 904 225 956 C 282 1008 346 1047 417 1071 C 488 1095 558 1108 627 1108 C 691 1108 751 1098 808 1078 C 864 1058 914 1029 956 990 C 998 951 1032 902 1057 843 C 1081 784 1094 716 1094 639 C 1094 521 1075 421 1039 337 C 1003 253 956 184 899 131 C 842 78 778 39 707 14 C 636 -10 566 -23 498 -23 Z M 518 182 C 562 182 603 191 642 211 C 681 231 715 260 745 298 C 774 336 797 384 814 441 C 831 497 840 562 840 635 C 840 673 835 709 826 742 C 817 774 803 802 784 825 C 765 848 741 866 711 879 C 681 892 645 899 604 899 C 560 899 518 888 479 868 C 440 848 406 818 378 780 C 349 741 326 693 310 637 C 293 580 285 516 285 444 C 285 405 289 369 298 337 C 306 305 320 277 338 254 C 356 231 380 213 410 201 C 440 188 476 182 518 182 Z" unicode="o" />
<glyph horiz-adv-x="1231" d="M 553 182 C 589 182 626 190 664 208 C 702 226 736 253 766 290 C 796 326 821 374 841 432 C 860 490 870 559 870 639 C 870 720 850 783 812 827 C 773 871 720 893 653 893 C 607 893 560 880 512 855 C 464 829 425 798 395 762 L 309 291 C 341 257 377 230 415 211 C 453 191 499 182 553 182 Z M 190 -391 L -70 -432 L 201 1087 L 432 1087 L 426 944 C 460 988 506 1027 565 1059 C 623 1091 687 1108 756 1108 C 812 1108 864 1098 910 1079 C 956 1059 995 1031 1027 995 C 1059 958 1083 913 1100 859 C 1117 805 1126 745 1126 678 C 1126 566 1111 466 1083 380 C 1055 293 1017 220 970 162 C 922 103 867 58 805 28 C 743 -2 678 -18 612 -18 C 538 -18 473 -7 418 13 C 363 34 317 66 279 109 L 190 -391 Z" unicode="p" />
<glyph horiz-adv-x="1231" d="M 889 -389 L 629 -430 L 729 137 C 691 89 644 51 590 23 C 535 -4 471 -18 399 -18 C 343 -18 293 -8 247 10 C 201 28 162 56 130 92 C 98 128 73 173 55 227 C 37 281 29 342 29 412 C 29 533 44 638 75 726 C 106 814 146 887 195 943 C 244 999 299 1041 361 1068 C 422 1094 483 1108 543 1108 C 629 1108 699 1095 753 1071 C 806 1046 848 1017 879 983 L 918 1087 L 1149 1087 L 889 -389 Z M 502 182 C 548 182 593 193 637 216 C 680 238 721 271 760 313 L 844 784 C 815 816 781 843 742 863 C 702 883 655 893 600 893 C 564 893 528 884 491 868 C 453 852 419 825 389 789 C 358 753 333 705 313 646 C 293 587 283 516 283 432 C 283 351 302 289 340 246 C 378 203 432 182 502 182 Z" unicode="q" />
<glyph horiz-adv-x="834" d="M 260 0 L 8 0 L 201 1087 L 432 1087 L 422 909 L 424 909 C 444 934 468 959 496 983 C 523 1007 554 1029 588 1047 C 622 1065 661 1080 703 1091 C 745 1102 791 1108 842 1108 L 831 879 C 824 881 813 882 798 884 C 783 886 764 887 741 887 C 709 887 676 882 643 872 C 610 862 578 849 547 831 C 516 813 486 792 458 768 C 429 744 403 717 381 688 L 260 0 Z" unicode="r" />
<glyph horiz-adv-x="1051" d="M 449 -20 C 387 -20 330 -14 278 -4 C 226 6 180 20 140 38 C 99 56 64 76 34 100 C 4 124 -20 149 -39 176 L 86 338 C 130 287 184 247 248 217 C 312 187 382 172 457 172 C 485 171 512 173 538 177 C 563 181 585 188 604 198 C 622 208 637 222 648 240 C 658 258 664 280 664 307 C 664 355 635 389 577 411 C 519 433 456 455 388 478 C 320 501 257 532 199 572 C 141 612 113 674 113 758 C 113 816 124 868 146 912 C 168 956 198 993 235 1022 C 271 1050 314 1072 363 1086 C 411 1100 462 1108 514 1108 C 573 1108 626 1103 673 1095 C 720 1087 762 1076 799 1062 C 836 1048 869 1033 898 1015 C 927 997 953 979 977 961 L 856 784 C 816 818 769 847 716 873 C 662 898 598 911 524 911 C 471 911 430 901 401 881 C 372 861 358 831 358 791 C 358 741 386 706 444 685 C 502 663 565 641 633 619 C 701 596 764 565 822 527 C 880 489 909 428 909 346 C 909 273 894 213 866 166 C 838 118 802 81 758 54 C 714 26 664 7 609 -3 C 554 -14 501 -20 449 -20 Z" unicode="s" />
<glyph horiz-adv-x="811" d="M 428 -14 C 357 -14 301 -6 259 8 C 217 23 186 45 166 73 C 146 101 135 134 133 174 C 131 214 134 258 143 307 L 246 887 L 61 887 L 98 1087 L 283 1087 L 344 1446 L 604 1487 L 535 1087 L 805 1087 L 768 887 L 498 887 L 401 344 C 396 314 394 288 394 268 C 394 247 399 230 408 218 C 416 206 430 197 450 192 C 469 186 495 184 528 184 C 544 184 562 185 582 188 C 601 190 617 193 631 197 L 631 8 C 616 4 591 0 556 -6 C 520 -11 478 -14 428 -14 Z" unicode="t" />
<glyph horiz-adv-x="1212" d="M 337 -23 C 229 -23 150 7 101 68 C 52 128 37 212 56 319 L 191 1087 L 443 1087 L 316 369 C 306 309 312 264 335 234 C 357 203 400 188 462 188 C 508 188 556 200 606 226 C 655 251 701 284 744 324 L 880 1087 L 1131 1087 L 939 0 L 708 0 L 714 154 C 695 132 672 111 646 90 C 620 68 591 49 559 33 C 527 16 492 2 454 -7 C 416 -17 377 -23 337 -23 Z" unicode="u" />
<glyph horiz-adv-x="1059" d="M 522 -4 L 268 -4 L 84 1067 L 334 1108 L 449 285 L 453 285 L 852 1087 L 1100 1087 L 522 -4 Z" unicode="v" />
<glyph horiz-adv-x="1544" d="M 438 0 L 207 0 L 88 1067 L 336 1108 L 371 637 C 375 581 378 525 381 469 C 384 413 387 354 389 291 L 393 291 C 407 327 421 359 433 389 C 445 418 457 446 468 473 C 479 500 490 527 502 554 C 514 580 527 609 541 641 L 735 1087 L 940 1087 L 979 633 C 981 603 984 574 986 548 C 988 521 991 494 993 468 C 995 442 996 414 998 386 C 1000 357 1002 325 1004 291 L 1008 291 C 1022 325 1035 357 1047 385 C 1059 413 1070 441 1081 467 C 1091 493 1102 519 1113 545 C 1124 571 1136 599 1149 629 L 1348 1087 L 1577 1087 L 1071 0 L 838 0 L 772 758 L 768 758 L 438 0 Z" unicode="w" />
<glyph horiz-adv-x="1071" d="M 166 0 L -94 0 L 371 569 L 137 1067 L 379 1108 L 549 748 L 817 1087 L 1075 1087 L 641 555 L 893 20 L 651 -20 L 463 377 L 166 0 Z" unicode="x" />
<glyph horiz-adv-x="1100" d="M 90 -422 C 30 -422 -22 -416 -68 -406 C -113 -396 -149 -385 -176 -375 L -92 -170 C -83 -174 -72 -178 -58 -183 C -44 -187 -29 -192 -13 -196 C 2 -200 18 -204 34 -207 C 50 -209 66 -211 80 -211 C 120 -211 152 -201 178 -181 C 204 -161 226 -132 246 -96 L 295 -6 L 88 1067 L 340 1108 L 473 295 L 477 295 L 887 1087 L 1139 1087 L 446 -164 C 399 -249 349 -313 295 -357 C 241 -400 173 -422 90 -422 Z" unicode="y" />
<glyph horiz-adv-x="1044" d="M 862 0 L -63 0 L -39 145 L 645 887 L 154 887 L 154 1087 L 1004 1087 L 977 936 L 291 195 L 862 195 L 862 0 Z" unicode="z" />
<glyph horiz-adv-x="842" d="M 575 -410 L 393 -410 C 338 -410 292 -403 255 -389 C 218 -375 189 -355 169 -331 C 148 -306 135 -276 129 -242 C 123 -207 123 -169 131 -129 L 193 217 C 201 267 204 308 202 340 C 199 372 190 397 175 415 C 160 433 139 446 111 453 C 83 459 49 463 8 463 L 41 643 C 83 643 119 646 149 653 C 179 659 204 672 225 690 C 246 708 263 734 277 766 C 291 798 302 839 311 889 L 373 1239 C 387 1327 423 1396 481 1444 C 538 1492 611 1516 700 1516 L 913 1516 L 883 1335 L 803 1335 C 747 1335 704 1321 674 1294 C 643 1267 623 1228 614 1176 L 559 860 C 550 810 539 767 525 733 C 511 698 494 669 476 646 C 457 622 436 604 412 590 C 388 576 361 564 332 555 L 330 551 C 356 541 378 529 398 515 C 417 501 432 482 443 459 C 453 436 459 407 461 373 C 463 338 459 296 451 246 L 395 -70 C 386 -122 392 -161 414 -188 C 435 -215 473 -229 528 -229 L 608 -229 L 575 -410 Z" unicode="{" />
<glyph horiz-adv-x="772" d="M 500 -410 L 252 -410 L 252 1516 L 500 1516 L 500 -410 Z" unicode="|" />
<glyph horiz-adv-x="842" d="M 90 -410 L -143 -410 L -113 -229 L -31 -229 C 24 -229 67 -215 97 -188 C 127 -161 146 -122 156 -70 L 215 266 C 223 316 234 357 248 390 C 262 422 278 449 296 470 C 314 490 335 507 359 519 C 383 531 409 541 438 551 L 440 555 C 414 564 391 575 372 587 C 352 599 337 615 326 636 C 314 656 307 683 305 716 C 303 748 306 790 315 840 L 375 1176 C 383 1228 377 1267 357 1294 C 336 1321 298 1335 244 1335 L 164 1335 L 195 1516 L 397 1516 C 451 1516 496 1510 532 1498 C 567 1486 594 1469 613 1447 C 631 1425 643 1397 647 1365 C 651 1332 650 1295 643 1255 L 580 889 C 571 839 568 798 570 766 C 572 734 581 708 596 690 C 610 672 631 659 659 653 C 687 646 722 643 764 643 L 731 463 C 689 463 652 459 622 453 C 592 446 566 433 545 415 C 524 397 507 372 494 340 C 480 308 469 267 461 217 L 395 -154 C 380 -242 348 -307 298 -348 C 248 -389 179 -410 90 -410 Z" unicode="}" />
<glyph horiz-adv-x="1315" d="M 934 537 C 894 537 847 545 794 559 C 740 573 687 589 635 606 C 582 623 533 639 487 653 C 441 667 405 675 381 676 C 354 678 332 672 315 659 C 297 646 287 621 283 584 L 129 606 C 140 704 168 774 214 816 C 259 858 315 879 381 877 C 422 875 469 867 523 853 C 577 838 630 822 682 805 C 734 788 783 772 829 758 C 874 743 909 735 934 735 C 960 734 983 740 1001 754 C 1019 767 1030 793 1034 831 L 1186 813 C 1174 713 1146 642 1101 598 C 1055 554 1000 534 934 537 Z" unicode="~" />
<glyph horiz-adv-x="514" d="" unicode=" " />
<glyph horiz-adv-x="694" d="M 473 1530 C 497 1530 519 1525 537 1517 C 555 1509 570 1498 581 1484 C 592 1470 599 1453 603 1435 C 607 1416 607 1396 604 1376 C 597 1335 578 1302 548 1276 C 518 1250 478 1237 428 1237 C 378 1237 341 1252 319 1282 C 296 1312 288 1348 295 1389 C 301 1429 320 1462 350 1489 C 380 1516 421 1530 473 1530 Z M 485 1063 L 367 0 L 51 0 L 305 1063 L 485 1063 Z" unicode="¡" />
<glyph horiz-adv-x="1108" d="M 592 909 C 551 909 511 899 472 879 C 433 859 399 829 369 790 C 339 751 315 702 297 643 C 279 583 270 515 270 438 C 270 399 274 364 284 332 C 293 300 306 272 324 250 L 627 907 C 621 907 616 908 610 908 C 604 908 598 909 592 909 Z M 485 -23 C 458 -23 432 -21 407 -17 C 382 -13 358 -8 336 -2 L 213 -264 L 74 -264 L 219 49 C 161 87 115 139 81 206 C 47 272 31 352 31 446 C 31 568 49 672 86 757 C 123 841 170 909 226 961 C 282 1013 345 1050 413 1073 C 481 1096 546 1108 608 1108 C 625 1108 642 1107 658 1106 C 674 1105 689 1104 705 1102 L 801 1307 L 940 1307 L 829 1069 C 891 1042 937 1002 969 950 C 1001 898 1024 837 1038 768 L 821 727 C 813 765 801 797 785 823 C 769 848 750 867 727 881 L 410 186 C 424 181 438 177 454 175 C 470 173 486 172 504 172 C 552 172 598 186 641 215 C 684 244 726 297 766 375 L 958 295 C 938 253 914 213 886 175 C 858 137 825 103 787 74 C 749 44 705 21 655 3 C 605 -14 548 -23 485 -23 Z" unicode="¢" />
<glyph horiz-adv-x="1325" d="M 205 -29 C 122 -29 57 -8 10 31 C -37 71 -61 124 -61 188 C -61 231 -53 269 -38 302 C -22 334 -2 361 24 383 C 50 405 80 421 115 432 C 149 443 185 449 223 449 C 273 449 318 440 358 422 C 398 404 436 382 471 358 C 475 376 478 396 480 416 C 482 436 483 457 483 481 C 483 517 479 552 473 587 C 467 621 459 656 449 690 L 170 690 L 199 858 L 393 858 C 380 900 368 942 358 984 C 347 1026 342 1069 342 1112 C 342 1180 354 1241 378 1295 C 402 1349 434 1394 475 1431 C 516 1467 564 1495 620 1515 C 676 1534 735 1544 799 1544 C 884 1544 954 1532 1009 1509 C 1064 1485 1107 1454 1138 1416 C 1168 1378 1189 1334 1201 1284 C 1213 1234 1219 1182 1219 1130 L 987 1110 C 987 1140 985 1169 980 1196 C 975 1223 965 1247 951 1267 C 937 1287 917 1303 892 1315 C 867 1327 835 1333 797 1333 C 767 1333 740 1328 715 1320 C 689 1312 667 1299 649 1281 C 630 1263 615 1239 604 1210 C 593 1180 588 1145 588 1104 C 588 1063 593 1022 605 982 C 617 942 630 900 645 858 L 983 858 L 954 690 L 692 690 C 698 664 703 638 706 610 C 709 582 711 554 711 526 C 711 471 704 419 691 369 C 678 319 660 273 637 231 C 662 215 688 201 716 191 C 743 181 772 176 803 176 C 827 176 851 179 873 185 C 895 191 915 202 933 218 C 950 234 964 257 976 287 C 987 317 994 355 997 401 L 1214 401 C 1207 339 1195 281 1178 229 C 1161 176 1137 131 1107 93 C 1076 55 1037 25 991 3 C 945 -18 889 -29 825 -29 C 759 -29 701 -17 651 4 C 601 26 556 53 518 84 C 475 48 427 20 374 0 C 320 -19 264 -29 205 -29 Z M 221 295 C 190 295 164 287 143 272 C 121 257 111 232 111 197 C 111 172 119 151 137 135 C 154 119 181 111 217 111 C 245 111 275 117 307 131 C 339 145 367 167 393 197 C 364 224 336 247 308 266 C 280 285 251 295 221 295 Z" unicode="£" />
<glyph horiz-adv-x="1315" d="M 656 508 C 720 508 773 529 815 572 C 856 614 877 671 877 741 C 877 811 856 867 815 909 C 773 951 720 973 656 973 C 592 973 539 951 498 909 C 457 867 437 811 437 741 C 437 671 457 614 498 572 C 539 529 592 508 656 508 Z M 656 361 C 622 361 589 365 558 373 C 527 381 499 393 473 408 L 269 204 L 122 351 L 324 553 C 308 579 295 608 286 640 C 277 672 273 705 273 740 C 273 774 277 807 286 838 C 294 869 306 898 321 925 L 122 1122 L 269 1270 L 470 1071 C 496 1086 525 1098 557 1106 C 589 1114 622 1119 656 1119 C 690 1119 724 1114 756 1106 C 788 1098 817 1086 843 1072 L 1040 1270 L 1188 1122 L 992 927 C 1007 900 1019 871 1027 840 C 1035 809 1040 776 1040 742 C 1040 707 1035 674 1027 642 C 1018 610 1006 580 990 554 L 1191 354 L 1043 207 L 842 409 C 815 393 786 381 754 373 C 722 365 690 361 656 361 Z" unicode="¤" />
<glyph horiz-adv-x="1323" d="M 655 0 L 399 0 L 434 199 L 68 199 L 98 371 L 465 371 L 489 514 L 123 514 L 154 682 L 516 682 L 172 1516 L 434 1516 L 678 870 L 1147 1516 L 1417 1516 L 780 682 L 1147 682 L 1116 514 L 745 514 L 721 371 L 1092 371 L 1061 199 L 690 199 L 655 0 Z" unicode="¥" />
<glyph horiz-adv-x="772" d="M 500 678 L 252 678 L 252 1516 L 500 1516 L 500 678 Z M 500 -410 L 252 -410 L 252 428 L 500 428 L 500 -410 Z" unicode="¦" />
<glyph horiz-adv-x="1139" d="M 295 623 C 295 591 303 562 320 535 C 336 507 358 481 385 457 C 411 432 442 407 476 383 C 510 359 545 334 580 309 C 644 337 692 368 726 400 C 759 432 776 469 776 512 C 776 543 767 572 750 600 C 733 627 711 653 685 677 C 658 701 627 726 593 750 C 558 774 523 798 489 823 C 425 794 377 764 344 733 C 311 701 295 665 295 623 Z M 408 -410 C 324 -410 256 -399 204 -378 C 151 -356 109 -329 79 -295 C 49 -261 27 -223 13 -180 C 0 -137 -10 -94 -16 -51 L 186 -20 C 190 -51 196 -79 204 -105 C 212 -131 225 -153 241 -171 C 257 -189 278 -204 304 -214 C 330 -224 362 -229 401 -229 C 462 -229 507 -214 537 -186 C 567 -157 582 -120 582 -76 C 582 -18 555 32 502 76 C 449 120 391 164 329 210 C 266 256 208 307 155 363 C 102 419 76 487 76 569 C 76 614 83 655 99 693 C 115 731 136 765 162 795 C 188 825 218 852 252 875 C 286 898 320 918 356 934 C 323 966 296 1002 276 1042 C 256 1082 246 1126 246 1176 C 246 1230 256 1279 277 1325 C 298 1370 327 1409 364 1441 C 401 1473 445 1499 497 1517 C 548 1535 604 1544 664 1544 C 744 1544 811 1534 865 1514 C 918 1494 961 1468 993 1436 C 1025 1404 1049 1366 1065 1323 C 1081 1280 1092 1236 1098 1190 L 897 1159 C 891 1217 871 1265 837 1304 C 803 1342 747 1362 670 1362 C 608 1362 561 1347 529 1317 C 497 1287 481 1250 481 1206 C 481 1151 507 1102 561 1059 C 615 1016 674 972 738 927 C 802 881 860 830 914 774 C 968 717 995 648 995 567 C 995 521 987 479 971 441 C 955 403 933 368 907 338 C 881 307 850 280 816 256 C 782 232 747 213 711 197 C 741 164 767 128 787 89 C 807 50 817 7 817 -41 C 817 -95 807 -144 787 -190 C 767 -235 739 -274 703 -306 C 667 -338 623 -364 573 -382 C 523 -400 468 -410 408 -410 Z" unicode="§" />
<glyph horiz-adv-x="1055" d="M 801 1182 C 759 1182 729 1196 711 1224 C 693 1252 687 1286 694 1325 C 701 1363 717 1394 742 1419 C 766 1443 800 1456 842 1456 C 884 1456 915 1442 933 1415 C 951 1387 957 1355 950 1317 C 943 1278 928 1246 904 1220 C 880 1194 845 1182 801 1182 Z M 408 1182 C 366 1182 336 1196 318 1224 C 300 1252 294 1286 301 1325 C 307 1363 323 1394 348 1419 C 373 1443 407 1456 449 1456 C 491 1456 522 1442 540 1415 C 558 1387 563 1355 557 1317 C 550 1278 535 1246 511 1220 C 487 1194 452 1182 408 1182 Z" unicode="¨" />
<glyph horiz-adv-x="1772" d="M 885 -29 C 775 -29 672 -8 577 32 C 481 72 399 128 329 198 C 259 268 204 351 164 447 C 124 543 104 646 104 756 C 104 865 124 968 165 1064 C 205 1160 261 1244 331 1315 C 401 1385 485 1441 581 1482 C 677 1523 779 1544 889 1544 C 998 1544 1100 1523 1196 1483 C 1292 1442 1375 1387 1445 1317 C 1515 1247 1570 1164 1610 1068 C 1650 972 1671 869 1671 760 C 1671 650 1650 546 1610 450 C 1569 354 1513 270 1443 200 C 1372 129 1289 73 1193 32 C 1097 -8 994 -29 885 -29 Z M 889 90 C 981 90 1068 107 1148 141 C 1228 175 1297 222 1355 282 C 1413 342 1458 412 1492 494 C 1525 575 1542 662 1542 756 C 1542 850 1525 937 1491 1019 C 1457 1101 1411 1172 1353 1232 C 1294 1292 1224 1339 1144 1373 C 1064 1407 977 1425 885 1425 C 793 1425 707 1408 627 1374 C 547 1340 478 1293 420 1234 C 362 1174 316 1104 283 1023 C 249 941 233 854 233 760 C 233 666 249 579 283 497 C 317 415 363 344 421 284 C 479 224 549 176 629 142 C 709 107 796 90 889 90 Z M 881 319 C 827 319 777 329 733 350 C 688 370 650 400 619 438 C 587 476 563 522 546 578 C 528 634 520 696 520 766 C 520 833 528 894 546 950 C 563 1005 587 1052 619 1090 C 650 1128 688 1157 734 1178 C 779 1199 829 1210 885 1210 C 968 1210 1037 1190 1092 1150 C 1147 1110 1186 1057 1210 989 L 1069 930 C 1053 976 1031 1011 1002 1035 C 973 1059 935 1071 887 1071 C 855 1071 827 1063 801 1049 C 775 1034 754 1013 736 987 C 718 961 705 929 696 892 C 686 854 682 813 682 768 C 682 672 700 596 736 542 C 772 488 823 461 887 461 C 933 461 972 473 1004 497 C 1036 521 1059 559 1075 612 L 1219 555 C 1192 479 1151 421 1097 380 C 1042 339 970 319 881 319 Z" unicode="©" />
<glyph horiz-adv-x="879" d="M 413 889 C 447 889 481 897 517 914 C 552 931 585 952 617 977 L 646 1137 C 582 1132 528 1125 486 1116 C 444 1106 410 1095 384 1082 C 358 1068 340 1053 329 1035 C 318 1017 312 997 312 975 C 310 950 317 929 333 913 C 349 897 376 889 413 889 Z M 331 745 C 297 745 266 750 239 761 C 212 771 190 786 172 804 C 154 822 140 843 132 869 C 124 894 121 921 124 950 C 132 1037 178 1107 262 1160 C 346 1213 481 1246 667 1260 L 671 1282 C 677 1316 673 1344 657 1364 C 641 1384 608 1395 556 1395 C 513 1395 472 1388 433 1375 C 393 1361 354 1341 314 1315 L 226 1421 C 278 1457 333 1486 393 1506 C 453 1526 518 1536 589 1536 C 646 1536 693 1528 730 1514 C 767 1500 795 1480 815 1454 C 834 1428 846 1396 850 1360 C 854 1323 852 1283 845 1239 L 761 762 L 599 762 L 599 862 C 556 823 511 794 465 774 C 418 754 373 745 331 745 Z" unicode="ª" />
<glyph horiz-adv-x="1204" d="M 504 0 L 260 0 L 29 545 L 453 1087 L 696 1087 L 285 545 L 504 0 Z M 985 0 L 741 0 L 510 545 L 934 1087 L 1178 1087 L 766 545 L 985 0 Z" unicode="«" />
<glyph horiz-adv-x="1309" d="M 1171 817 L 1171 176 L 967 176 L 967 600 L 137 600 L 137 817 L 1171 817 Z" unicode="¬" />
<glyph horiz-adv-x="731" d="M 584 553 L 78 553 L 111 733 L 616 733 L 584 553 Z" unicode="­" />
<glyph horiz-adv-x="1098" d="M 569 598 C 503 598 441 610 383 634 C 325 658 276 692 234 735 C 192 777 158 828 134 886 C 110 944 98 1006 98 1073 C 98 1139 110 1201 135 1259 C 159 1317 193 1367 236 1410 C 278 1452 329 1486 387 1511 C 445 1535 507 1548 573 1548 C 639 1548 700 1535 758 1511 C 816 1487 866 1453 908 1411 C 950 1369 983 1319 1007 1261 C 1031 1203 1044 1141 1044 1075 C 1044 1008 1031 945 1007 887 C 982 829 948 778 906 736 C 864 693 814 659 756 635 C 698 610 635 598 569 598 Z M 573 676 C 627 676 678 686 726 706 C 774 726 815 754 849 790 C 883 825 911 867 931 916 C 951 964 961 1017 961 1073 C 961 1128 951 1180 931 1229 C 911 1277 883 1319 848 1355 C 813 1390 772 1418 724 1439 C 676 1459 624 1470 569 1470 C 514 1470 463 1459 416 1439 C 368 1419 327 1391 293 1356 C 259 1320 232 1278 212 1230 C 192 1182 182 1130 182 1075 C 182 1019 192 966 212 918 C 232 869 259 827 294 791 C 328 755 370 727 418 707 C 466 686 517 676 573 676 Z M 389 823 L 389 1343 L 582 1343 C 643 1343 691 1329 725 1303 C 759 1276 776 1236 776 1184 C 776 1142 767 1109 749 1086 C 731 1063 706 1046 676 1036 L 786 831 L 680 817 L 573 1022 L 492 1022 L 492 823 L 389 823 Z M 492 1102 L 575 1102 C 607 1102 631 1107 649 1119 C 667 1130 676 1150 676 1178 C 676 1203 667 1221 649 1233 C 631 1245 607 1251 575 1251 L 492 1251 L 492 1102 Z" unicode="®" />
<glyph horiz-adv-x="1014" d="M 901 1196 L 272 1196 L 305 1382 L 934 1382 L 901 1196 Z" unicode="¯" />
<glyph horiz-adv-x="829" d="M 475 922 C 429 922 389 929 353 943 C 317 957 286 977 261 1002 C 236 1026 217 1056 204 1090 C 190 1124 184 1160 184 1198 C 184 1252 194 1300 215 1343 C 235 1385 262 1421 294 1451 C 326 1480 363 1502 404 1518 C 444 1534 484 1542 524 1542 C 569 1542 610 1534 646 1520 C 682 1506 713 1486 738 1462 C 762 1438 781 1409 795 1375 C 808 1341 815 1306 815 1268 C 815 1214 804 1165 784 1122 C 764 1079 737 1043 705 1013 C 672 983 635 961 595 945 C 555 929 515 922 475 922 Z M 477 1051 C 500 1051 523 1055 546 1064 C 569 1073 590 1086 608 1104 C 626 1122 640 1144 651 1170 C 662 1196 668 1226 668 1260 C 668 1304 654 1340 628 1369 C 602 1398 566 1413 520 1413 C 496 1413 473 1408 451 1399 C 428 1390 408 1377 390 1359 C 372 1341 358 1319 348 1293 C 337 1267 332 1237 332 1204 C 332 1160 345 1123 371 1094 C 397 1065 432 1051 477 1051 Z" unicode="°" />
<glyph horiz-adv-x="1315" d="M 137 59 L 137 250 L 557 250 L 557 631 L 137 631 L 137 829 L 557 829 L 557 1262 L 760 1262 L 760 829 L 1180 829 L 1180 631 L 760 631 L 760 250 L 1180 250 L 1180 59 L 137 59 Z" unicode="±" />
<glyph horiz-adv-x="952" d="M 90 553 L 98 602 C 118 723 161 814 227 874 C 293 934 360 982 430 1018 C 500 1053 562 1086 617 1117 C 672 1147 700 1194 700 1257 C 700 1285 690 1310 671 1331 C 652 1351 624 1362 588 1362 C 552 1362 514 1353 475 1336 C 436 1319 396 1285 356 1233 L 225 1341 C 278 1410 338 1460 405 1490 C 472 1520 542 1536 614 1536 C 663 1536 706 1529 743 1517 C 779 1504 810 1487 834 1465 C 858 1443 875 1416 887 1386 C 899 1356 905 1323 905 1288 C 905 1195 878 1124 826 1074 C 774 1024 715 983 649 950 C 583 916 520 884 460 853 C 400 822 362 779 346 723 L 811 723 L 782 553 L 90 553 Z" unicode="²" />
<glyph horiz-adv-x="952" d="M 461 537 C 370 537 294 555 233 592 C 171 628 126 679 96 743 L 244 840 C 271 788 303 752 340 734 C 377 716 416 707 457 707 C 517 707 563 720 595 747 C 627 774 643 812 643 860 C 643 900 629 931 599 953 C 569 975 520 987 453 987 L 373 987 L 399 1135 L 485 1135 C 556 1135 609 1145 644 1165 C 678 1185 696 1218 696 1266 C 696 1293 686 1316 668 1335 C 650 1354 619 1364 575 1364 C 535 1364 496 1356 458 1342 C 419 1328 380 1305 342 1274 L 250 1401 C 308 1451 368 1486 431 1506 C 493 1526 556 1536 618 1536 C 667 1536 710 1529 747 1517 C 783 1505 813 1488 837 1468 C 860 1447 877 1422 889 1394 C 901 1366 907 1336 907 1305 C 907 1245 891 1195 860 1153 C 828 1111 780 1080 715 1059 C 765 1042 801 1016 823 981 C 845 945 856 906 856 864 C 856 810 845 762 824 721 C 803 680 775 646 739 619 C 703 591 661 571 613 557 C 565 543 514 537 461 537 Z" unicode="³" />
<glyph horiz-adv-x="1014" d="M 578 1202 L 412 1202 L 653 1542 L 924 1542 L 578 1202 Z" unicode="´" />
<glyph horiz-adv-x="1221" d="M 0 0 L 0 0 Z M 188 -410 L -63 -410 L 201 1087 L 453 1087 L 326 369 C 314 309 320 265 342 235 C 364 205 407 190 471 190 C 517 190 564 202 612 226 C 659 250 706 283 752 324 L 887 1087 L 1139 1087 L 946 0 L 694 0 L 721 154 C 702 135 681 116 658 96 C 634 76 609 59 582 43 C 554 27 524 15 492 5 C 459 -5 425 -10 389 -10 C 362 -10 338 -5 318 2 C 297 10 280 22 268 37 L 188 -410 Z" unicode="µ" />
<glyph horiz-adv-x="1280" d="M 557 -410 L 377 -410 L 565 662 C 499 666 439 677 386 696 C 332 714 287 739 250 771 C 213 803 185 841 165 885 C 145 929 135 979 135 1034 C 135 1106 147 1172 172 1232 C 197 1291 232 1342 277 1384 C 322 1426 377 1458 441 1481 C 505 1504 577 1516 655 1516 L 1255 1516 L 918 -410 L 737 -410 L 1042 1321 L 862 1321 L 557 -410 Z" unicode="¶" />
<glyph horiz-adv-x="575" d="M 115 527 L 115 527 Z M 251 527 C 225 527 203 531 185 539 C 167 547 152 559 141 573 C 130 587 123 603 119 621 C 115 639 115 659 119 680 C 126 720 145 754 175 780 C 205 806 246 820 296 820 C 346 820 382 804 405 774 C 427 744 435 708 429 668 C 421 627 403 593 373 567 C 343 540 303 527 251 527 Z" unicode="·" />
<glyph horiz-adv-x="1014" d="M 352 -408 C 282 -408 224 -401 180 -387 C 135 -373 97 -355 66 -332 L 131 -250 C 157 -270 186 -286 218 -296 C 250 -306 286 -311 326 -311 C 363 -311 393 -304 415 -290 C 437 -276 449 -253 449 -223 C 449 -206 443 -193 431 -183 C 419 -173 403 -168 383 -168 C 368 -168 353 -171 337 -177 C 321 -183 306 -192 291 -205 L 225 -170 L 309 0 L 424 0 L 379 -104 C 392 -95 408 -88 426 -82 C 444 -76 464 -74 487 -74 C 525 -74 558 -85 584 -109 C 610 -133 623 -164 623 -203 C 623 -241 614 -274 597 -300 C 580 -326 559 -347 533 -363 C 507 -379 477 -390 445 -397 C 413 -404 382 -408 352 -408 Z" unicode="¸" />
<glyph horiz-adv-x="760" d="M 492 551 L 285 551 L 426 1350 L 264 1303 L 264 1454 L 461 1516 L 659 1516 L 492 551 Z" unicode="¹" />
<glyph horiz-adv-x="913" d="M 494 745 C 444 745 399 752 357 766 C 315 780 278 800 248 828 C 217 856 193 890 176 932 C 158 973 150 1021 150 1075 C 150 1162 164 1235 192 1295 C 220 1355 254 1402 296 1438 C 337 1474 382 1499 430 1515 C 478 1530 521 1538 561 1538 C 610 1538 656 1531 698 1517 C 740 1503 777 1482 808 1455 C 838 1427 862 1393 880 1352 C 898 1311 907 1264 907 1210 C 907 1124 892 1052 864 992 C 836 932 801 884 760 848 C 718 812 673 785 625 769 C 577 753 533 745 494 745 Z M 498 887 C 528 887 557 894 584 909 C 611 924 635 945 655 973 C 675 1001 691 1034 703 1074 C 715 1114 721 1158 721 1208 C 721 1234 718 1258 712 1281 C 706 1304 696 1324 683 1341 C 670 1357 653 1370 632 1380 C 611 1390 586 1395 557 1395 C 526 1395 497 1387 470 1372 C 443 1357 419 1336 399 1309 C 379 1281 363 1248 351 1208 C 339 1168 334 1124 334 1075 C 334 1049 336 1024 342 1001 C 348 978 357 958 370 942 C 383 925 400 912 421 902 C 442 892 468 887 498 887 Z" unicode="º" />
<glyph horiz-adv-x="1204" d="M 197 0 L -49 0 L 362 545 L 145 1087 L 389 1087 L 618 545 L 197 0 Z M 678 0 L 434 0 L 844 545 L 627 1087 L 870 1087 L 1100 545 L 678 0 Z" unicode="»" />
<glyph horiz-adv-x="2060" d="M 584 0 L 358 0 L 1518 1516 L 1743 1516 L 584 0 Z M 66 539 L 94 707 L 270 707 L 381 1329 C 354 1318 325 1309 293 1301 C 261 1293 230 1290 201 1290 L 227 1444 C 267 1444 303 1449 335 1459 C 367 1469 394 1484 418 1505 L 616 1505 L 477 707 L 631 707 L 602 539 L 66 539 Z M 1542 2 L 1579 213 L 1143 213 L 1165 344 L 1702 967 L 1913 967 L 1810 377 L 1964 377 L 1935 213 L 1782 213 L 1745 2 L 1542 2 Z M 1368 367 L 1616 367 L 1681 737 L 1368 367 Z" unicode="¼" />
<glyph horiz-adv-x="2167" d="M 584 0 L 358 0 L 1518 1516 L 1743 1516 L 584 0 Z M 66 539 L 94 707 L 270 707 L 381 1329 C 354 1318 325 1309 293 1301 C 261 1293 230 1290 201 1290 L 227 1444 C 267 1444 303 1449 335 1459 C 367 1469 394 1484 418 1505 L 616 1505 L 477 707 L 631 707 L 602 539 L 66 539 Z M 1251 4 L 1260 51 C 1280 173 1323 264 1389 324 C 1455 384 1522 432 1592 468 C 1662 504 1724 537 1779 568 C 1834 598 1862 645 1862 709 C 1862 737 1852 761 1833 781 C 1813 801 1785 811 1747 811 C 1712 811 1675 802 1635 786 C 1595 770 1556 736 1516 684 L 1386 791 C 1438 861 1497 911 1565 941 C 1633 971 1703 987 1776 987 C 1824 987 1867 980 1903 968 C 1939 955 1969 938 1993 916 C 2017 894 2034 867 2046 837 C 2058 806 2064 773 2064 737 C 2064 645 2037 574 1985 524 C 1933 474 1874 433 1809 400 C 1743 367 1680 335 1620 304 C 1560 272 1522 229 1507 174 L 1972 174 L 1942 4 L 1251 4 Z" unicode="½" />
<glyph horiz-adv-x="2171" d="M 694 0 L 469 0 L 1628 1516 L 1853 1516 L 694 0 Z M 1653 2 L 1690 213 L 1253 213 L 1276 344 L 1812 967 L 2023 967 L 1921 377 L 2075 377 L 2046 213 L 1892 213 L 1855 2 L 1653 2 Z M 418 524 C 327 524 251 542 190 579 C 128 616 83 667 53 733 L 201 829 C 228 777 260 741 297 723 C 334 705 373 696 414 696 C 474 696 520 709 552 736 C 584 762 600 800 600 848 C 600 888 586 919 556 941 C 526 963 477 975 410 975 L 330 975 L 356 1122 L 442 1122 C 513 1122 566 1132 601 1153 C 635 1174 653 1208 653 1255 C 653 1281 643 1304 625 1323 C 607 1342 576 1352 532 1352 C 492 1352 453 1345 415 1331 C 376 1317 337 1295 299 1264 L 207 1389 C 265 1441 325 1476 388 1496 C 450 1516 513 1526 575 1526 C 624 1526 667 1519 704 1507 C 740 1495 770 1478 794 1457 C 817 1436 834 1411 846 1383 C 858 1354 864 1324 864 1292 C 864 1234 848 1184 817 1142 C 785 1100 737 1069 672 1049 C 722 1032 758 1006 780 971 C 802 935 813 896 813 852 C 813 798 802 751 781 710 C 760 669 732 635 696 607 C 660 579 618 559 570 545 C 522 531 471 524 418 524 Z M 1479 367 L 1726 367 L 1792 737 L 1479 367 Z" unicode="¾" />
<glyph horiz-adv-x="1151" d="M 762 1530 C 786 1530 808 1525 826 1517 C 844 1509 859 1498 870 1484 C 881 1470 888 1453 892 1435 C 896 1416 896 1396 893 1376 C 886 1335 867 1302 837 1276 C 807 1250 767 1237 717 1237 C 667 1237 630 1252 607 1282 C 584 1312 576 1348 584 1389 C 590 1429 609 1462 639 1489 C 669 1516 710 1530 762 1530 Z M 580 1067 L 786 1067 C 784 1030 781 998 778 971 C 774 943 770 916 766 889 C 758 847 745 811 728 782 C 711 752 691 726 667 704 C 643 682 615 662 584 645 C 552 627 519 610 483 592 C 456 578 430 565 405 553 C 380 540 358 525 340 509 C 322 492 307 472 296 448 C 284 424 279 396 279 362 C 279 311 297 271 335 241 C 372 211 431 197 512 197 C 572 197 631 207 690 228 C 748 248 805 284 860 336 L 1010 180 C 975 144 937 113 895 87 C 853 61 809 39 764 22 C 718 4 672 -8 624 -16 C 576 -24 529 -29 483 -29 C 403 -29 334 -19 276 -1 C 218 17 170 42 133 74 C 95 106 68 143 50 185 C 32 227 23 272 23 319 C 23 386 33 442 53 488 C 73 533 99 571 131 602 C 162 633 197 659 236 681 C 274 702 312 723 350 743 C 392 765 426 786 454 806 C 482 825 504 846 521 870 C 538 893 551 920 560 951 C 568 982 575 1021 580 1067 Z" unicode="¿" />
<glyph horiz-adv-x="1407" d="M 0 0 L 0 0 Z M 168 0 L -82 0 L 713 1522 L 965 1522 L 1219 20 L 973 -20 L 911 385 L 367 385 L 168 0 Z M 782 1200 L 471 598 L 881 598 L 786 1200 L 782 1200 Z M 945 1612 L 779 1612 L 514 1952 L 785 1952 L 945 1612 Z" unicode="À" />
<glyph horiz-adv-x="1407" d="M 0 0 L 0 0 Z M 168 0 L -82 0 L 713 1522 L 965 1522 L 1219 20 L 973 -20 L 911 385 L 367 385 L 168 0 Z M 782 1200 L 471 598 L 881 598 L 786 1200 L 782 1200 Z M 920 1612 L 754 1612 L 995 1952 L 1266 1952 L 920 1612 Z" unicode="Á" />
<glyph horiz-adv-x="1407" d="M 0 0 L 0 0 Z M 168 0 L -82 0 L 713 1522 L 965 1522 L 1219 20 L 973 -20 L 911 385 L 367 385 L 168 0 Z M 782 1200 L 471 598 L 881 598 L 786 1200 L 782 1200 Z M 651 1612 L 505 1612 L 825 1952 L 999 1952 L 1198 1612 L 1050 1612 L 880 1784 L 651 1612 Z" unicode="Â" />
<glyph horiz-adv-x="1407" d="M 0 0 L 0 0 Z M 168 0 L -82 0 L 713 1522 L 965 1522 L 1219 20 L 973 -20 L 911 385 L 367 385 L 168 0 Z M 782 1200 L 471 598 L 881 598 L 786 1200 L 782 1200 Z M 735 1713 C 707 1713 684 1703 665 1685 C 646 1667 635 1636 631 1592 L 486 1614 C 502 1708 531 1777 573 1821 C 615 1865 669 1887 735 1887 C 767 1887 797 1881 824 1869 C 850 1857 875 1843 897 1829 C 919 1815 940 1802 960 1790 C 980 1778 999 1772 1018 1772 C 1045 1772 1068 1781 1087 1799 C 1106 1817 1118 1849 1122 1893 L 1268 1870 C 1251 1776 1221 1708 1179 1664 C 1137 1620 1083 1598 1018 1598 C 986 1598 956 1604 930 1616 C 904 1628 880 1641 858 1655 C 836 1669 815 1683 795 1695 C 775 1707 755 1713 735 1713 Z" unicode="Ã" />
<glyph horiz-adv-x="1407" d="M 0 0 L 0 0 Z M 168 0 L -82 0 L 713 1522 L 965 1522 L 1219 20 L 973 -20 L 911 385 L 367 385 L 168 0 Z M 782 1200 L 471 598 L 881 598 L 786 1200 L 782 1200 Z M 1047 1592 C 1005 1592 975 1606 957 1634 C 939 1662 933 1696 940 1735 C 947 1773 963 1804 988 1829 C 1012 1853 1046 1866 1088 1866 C 1130 1866 1161 1852 1179 1825 C 1197 1797 1203 1765 1196 1727 C 1189 1688 1174 1656 1150 1630 C 1126 1604 1091 1592 1047 1592 Z M 654 1592 C 612 1592 582 1606 564 1634 C 546 1662 540 1696 547 1735 C 553 1773 569 1804 594 1829 C 619 1853 653 1866 695 1866 C 737 1866 768 1852 786 1825 C 804 1797 809 1765 803 1727 C 796 1688 781 1656 757 1630 C 733 1604 698 1592 654 1592 Z" unicode="Ä" />
<glyph horiz-adv-x="1407" d="M 975 -20 L 911 395 L 371 395 L 168 0 L -82 0 L 696 1491 C 681 1505 670 1523 662 1544 C 654 1564 651 1586 651 1610 C 651 1645 657 1677 671 1705 C 684 1733 701 1756 723 1776 C 744 1796 769 1811 797 1821 C 825 1831 853 1837 883 1837 C 911 1837 937 1832 960 1822 C 983 1812 1002 1799 1018 1783 C 1034 1767 1046 1747 1054 1725 C 1062 1703 1067 1679 1067 1655 C 1067 1613 1058 1576 1040 1546 C 1022 1515 999 1491 973 1473 L 1219 20 L 975 -20 Z M 846 1526 C 874 1526 900 1536 922 1558 C 944 1579 956 1609 956 1647 C 956 1671 948 1692 934 1709 C 919 1726 898 1735 870 1735 C 841 1735 816 1724 794 1702 C 772 1680 762 1650 762 1614 C 762 1589 769 1568 783 1551 C 797 1534 818 1526 846 1526 Z M 784 1200 L 469 588 L 883 588 L 788 1200 L 784 1200 Z" unicode="Å" />
<glyph horiz-adv-x="2114" d="M 1130 1303 L 647 651 L 1016 651 L 1133 1303 L 1130 1303 Z M 166 0 L -96 0 L 1032 1516 L 2124 1516 L 2083 1278 L 1380 1278 L 1315 901 L 1804 901 L 1804 674 L 1274 674 L 1196 233 L 1939 233 L 1898 0 L 901 0 L 979 436 L 489 436 L 166 0 Z" unicode="Æ" />
<glyph horiz-adv-x="1448" d="M 82 0 L 82 0 Z M 666 -29 C 575 -29 493 -14 421 15 C 348 44 287 86 237 140 C 187 194 148 261 122 339 C 95 417 82 505 82 602 C 82 744 102 874 142 991 C 182 1107 236 1206 304 1288 C 372 1369 452 1432 544 1477 C 636 1521 734 1544 838 1544 C 922 1544 996 1534 1060 1515 C 1123 1495 1177 1469 1221 1435 C 1265 1401 1300 1360 1327 1314 C 1354 1267 1374 1217 1386 1163 L 1147 1075 C 1131 1150 1098 1208 1047 1248 C 995 1288 921 1309 823 1309 C 753 1309 689 1291 629 1257 C 569 1223 518 1175 476 1114 C 434 1052 400 978 376 892 C 352 805 340 710 340 606 C 340 478 368 379 426 309 C 483 238 567 203 678 203 C 765 203 843 223 913 264 C 982 305 1040 379 1087 485 L 1294 362 C 1232 234 1149 137 1044 71 C 938 4 812 -29 666 -29 Z M 567 -408 C 497 -408 439 -401 395 -387 C 350 -373 312 -355 281 -332 L 346 -250 C 372 -270 401 -286 433 -296 C 465 -306 501 -311 541 -311 C 578 -311 608 -304 630 -290 C 652 -276 664 -253 664 -223 C 664 -206 658 -193 646 -183 C 634 -173 618 -168 598 -168 C 583 -168 568 -171 552 -177 C 536 -183 521 -192 506 -205 L 440 -170 L 524 0 L 639 0 L 594 -104 C 607 -95 623 -88 641 -82 C 659 -76 679 -74 702 -74 C 740 -74 773 -85 799 -109 C 825 -133 838 -164 838 -203 C 838 -241 829 -274 812 -300 C 795 -326 774 -347 748 -363 C 722 -379 692 -390 660 -397 C 628 -404 597 -408 567 -408 Z" unicode="Ç" />
<glyph horiz-adv-x="1251" d="M 39 0 L 39 0 Z M 1036 0 L 39 0 L 305 1516 L 1264 1516 L 1221 1278 L 518 1278 L 453 901 L 983 901 L 983 674 L 414 674 L 336 233 L 1077 233 L 1036 0 Z M 887 1612 L 721 1612 L 456 1952 L 727 1952 L 887 1612 Z" unicode="È" />
<glyph horiz-adv-x="1251" d="M 39 0 L 39 0 Z M 766 1612 L 600 1612 L 841 1952 L 1112 1952 L 766 1612 Z M 1036 0 L 39 0 L 305 1516 L 1264 1516 L 1221 1278 L 518 1278 L 453 901 L 983 901 L 983 674 L 414 674 L 336 233 L 1077 233 L 1036 0 Z" unicode="É" />
<glyph horiz-adv-x="1251" d="M 39 0 L 39 0 Z M 584 1612 L 438 1612 L 758 1952 L 932 1952 L 1131 1612 L 983 1612 L 813 1784 L 584 1612 Z M 1036 0 L 39 0 L 305 1516 L 1264 1516 L 1221 1278 L 518 1278 L 453 901 L 983 901 L 983 674 L 414 674 L 336 233 L 1077 233 L 1036 0 Z" unicode="Ê" />
<glyph horiz-adv-x="1251" d="M 39 0 L 39 0 Z M 979 1592 C 937 1592 907 1606 889 1634 C 871 1662 865 1696 872 1735 C 879 1773 895 1804 920 1829 C 944 1853 978 1866 1020 1866 C 1062 1866 1093 1852 1111 1825 C 1129 1797 1135 1765 1128 1727 C 1121 1688 1106 1656 1082 1630 C 1058 1604 1023 1592 979 1592 Z M 586 1592 C 544 1592 514 1606 496 1634 C 478 1662 472 1696 479 1735 C 485 1773 501 1804 526 1829 C 551 1853 585 1866 627 1866 C 669 1866 700 1852 718 1825 C 736 1797 741 1765 735 1727 C 728 1688 713 1656 689 1630 C 665 1604 630 1592 586 1592 Z M 1036 0 L 39 0 L 305 1516 L 1264 1516 L 1221 1278 L 518 1278 L 453 901 L 983 901 L 983 674 L 414 674 L 336 233 L 1077 233 L 1036 0 Z" unicode="Ë" />
<glyph horiz-adv-x="635" d="M 55 0 L 55 0 Z M 311 0 L 55 0 L 322 1516 L 578 1516 L 311 0 Z M 572 1612 L 406 1612 L 141 1952 L 412 1952 L 572 1612 Z" unicode="Ì" />
<glyph horiz-adv-x="635" d="M 55 0 L 55 0 Z M 311 0 L 55 0 L 322 1516 L 578 1516 L 311 0 Z M 517 1612 L 351 1612 L 592 1952 L 863 1952 L 517 1612 Z" unicode="Í" />
<glyph horiz-adv-x="635" d="M 55 0 L 55 0 Z M 311 0 L 55 0 L 322 1516 L 578 1516 L 311 0 Z M 268 1612 L 122 1612 L 442 1952 L 616 1952 L 815 1612 L 667 1612 L 497 1784 L 268 1612 Z" unicode="Î" />
<glyph horiz-adv-x="635" d="M 55 0 L 55 0 Z M 311 0 L 55 0 L 322 1516 L 578 1516 L 311 0 Z M 662 1592 C 620 1592 590 1606 572 1634 C 554 1662 548 1696 555 1735 C 562 1773 578 1804 603 1829 C 627 1853 661 1866 703 1866 C 745 1866 776 1852 794 1825 C 812 1797 818 1765 811 1727 C 804 1688 789 1656 765 1630 C 741 1604 706 1592 662 1592 Z M 269 1592 C 227 1592 197 1606 179 1634 C 161 1662 155 1696 162 1735 C 168 1773 184 1804 209 1829 C 234 1853 268 1866 310 1866 C 352 1866 383 1852 401 1825 C 419 1797 424 1765 418 1727 C 411 1688 396 1656 372 1630 C 348 1604 313 1592 269 1592 Z" unicode="Ï" />
<glyph horiz-adv-x="1470" d="M 500 0 L 39 0 L 160 686 L 10 686 L 45 883 L 195 883 L 305 1516 L 664 1516 C 777 1516 879 1502 969 1476 C 1059 1449 1136 1410 1198 1358 C 1260 1306 1308 1242 1341 1164 C 1374 1086 1391 996 1391 895 C 1391 740 1369 606 1325 493 C 1281 379 1221 286 1143 214 C 1065 141 972 87 862 52 C 752 17 631 0 500 0 Z M 414 686 L 334 229 L 543 229 C 739 229 886 283 984 391 C 1081 499 1130 663 1130 883 C 1130 1014 1091 1113 1014 1179 C 937 1245 816 1278 651 1278 L 518 1278 L 449 883 L 766 883 L 731 686 L 414 686 Z" unicode="Ð" />
<glyph horiz-adv-x="1542" d="M 39 0 L 39 0 Z M 276 0 L 39 0 L 305 1516 L 565 1516 L 1071 428 L 1075 428 L 1268 1516 L 1503 1516 L 1237 0 L 1004 0 L 475 1110 L 471 1110 L 276 0 Z M 802 1713 C 774 1713 751 1703 732 1685 C 713 1667 702 1636 698 1592 L 553 1614 C 569 1708 598 1777 640 1821 C 682 1865 736 1887 802 1887 C 834 1887 864 1881 891 1869 C 917 1857 942 1843 964 1829 C 986 1815 1007 1802 1027 1790 C 1047 1778 1066 1772 1085 1772 C 1112 1772 1135 1781 1154 1799 C 1173 1817 1185 1849 1189 1893 L 1335 1870 C 1318 1776 1288 1708 1246 1664 C 1204 1620 1150 1598 1085 1598 C 1053 1598 1023 1604 997 1616 C 971 1628 947 1641 925 1655 C 903 1669 882 1683 862 1695 C 842 1707 822 1713 802 1713 Z" unicode="Ñ" />
<glyph horiz-adv-x="1544" d="M 82 0 L 82 0 Z M 680 -29 C 592 -29 511 -13 437 16 C 363 46 300 89 248 145 C 196 201 155 269 126 349 C 96 429 82 519 82 618 C 82 768 104 902 150 1018 C 196 1134 256 1230 330 1308 C 404 1385 490 1444 586 1484 C 682 1524 781 1544 881 1544 C 966 1544 1044 1529 1116 1499 C 1188 1469 1249 1426 1301 1370 C 1352 1314 1392 1247 1421 1167 C 1449 1087 1464 997 1464 899 C 1464 749 1441 616 1397 500 C 1353 384 1294 287 1222 209 C 1149 131 1065 71 971 31 C 876 -8 779 -29 680 -29 Z M 692 203 C 757 203 821 217 883 245 C 945 273 999 316 1047 374 C 1095 431 1133 503 1162 591 C 1191 678 1206 780 1206 897 C 1206 1026 1175 1127 1115 1200 C 1055 1272 968 1309 854 1309 C 790 1309 727 1295 665 1267 C 603 1239 549 1197 501 1141 C 453 1085 414 1013 384 927 C 354 840 340 738 340 621 C 340 490 370 388 431 314 C 492 240 579 203 692 203 Z M 1035 1612 L 869 1612 L 604 1952 L 875 1952 L 1035 1612 Z" unicode="Ò" />
<glyph horiz-adv-x="1544" d="M 82 0 L 82 0 Z M 912 1612 L 746 1612 L 987 1952 L 1258 1952 L 912 1612 Z M 680 -29 C 592 -29 511 -13 437 16 C 363 46 300 89 248 145 C 196 201 155 269 126 349 C 96 429 82 519 82 618 C 82 768 104 902 150 1018 C 196 1134 256 1230 330 1308 C 404 1385 490 1444 586 1484 C 682 1524 781 1544 881 1544 C 966 1544 1044 1529 1116 1499 C 1188 1469 1249 1426 1301 1370 C 1352 1314 1392 1247 1421 1167 C 1449 1087 1464 997 1464 899 C 1464 749 1441 616 1397 500 C 1353 384 1294 287 1222 209 C 1149 131 1065 71 971 31 C 876 -8 779 -29 680 -29 Z M 692 203 C 757 203 821 217 883 245 C 945 273 999 316 1047 374 C 1095 431 1133 503 1162 591 C 1191 678 1206 780 1206 897 C 1206 1026 1175 1127 1115 1200 C 1055 1272 968 1309 854 1309 C 790 1309 727 1295 665 1267 C 603 1239 549 1197 501 1141 C 453 1085 414 1013 384 927 C 354 840 340 738 340 621 C 340 490 370 388 431 314 C 492 240 579 203 692 203 Z" unicode="Ó" />
<glyph horiz-adv-x="1544" d="M 82 0 L 82 0 Z M 721 1612 L 575 1612 L 895 1952 L 1069 1952 L 1268 1612 L 1120 1612 L 950 1784 L 721 1612 Z M 680 -29 C 592 -29 511 -13 437 16 C 363 46 300 89 248 145 C 196 201 155 269 126 349 C 96 429 82 519 82 618 C 82 768 104 902 150 1018 C 196 1134 256 1230 330 1308 C 404 1385 490 1444 586 1484 C 682 1524 781 1544 881 1544 C 966 1544 1044 1529 1116 1499 C 1188 1469 1249 1426 1301 1370 C 1352 1314 1392 1247 1421 1167 C 1449 1087 1464 997 1464 899 C 1464 749 1441 616 1397 500 C 1353 384 1294 287 1222 209 C 1149 131 1065 71 971 31 C 876 -8 779 -29 680 -29 Z M 692 203 C 757 203 821 217 883 245 C 945 273 999 316 1047 374 C 1095 431 1133 503 1162 591 C 1191 678 1206 780 1206 897 C 1206 1026 1175 1127 1115 1200 C 1055 1272 968 1309 854 1309 C 790 1309 727 1295 665 1267 C 603 1239 549 1197 501 1141 C 453 1085 414 1013 384 927 C 354 840 340 738 340 621 C 340 490 370 388 431 314 C 492 240 579 203 692 203 Z" unicode="Ô" />
<glyph horiz-adv-x="1544" d="M 82 0 L 82 0 Z M 680 -29 C 592 -29 511 -13 437 16 C 363 46 300 89 248 145 C 196 201 155 269 126 349 C 96 429 82 519 82 618 C 82 768 104 902 150 1018 C 196 1134 256 1230 330 1308 C 404 1385 490 1444 586 1484 C 682 1524 781 1544 881 1544 C 966 1544 1044 1529 1116 1499 C 1188 1469 1249 1426 1301 1370 C 1352 1314 1392 1247 1421 1167 C 1449 1087 1464 997 1464 899 C 1464 749 1441 616 1397 500 C 1353 384 1294 287 1222 209 C 1149 131 1065 71 971 31 C 876 -8 779 -29 680 -29 Z M 692 203 C 757 203 821 217 883 245 C 945 273 999 316 1047 374 C 1095 431 1133 503 1162 591 C 1191 678 1206 780 1206 897 C 1206 1026 1175 1127 1115 1200 C 1055 1272 968 1309 854 1309 C 790 1309 727 1295 665 1267 C 603 1239 549 1197 501 1141 C 453 1085 414 1013 384 927 C 354 840 340 738 340 621 C 340 490 370 388 431 314 C 492 240 579 203 692 203 Z M 804 1713 C 776 1713 753 1703 734 1685 C 715 1667 704 1636 700 1592 L 555 1614 C 571 1708 600 1777 642 1821 C 684 1865 738 1887 804 1887 C 836 1887 866 1881 893 1869 C 919 1857 944 1843 966 1829 C 988 1815 1009 1802 1029 1790 C 1049 1778 1068 1772 1087 1772 C 1114 1772 1137 1781 1156 1799 C 1175 1817 1187 1849 1191 1893 L 1337 1870 C 1320 1776 1290 1708 1248 1664 C 1206 1620 1152 1598 1087 1598 C 1055 1598 1025 1604 999 1616 C 973 1628 949 1641 927 1655 C 905 1669 884 1683 864 1695 C 844 1707 824 1713 804 1713 Z" unicode="Õ" />
<glyph horiz-adv-x="1544" d="M 82 0 L 82 0 Z M 1114 1592 C 1072 1592 1042 1606 1024 1634 C 1006 1662 1000 1696 1007 1735 C 1014 1773 1030 1804 1055 1829 C 1079 1853 1113 1866 1155 1866 C 1197 1866 1228 1852 1246 1825 C 1264 1797 1270 1765 1263 1727 C 1256 1688 1241 1656 1217 1630 C 1193 1604 1158 1592 1114 1592 Z M 721 1592 C 679 1592 649 1606 631 1634 C 613 1662 607 1696 614 1735 C 620 1773 636 1804 661 1829 C 686 1853 720 1866 762 1866 C 804 1866 835 1852 853 1825 C 871 1797 876 1765 870 1727 C 863 1688 848 1656 824 1630 C 800 1604 765 1592 721 1592 Z M 680 -29 C 592 -29 511 -13 437 16 C 363 46 300 89 248 145 C 196 201 155 269 126 349 C 96 429 82 519 82 618 C 82 768 104 902 150 1018 C 196 1134 256 1230 330 1308 C 404 1385 490 1444 586 1484 C 682 1524 781 1544 881 1544 C 966 1544 1044 1529 1116 1499 C 1188 1469 1249 1426 1301 1370 C 1352 1314 1392 1247 1421 1167 C 1449 1087 1464 997 1464 899 C 1464 749 1441 616 1397 500 C 1353 384 1294 287 1222 209 C 1149 131 1065 71 971 31 C 876 -8 779 -29 680 -29 Z M 692 203 C 757 203 821 217 883 245 C 945 273 999 316 1047 374 C 1095 431 1133 503 1162 591 C 1191 678 1206 780 1206 897 C 1206 1026 1175 1127 1115 1200 C 1055 1272 968 1309 854 1309 C 790 1309 727 1295 665 1267 C 603 1239 549 1197 501 1141 C 453 1085 414 1013 384 927 C 354 840 340 738 340 621 C 340 490 370 388 431 314 C 492 240 579 203 692 203 Z" unicode="Ö" />
<glyph horiz-adv-x="1315" d="M 649 510 L 313 174 L 166 322 L 502 655 L 166 989 L 313 1137 L 649 803 L 983 1137 L 1130 989 L 797 657 L 1133 324 L 985 176 L 649 510 Z" unicode="×" />
<glyph horiz-adv-x="1544" d="M 850 1317 C 786 1317 722 1302 660 1274 C 598 1246 543 1203 495 1146 C 447 1088 408 1016 378 928 C 348 840 334 738 334 621 C 334 585 336 550 340 518 C 344 485 351 455 360 428 L 1116 1204 C 1085 1240 1047 1268 1003 1288 C 958 1307 907 1317 850 1317 Z M 696 195 C 760 195 822 209 884 239 C 945 268 1000 312 1048 370 C 1096 428 1134 501 1164 589 C 1193 677 1208 780 1208 897 C 1208 931 1205 964 1201 996 C 1197 1027 1190 1056 1182 1083 L 426 307 C 457 270 495 242 541 223 C 586 204 638 195 696 195 Z M 678 -29 C 594 -29 517 -15 446 12 C 375 39 314 78 262 129 L 84 -51 L -29 49 L 170 248 C 141 298 119 354 104 416 C 89 478 82 546 82 618 C 82 768 104 902 150 1018 C 196 1134 256 1230 330 1308 C 404 1385 489 1444 585 1484 C 681 1524 779 1544 879 1544 C 960 1544 1035 1530 1104 1502 C 1173 1474 1233 1436 1284 1386 L 1462 1567 L 1573 1468 L 1374 1266 C 1402 1216 1423 1160 1439 1098 C 1454 1036 1462 970 1462 899 C 1462 749 1439 616 1395 500 C 1350 384 1291 287 1219 209 C 1146 131 1062 71 968 31 C 873 -8 776 -29 678 -29 Z" unicode="Ø" />
<glyph horiz-adv-x="1456" d="M 110 0 L 110 0 Z M 643 -27 C 529 -27 435 -10 361 21 C 287 53 230 97 190 153 C 150 209 125 275 116 351 C 106 427 109 508 125 596 L 285 1516 L 541 1516 L 379 582 C 369 524 365 471 369 425 C 373 379 385 339 406 307 C 427 275 458 250 499 233 C 539 215 591 207 655 207 C 759 207 840 231 897 280 C 954 329 993 412 1014 528 L 1186 1516 L 1438 1516 L 1260 498 C 1229 323 1162 192 1058 104 C 954 16 816 -27 643 -27 Z M 990 1612 L 824 1612 L 559 1952 L 830 1952 L 990 1612 Z" unicode="Ù" />
<glyph horiz-adv-x="1456" d="M 110 0 L 110 0 Z M 869 1612 L 703 1612 L 944 1952 L 1215 1952 L 869 1612 Z M 643 -27 C 529 -27 435 -10 361 21 C 287 53 230 97 190 153 C 150 209 125 275 116 351 C 106 427 109 508 125 596 L 285 1516 L 541 1516 L 379 582 C 369 524 365 471 369 425 C 373 379 385 339 406 307 C 427 275 458 250 499 233 C 539 215 591 207 655 207 C 759 207 840 231 897 280 C 954 329 993 412 1014 528 L 1186 1516 L 1438 1516 L 1260 498 C 1229 323 1162 192 1058 104 C 954 16 816 -27 643 -27 Z" unicode="Ú" />
<glyph horiz-adv-x="1456" d="M 110 0 L 110 0 Z M 676 1612 L 530 1612 L 850 1952 L 1024 1952 L 1223 1612 L 1075 1612 L 905 1784 L 676 1612 Z M 643 -27 C 529 -27 435 -10 361 21 C 287 53 230 97 190 153 C 150 209 125 275 116 351 C 106 427 109 508 125 596 L 285 1516 L 541 1516 L 379 582 C 369 524 365 471 369 425 C 373 379 385 339 406 307 C 427 275 458 250 499 233 C 539 215 591 207 655 207 C 759 207 840 231 897 280 C 954 329 993 412 1014 528 L 1186 1516 L 1438 1516 L 1260 498 C 1229 323 1162 192 1058 104 C 954 16 816 -27 643 -27 Z" unicode="Û" />
<glyph horiz-adv-x="1456" d="M 110 0 L 110 0 Z M 1071 1592 C 1029 1592 999 1606 981 1634 C 963 1662 957 1696 964 1735 C 971 1773 987 1804 1012 1829 C 1036 1853 1070 1866 1112 1866 C 1154 1866 1185 1852 1203 1825 C 1221 1797 1227 1765 1220 1727 C 1213 1688 1198 1656 1174 1630 C 1150 1604 1115 1592 1071 1592 Z M 678 1592 C 636 1592 606 1606 588 1634 C 570 1662 564 1696 571 1735 C 577 1773 593 1804 618 1829 C 643 1853 677 1866 719 1866 C 761 1866 792 1852 810 1825 C 828 1797 833 1765 827 1727 C 820 1688 805 1656 781 1630 C 757 1604 722 1592 678 1592 Z M 643 -27 C 529 -27 435 -10 361 21 C 287 53 230 97 190 153 C 150 209 125 275 116 351 C 106 427 109 508 125 596 L 285 1516 L 541 1516 L 379 582 C 369 524 365 471 369 425 C 373 379 385 339 406 307 C 427 275 458 250 499 233 C 539 215 591 207 655 207 C 759 207 840 231 897 280 C 954 329 993 412 1014 528 L 1186 1516 L 1438 1516 L 1260 498 C 1229 323 1162 192 1058 104 C 954 16 816 -27 643 -27 Z" unicode="Ü" />
<glyph horiz-adv-x="1333" d="M 174 0 L 174 0 Z M 662 0 L 406 0 L 520 653 L 174 1495 L 418 1536 L 682 870 L 1163 1516 L 1436 1516 L 776 653 L 662 0 Z M 807 1612 L 641 1612 L 882 1952 L 1153 1952 L 807 1612 Z" unicode="Ý" />
<glyph horiz-adv-x="1341" d="M 295 0 L 39 0 L 305 1516 L 561 1516 L 518 1264 L 696 1264 C 784 1264 865 1255 938 1237 C 1010 1219 1072 1193 1123 1159 C 1174 1124 1214 1080 1242 1027 C 1270 974 1284 913 1284 844 C 1284 737 1265 649 1227 580 C 1189 511 1141 457 1082 418 C 1022 378 956 351 882 336 C 808 320 735 313 664 313 L 350 313 L 295 0 Z M 475 1026 L 391 541 L 680 541 C 729 541 774 545 816 553 C 858 561 894 576 924 597 C 954 617 977 646 994 682 C 1011 718 1020 764 1020 819 C 1020 885 992 936 938 972 C 883 1008 794 1026 672 1026 L 475 1026 Z" unicode="Þ" />
<glyph horiz-adv-x="1321" d="M 745 -23 C 659 -23 590 -13 537 6 C 484 25 439 47 401 72 L 489 252 C 521 229 557 210 595 196 C 633 181 677 174 727 174 C 799 174 856 195 898 239 C 940 283 961 347 961 432 C 961 516 926 583 857 632 C 788 681 692 707 569 709 L 600 895 C 722 895 809 917 861 961 C 912 1005 938 1065 938 1143 C 938 1187 920 1225 884 1257 C 848 1289 793 1305 717 1305 C 680 1305 646 1300 616 1291 C 586 1282 559 1267 536 1246 C 513 1225 494 1197 478 1162 C 462 1127 449 1084 440 1032 L 258 0 L 8 0 L 193 1049 C 208 1133 232 1204 265 1264 C 297 1323 336 1371 382 1409 C 428 1446 480 1473 538 1490 C 596 1507 657 1516 723 1516 C 798 1516 864 1507 922 1491 C 979 1474 1027 1451 1065 1422 C 1103 1392 1131 1357 1151 1315 C 1170 1273 1180 1228 1180 1178 C 1180 1125 1172 1078 1158 1038 C 1143 997 1122 962 1096 934 C 1070 905 1038 881 1001 862 C 963 843 923 829 879 819 C 925 811 968 796 1008 774 C 1048 752 1082 724 1110 691 C 1138 658 1160 620 1176 577 C 1192 533 1200 486 1200 436 C 1200 356 1186 287 1160 229 C 1133 171 1098 123 1056 86 C 1014 48 965 21 911 3 C 856 -14 801 -23 745 -23 Z" unicode="ß" />
<glyph horiz-adv-x="1147" d="M 0 0 L 0 0 Z M 389 176 C 444 176 496 187 546 211 C 596 234 644 265 690 303 L 731 541 C 637 533 559 522 496 508 C 432 494 382 476 344 456 C 306 436 278 412 262 386 C 246 359 238 329 238 297 C 238 261 251 231 277 209 C 303 187 340 176 389 176 Z M 281 -18 C 189 -18 116 6 62 55 C 8 103 -18 167 -18 246 C -18 376 44 482 168 564 C 292 645 490 694 762 711 L 768 741 C 779 795 771 835 743 861 C 715 887 666 901 596 901 C 536 901 475 892 413 874 C 351 856 296 829 248 793 L 137 948 C 161 969 191 989 225 1009 C 259 1028 297 1045 339 1060 C 381 1074 428 1086 479 1095 C 530 1103 585 1108 643 1108 C 722 1108 788 1097 840 1077 C 892 1057 933 1028 961 992 C 989 956 1007 912 1014 861 C 1020 810 1018 754 1008 694 L 885 0 L 662 0 L 662 139 C 600 83 537 42 472 18 C 406 -5 343 -18 281 -18 Z M 764 1202 L 598 1202 L 333 1542 L 604 1542 L 764 1202 Z" unicode="à" />
<glyph horiz-adv-x="1147" d="M 0 0 L 0 0 Z M 389 176 C 444 176 496 187 546 211 C 596 234 644 265 690 303 L 731 541 C 637 533 559 522 496 508 C 432 494 382 476 344 456 C 306 436 278 412 262 386 C 246 359 238 329 238 297 C 238 261 251 231 277 209 C 303 187 340 176 389 176 Z M 281 -18 C 189 -18 116 6 62 55 C 8 103 -18 167 -18 246 C -18 376 44 482 168 564 C 292 645 490 694 762 711 L 768 741 C 779 795 771 835 743 861 C 715 887 666 901 596 901 C 536 901 475 892 413 874 C 351 856 296 829 248 793 L 137 948 C 161 969 191 989 225 1009 C 259 1028 297 1045 339 1060 C 381 1074 428 1086 479 1095 C 530 1103 585 1108 643 1108 C 722 1108 788 1097 840 1077 C 892 1057 933 1028 961 992 C 989 956 1007 912 1014 861 C 1020 810 1018 754 1008 694 L 885 0 L 662 0 L 662 139 C 600 83 537 42 472 18 C 406 -5 343 -18 281 -18 Z M 644 1202 L 478 1202 L 719 1542 L 990 1542 L 644 1202 Z" unicode="á" />
<glyph horiz-adv-x="1147" d="M 0 0 L 0 0 Z M 389 176 C 444 176 496 187 546 211 C 596 234 644 265 690 303 L 731 541 C 637 533 559 522 496 508 C 432 494 382 476 344 456 C 306 436 278 412 262 386 C 246 359 238 329 238 297 C 238 261 251 231 277 209 C 303 187 340 176 389 176 Z M 281 -18 C 189 -18 116 6 62 55 C 8 103 -18 167 -18 246 C -18 376 44 482 168 564 C 292 645 490 694 762 711 L 768 741 C 779 795 771 835 743 861 C 715 887 666 901 596 901 C 536 901 475 892 413 874 C 351 856 296 829 248 793 L 137 948 C 161 969 191 989 225 1009 C 259 1028 297 1045 339 1060 C 381 1074 428 1086 479 1095 C 530 1103 585 1108 643 1108 C 722 1108 788 1097 840 1077 C 892 1057 933 1028 961 992 C 989 956 1007 912 1014 861 C 1020 810 1018 754 1008 694 L 885 0 L 662 0 L 662 139 C 600 83 537 42 472 18 C 406 -5 343 -18 281 -18 Z M 451 1202 L 305 1202 L 625 1542 L 799 1542 L 998 1202 L 850 1202 L 680 1374 L 451 1202 Z" unicode="â" />
<glyph horiz-adv-x="1147" d="M 0 0 L 0 0 Z M 389 176 C 444 176 496 187 546 211 C 596 234 644 265 690 303 L 731 541 C 637 533 559 522 496 508 C 432 494 382 476 344 456 C 306 436 278 412 262 386 C 246 359 238 329 238 297 C 238 261 251 231 277 209 C 303 187 340 176 389 176 Z M 281 -18 C 189 -18 116 6 62 55 C 8 103 -18 167 -18 246 C -18 376 44 482 168 564 C 292 645 490 694 762 711 L 768 741 C 779 795 771 835 743 861 C 715 887 666 901 596 901 C 536 901 475 892 413 874 C 351 856 296 829 248 793 L 137 948 C 161 969 191 989 225 1009 C 259 1028 297 1045 339 1060 C 381 1074 428 1086 479 1095 C 530 1103 585 1108 643 1108 C 722 1108 788 1097 840 1077 C 892 1057 933 1028 961 992 C 989 956 1007 912 1014 861 C 1020 810 1018 754 1008 694 L 885 0 L 662 0 L 662 139 C 600 83 537 42 472 18 C 406 -5 343 -18 281 -18 Z M 534 1303 C 506 1303 483 1293 464 1275 C 445 1257 434 1226 430 1182 L 285 1204 C 301 1298 330 1367 372 1411 C 414 1455 468 1477 534 1477 C 566 1477 596 1471 623 1459 C 649 1447 674 1433 696 1419 C 718 1405 739 1392 759 1380 C 779 1368 798 1362 817 1362 C 844 1362 867 1371 886 1389 C 905 1407 917 1439 921 1483 L 1067 1460 C 1050 1366 1020 1298 978 1254 C 936 1210 882 1188 817 1188 C 785 1188 755 1194 729 1206 C 703 1218 679 1231 657 1245 C 635 1259 614 1273 594 1285 C 574 1297 554 1303 534 1303 Z" unicode="ã" />
<glyph horiz-adv-x="1147" d="M 0 0 L 0 0 Z M 389 176 C 444 176 496 187 546 211 C 596 234 644 265 690 303 L 731 541 C 637 533 559 522 496 508 C 432 494 382 476 344 456 C 306 436 278 412 262 386 C 246 359 238 329 238 297 C 238 261 251 231 277 209 C 303 187 340 176 389 176 Z M 281 -18 C 189 -18 116 6 62 55 C 8 103 -18 167 -18 246 C -18 376 44 482 168 564 C 292 645 490 694 762 711 L 768 741 C 779 795 771 835 743 861 C 715 887 666 901 596 901 C 536 901 475 892 413 874 C 351 856 296 829 248 793 L 137 948 C 161 969 191 989 225 1009 C 259 1028 297 1045 339 1060 C 381 1074 428 1086 479 1095 C 530 1103 585 1108 643 1108 C 722 1108 788 1097 840 1077 C 892 1057 933 1028 961 992 C 989 956 1007 912 1014 861 C 1020 810 1018 754 1008 694 L 885 0 L 662 0 L 662 139 C 600 83 537 42 472 18 C 406 -5 343 -18 281 -18 Z M 846 1182 C 804 1182 774 1196 756 1224 C 738 1252 732 1286 739 1325 C 746 1363 762 1394 787 1419 C 811 1443 845 1456 887 1456 C 929 1456 960 1442 978 1415 C 996 1387 1002 1355 995 1317 C 988 1278 973 1246 949 1220 C 925 1194 890 1182 846 1182 Z M 453 1182 C 411 1182 381 1196 363 1224 C 345 1252 339 1286 346 1325 C 352 1363 368 1394 393 1419 C 418 1443 452 1456 494 1456 C 536 1456 567 1442 585 1415 C 603 1387 608 1355 602 1317 C 595 1278 580 1246 556 1220 C 532 1194 497 1182 453 1182 Z" unicode="ä" />
<glyph horiz-adv-x="1147" d="M 0 0 L 0 0 Z M 389 176 C 444 176 496 187 546 211 C 596 234 644 265 690 303 L 731 541 C 637 533 559 522 496 508 C 432 494 382 476 344 456 C 306 436 278 412 262 386 C 246 359 238 329 238 297 C 238 261 251 231 277 209 C 303 187 340 176 389 176 Z M 281 -18 C 189 -18 116 6 62 55 C 8 103 -18 167 -18 246 C -18 376 44 482 168 564 C 292 645 490 694 762 711 L 768 741 C 779 795 771 835 743 861 C 715 887 666 901 596 901 C 536 901 475 892 413 874 C 351 856 296 829 248 793 L 137 948 C 161 969 191 989 225 1009 C 259 1028 297 1045 339 1060 C 381 1074 428 1086 479 1095 C 530 1103 585 1108 643 1108 C 722 1108 788 1097 840 1077 C 892 1057 933 1028 961 992 C 989 956 1007 912 1014 861 C 1020 810 1018 754 1008 694 L 885 0 L 662 0 L 662 139 C 600 83 537 42 472 18 C 406 -5 343 -18 281 -18 Z M 664 1186 C 634 1186 608 1191 586 1201 C 563 1211 544 1224 528 1241 C 512 1258 500 1278 492 1301 C 484 1324 480 1348 480 1374 C 480 1409 486 1441 499 1469 C 512 1497 529 1521 551 1541 C 573 1561 597 1576 625 1586 C 653 1596 681 1602 711 1602 C 740 1602 766 1597 789 1587 C 811 1577 830 1564 846 1548 C 862 1532 874 1512 882 1490 C 890 1468 895 1444 895 1419 C 895 1383 888 1350 875 1321 C 862 1292 845 1268 823 1248 C 801 1228 777 1212 749 1202 C 721 1191 693 1186 664 1186 Z M 674 1290 C 702 1290 728 1300 751 1322 C 773 1343 785 1373 785 1411 C 785 1435 777 1456 762 1473 C 747 1490 726 1499 699 1499 C 670 1499 645 1488 623 1466 C 601 1444 590 1414 590 1378 C 590 1353 597 1332 611 1315 C 625 1298 646 1290 674 1290 Z" unicode="å" />
<glyph horiz-adv-x="1819" d="M 1210 178 C 1276 178 1334 190 1384 215 C 1434 240 1487 276 1544 322 L 1651 162 C 1619 134 1587 108 1555 85 C 1522 62 1487 43 1449 27 C 1411 11 1370 -1 1325 -10 C 1280 -18 1230 -23 1176 -23 C 1082 -23 1001 -4 933 33 C 864 70 812 125 778 199 C 749 173 716 148 680 122 C 643 96 603 72 561 52 C 519 31 474 14 427 1 C 379 -11 331 -18 281 -18 C 189 -18 116 6 62 55 C 8 103 -18 167 -18 246 C -18 376 44 482 168 564 C 292 645 490 694 762 711 L 768 741 C 779 795 771 835 745 861 C 718 887 670 901 600 901 C 570 901 540 898 508 893 C 476 887 444 880 413 871 C 381 861 351 850 321 837 C 291 823 263 809 238 793 L 141 956 C 167 975 198 994 234 1012 C 270 1030 309 1047 352 1061 C 394 1075 441 1086 491 1095 C 541 1103 593 1108 647 1108 C 733 1108 800 1095 847 1069 C 893 1043 926 1009 946 967 C 974 991 1004 1013 1036 1031 C 1067 1049 1098 1063 1128 1075 C 1158 1086 1188 1094 1217 1100 C 1246 1105 1273 1108 1298 1108 C 1378 1108 1447 1094 1505 1067 C 1563 1040 1608 1001 1642 951 C 1675 900 1696 838 1706 765 C 1715 692 1712 610 1696 520 L 1686 461 L 958 461 L 958 436 C 958 383 965 340 981 306 C 996 272 1016 245 1040 227 C 1064 208 1091 195 1121 188 C 1151 181 1180 178 1210 178 Z M 985 649 L 1487 649 C 1495 725 1484 787 1456 833 C 1427 879 1369 903 1282 903 C 1216 903 1157 882 1103 840 C 1049 798 1010 734 985 649 Z M 729 440 C 729 458 729 476 730 494 C 731 511 733 528 735 545 C 640 537 561 526 497 512 C 433 497 381 479 343 458 C 305 437 278 413 262 386 C 246 358 238 329 238 297 C 238 261 251 231 277 209 C 303 187 340 176 389 176 C 417 176 447 180 478 189 C 508 198 538 210 568 225 C 598 239 627 257 655 277 C 683 297 710 318 735 340 C 733 355 731 371 730 387 C 729 403 729 421 729 440 Z" unicode="æ" />
<glyph horiz-adv-x="1096" d="M 31 0 L 31 0 Z M 487 -23 C 422 -23 362 -12 306 7 C 250 27 201 57 161 96 C 121 135 89 184 66 243 C 42 301 31 369 31 446 C 31 568 49 672 87 757 C 124 841 171 909 227 961 C 283 1013 346 1050 414 1073 C 482 1096 548 1108 610 1108 C 677 1108 735 1100 783 1086 C 831 1072 872 1052 905 1026 C 937 1000 963 968 983 932 C 1003 895 1018 855 1030 811 L 823 729 C 808 788 784 831 752 858 C 719 885 668 899 598 899 C 556 899 517 889 479 870 C 441 851 407 823 379 785 C 350 747 327 699 310 641 C 293 583 285 515 285 438 C 285 355 302 292 337 248 C 372 204 426 182 500 182 C 527 182 552 184 576 190 C 599 195 621 205 643 219 C 665 233 687 254 709 280 C 731 306 756 339 782 381 L 963 266 C 942 228 918 192 891 157 C 863 122 831 91 794 65 C 756 38 712 17 662 1 C 612 -15 553 -23 487 -23 Z M 393 -408 C 323 -408 265 -401 221 -387 C 176 -373 138 -355 107 -332 L 172 -250 C 198 -270 227 -286 259 -296 C 291 -306 327 -311 367 -311 C 404 -311 434 -304 456 -290 C 478 -276 490 -253 490 -223 C 490 -206 484 -193 472 -183 C 460 -173 444 -168 424 -168 C 409 -168 394 -171 378 -177 C 362 -183 347 -192 332 -205 L 266 -170 L 350 0 L 465 0 L 420 -104 C 433 -95 449 -88 467 -82 C 485 -76 505 -74 528 -74 C 566 -74 599 -85 625 -109 C 651 -133 664 -164 664 -203 C 664 -241 655 -274 638 -300 C 621 -326 600 -347 574 -363 C 548 -379 518 -390 486 -397 C 454 -404 423 -408 393 -408 Z" unicode="ç" />
<glyph horiz-adv-x="1135" d="M 31 0 L 31 0 Z M 498 -23 C 430 -23 367 -13 310 6 C 252 26 203 55 162 94 C 120 132 88 181 65 239 C 42 297 31 364 31 440 C 31 570 52 679 94 765 C 136 851 188 920 248 971 C 308 1021 372 1057 439 1077 C 506 1097 564 1108 614 1108 C 695 1108 765 1094 823 1067 C 881 1040 926 1001 960 951 C 993 900 1014 838 1024 765 C 1033 692 1030 610 1014 520 L 1004 461 L 276 461 L 276 436 C 276 383 283 340 299 306 C 315 272 335 245 359 227 C 383 208 411 195 441 188 C 471 181 501 178 530 178 C 563 178 594 181 622 187 C 650 193 678 203 704 215 C 730 227 755 242 781 260 C 807 278 834 298 862 322 L 969 162 C 908 106 842 61 770 27 C 698 -6 607 -23 498 -23 Z M 303 649 L 807 649 C 815 725 803 787 773 833 C 742 879 683 903 596 903 C 532 903 474 882 421 840 C 367 798 328 734 303 649 Z M 758 1202 L 592 1202 L 327 1542 L 598 1542 L 758 1202 Z" unicode="è" />
<glyph horiz-adv-x="1135" d="M 31 0 L 31 0 Z M 637 1202 L 471 1202 L 712 1542 L 983 1542 L 637 1202 Z M 498 -23 C 430 -23 367 -13 310 6 C 252 26 203 55 162 94 C 120 132 88 181 65 239 C 42 297 31 364 31 440 C 31 570 52 679 94 765 C 136 851 188 920 248 971 C 308 1021 372 1057 439 1077 C 506 1097 564 1108 614 1108 C 695 1108 765 1094 823 1067 C 881 1040 926 1001 960 951 C 993 900 1014 838 1024 765 C 1033 692 1030 610 1014 520 L 1004 461 L 276 461 L 276 436 C 276 383 283 340 299 306 C 315 272 335 245 359 227 C 383 208 411 195 441 188 C 471 181 501 178 530 178 C 563 178 594 181 622 187 C 650 193 678 203 704 215 C 730 227 755 242 781 260 C 807 278 834 298 862 322 L 969 162 C 908 106 842 61 770 27 C 698 -6 607 -23 498 -23 Z M 303 649 L 807 649 C 815 725 803 787 773 833 C 742 879 683 903 596 903 C 532 903 474 882 421 840 C 367 798 328 734 303 649 Z" unicode="é" />
<glyph horiz-adv-x="1135" d="M 31 0 L 31 0 Z M 445 1202 L 299 1202 L 619 1542 L 793 1542 L 992 1202 L 844 1202 L 674 1374 L 445 1202 Z M 498 -23 C 430 -23 367 -13 310 6 C 252 26 203 55 162 94 C 120 132 88 181 65 239 C 42 297 31 364 31 440 C 31 570 52 679 94 765 C 136 851 188 920 248 971 C 308 1021 372 1057 439 1077 C 506 1097 564 1108 614 1108 C 695 1108 765 1094 823 1067 C 881 1040 926 1001 960 951 C 993 900 1014 838 1024 765 C 1033 692 1030 610 1014 520 L 1004 461 L 276 461 L 276 436 C 276 383 283 340 299 306 C 315 272 335 245 359 227 C 383 208 411 195 441 188 C 471 181 501 178 530 178 C 563 178 594 181 622 187 C 650 193 678 203 704 215 C 730 227 755 242 781 260 C 807 278 834 298 862 322 L 969 162 C 908 106 842 61 770 27 C 698 -6 607 -23 498 -23 Z M 303 649 L 807 649 C 815 725 803 787 773 833 C 742 879 683 903 596 903 C 532 903 474 882 421 840 C 367 798 328 734 303 649 Z" unicode="ê" />
<glyph horiz-adv-x="1135" d="M 31 0 L 31 0 Z M 840 1182 C 798 1182 768 1196 750 1224 C 732 1252 726 1286 733 1325 C 740 1363 756 1394 781 1419 C 805 1443 839 1456 881 1456 C 923 1456 954 1442 972 1415 C 990 1387 996 1355 989 1317 C 982 1278 967 1246 943 1220 C 919 1194 884 1182 840 1182 Z M 447 1182 C 405 1182 375 1196 357 1224 C 339 1252 333 1286 340 1325 C 346 1363 362 1394 387 1419 C 412 1443 446 1456 488 1456 C 530 1456 561 1442 579 1415 C 597 1387 602 1355 596 1317 C 589 1278 574 1246 550 1220 C 526 1194 491 1182 447 1182 Z M 498 -23 C 430 -23 367 -13 310 6 C 252 26 203 55 162 94 C 120 132 88 181 65 239 C 42 297 31 364 31 440 C 31 570 52 679 94 765 C 136 851 188 920 248 971 C 308 1021 372 1057 439 1077 C 506 1097 564 1108 614 1108 C 695 1108 765 1094 823 1067 C 881 1040 926 1001 960 951 C 993 900 1014 838 1024 765 C 1033 692 1030 610 1014 520 L 1004 461 L 276 461 L 276 436 C 276 383 283 340 299 306 C 315 272 335 245 359 227 C 383 208 411 195 441 188 C 471 181 501 178 530 178 C 563 178 594 181 622 187 C 650 193 678 203 704 215 C 730 227 755 242 781 260 C 807 278 834 298 862 322 L 969 162 C 908 106 842 61 770 27 C 698 -6 607 -23 498 -23 Z M 303 649 L 807 649 C 815 725 803 787 773 833 C 742 879 683 903 596 903 C 532 903 474 882 421 840 C 367 798 328 734 303 649 Z" unicode="ë" />
<glyph horiz-adv-x="557" d="M 20 0 L 20 0 Z M 272 0 L 20 0 L 213 1087 L 465 1087 L 272 0 Z M 453 1202 L 287 1202 L 22 1542 L 293 1542 L 453 1202 Z" unicode="ì" />
<glyph horiz-adv-x="557" d="M 20 0 L 20 0 Z M 412 1202 L 246 1202 L 487 1542 L 758 1542 L 412 1202 Z M 272 0 L 20 0 L 213 1087 L 465 1087 L 272 0 Z" unicode="í" />
<glyph horiz-adv-x="557" d="M 12 0 L 12 0 Z M 158 1202 L 12 1202 L 332 1542 L 506 1542 L 705 1202 L 557 1202 L 387 1374 L 158 1202 Z M 272 0 L 20 0 L 213 1087 L 465 1087 L 272 0 Z" unicode="î" />
<glyph horiz-adv-x="557" d="M 20 0 L 20 0 Z M 553 1182 C 511 1182 481 1196 463 1224 C 445 1252 439 1286 446 1325 C 453 1363 469 1394 494 1419 C 518 1443 552 1456 594 1456 C 636 1456 667 1442 685 1415 C 703 1387 709 1355 702 1317 C 695 1278 680 1246 656 1220 C 632 1194 597 1182 553 1182 Z M 160 1182 C 118 1182 88 1196 70 1224 C 52 1252 46 1286 53 1325 C 59 1363 75 1394 100 1419 C 125 1443 159 1456 201 1456 C 243 1456 274 1442 292 1415 C 310 1387 315 1355 309 1317 C 302 1278 287 1246 263 1220 C 239 1194 204 1182 160 1182 Z M 272 0 L 20 0 L 213 1087 L 465 1087 L 272 0 Z" unicode="ï" />
<glyph horiz-adv-x="1198" d="M 588 1098 L 541 1239 L 700 1303 C 681 1326 662 1347 643 1367 C 623 1386 605 1402 588 1415 L 733 1556 C 767 1530 799 1503 829 1474 C 859 1444 885 1414 909 1382 L 1102 1458 L 1149 1317 L 991 1255 C 1029 1177 1057 1096 1075 1010 C 1093 924 1102 838 1102 754 C 1102 620 1086 503 1056 405 C 1025 307 983 226 930 163 C 877 100 814 53 741 23 C 667 -7 588 -23 504 -23 C 429 -23 362 -12 303 10 C 243 32 193 62 153 102 C 113 142 82 189 61 245 C 39 301 29 362 29 428 C 29 534 45 625 79 701 C 112 777 154 839 206 887 C 257 935 314 970 376 992 C 438 1014 498 1026 555 1026 C 628 1026 692 1011 747 982 C 801 952 845 912 877 860 C 874 919 864 975 848 1028 C 831 1081 810 1130 786 1176 L 588 1098 Z M 512 182 C 554 182 594 189 633 205 C 671 220 705 244 734 276 C 763 308 786 349 803 399 C 820 449 829 510 829 580 C 829 657 808 718 768 763 C 727 808 667 831 588 831 C 550 831 512 823 475 807 C 438 791 405 766 377 734 C 349 701 326 659 309 608 C 291 557 283 497 283 428 C 283 350 302 290 340 247 C 378 203 435 182 512 182 Z" unicode="ð" />
<glyph horiz-adv-x="1214" d="M 8 0 L 8 0 Z M 260 0 L 8 0 L 201 1087 L 432 1087 L 426 934 C 444 955 467 976 493 997 C 519 1018 549 1037 581 1053 C 613 1069 649 1083 687 1093 C 725 1103 764 1108 805 1108 C 913 1108 992 1078 1041 1018 C 1089 958 1104 874 1085 768 L 950 0 L 698 0 L 823 713 C 834 771 828 816 806 847 C 784 877 741 893 678 893 C 632 893 583 880 533 855 C 482 830 435 798 393 758 L 260 0 Z M 569 1303 C 541 1303 518 1293 499 1275 C 480 1257 469 1226 465 1182 L 320 1204 C 336 1298 365 1367 407 1411 C 449 1455 503 1477 569 1477 C 601 1477 631 1471 658 1459 C 684 1447 709 1433 731 1419 C 753 1405 774 1392 794 1380 C 814 1368 833 1362 852 1362 C 879 1362 902 1371 921 1389 C 940 1407 952 1439 956 1483 L 1102 1460 C 1085 1366 1055 1298 1013 1254 C 971 1210 917 1188 852 1188 C 820 1188 790 1194 764 1206 C 738 1218 714 1231 692 1245 C 670 1259 649 1273 629 1285 C 609 1297 589 1303 569 1303 Z" unicode="ñ" />
<glyph horiz-adv-x="1200" d="M 31 0 L 31 0 Z M 498 -23 C 434 -23 373 -12 317 7 C 260 27 210 57 168 97 C 126 136 92 185 68 244 C 43 303 31 371 31 449 C 31 567 49 668 85 752 C 121 836 168 904 225 956 C 282 1008 346 1047 417 1071 C 488 1095 558 1108 627 1108 C 691 1108 751 1098 808 1078 C 864 1058 914 1029 956 990 C 998 951 1032 902 1057 843 C 1081 784 1094 716 1094 639 C 1094 521 1075 421 1039 337 C 1003 253 956 184 899 131 C 842 78 778 39 707 14 C 636 -10 566 -23 498 -23 Z M 518 182 C 562 182 603 191 642 211 C 681 231 715 260 745 298 C 774 336 797 384 814 441 C 831 497 840 562 840 635 C 840 673 835 709 826 742 C 817 774 803 802 784 825 C 765 848 741 866 711 879 C 681 892 645 899 604 899 C 560 899 518 888 479 868 C 440 848 406 818 378 780 C 349 741 326 693 310 637 C 293 580 285 516 285 444 C 285 405 289 369 298 337 C 306 305 320 277 338 254 C 356 231 380 213 410 201 C 440 188 476 182 518 182 Z M 793 1202 L 627 1202 L 362 1542 L 633 1542 L 793 1202 Z" unicode="ò" />
<glyph horiz-adv-x="1200" d="M 31 0 L 31 0 Z M 670 1202 L 504 1202 L 745 1542 L 1016 1542 L 670 1202 Z M 498 -23 C 434 -23 373 -12 317 7 C 260 27 210 57 168 97 C 126 136 92 185 68 244 C 43 303 31 371 31 449 C 31 567 49 668 85 752 C 121 836 168 904 225 956 C 282 1008 346 1047 417 1071 C 488 1095 558 1108 627 1108 C 691 1108 751 1098 808 1078 C 864 1058 914 1029 956 990 C 998 951 1032 902 1057 843 C 1081 784 1094 716 1094 639 C 1094 521 1075 421 1039 337 C 1003 253 956 184 899 131 C 842 78 778 39 707 14 C 636 -10 566 -23 498 -23 Z M 518 182 C 562 182 603 191 642 211 C 681 231 715 260 745 298 C 774 336 797 384 814 441 C 831 497 840 562 840 635 C 840 673 835 709 826 742 C 817 774 803 802 784 825 C 765 848 741 866 711 879 C 681 892 645 899 604 899 C 560 899 518 888 479 868 C 440 848 406 818 378 780 C 349 741 326 693 310 637 C 293 580 285 516 285 444 C 285 405 289 369 298 337 C 306 305 320 277 338 254 C 356 231 380 213 410 201 C 440 188 476 182 518 182 Z" unicode="ó" />
<glyph horiz-adv-x="1200" d="M 31 0 L 31 0 Z M 479 1202 L 333 1202 L 653 1542 L 827 1542 L 1026 1202 L 878 1202 L 708 1374 L 479 1202 Z M 498 -23 C 434 -23 373 -12 317 7 C 260 27 210 57 168 97 C 126 136 92 185 68 244 C 43 303 31 371 31 449 C 31 567 49 668 85 752 C 121 836 168 904 225 956 C 282 1008 346 1047 417 1071 C 488 1095 558 1108 627 1108 C 691 1108 751 1098 808 1078 C 864 1058 914 1029 956 990 C 998 951 1032 902 1057 843 C 1081 784 1094 716 1094 639 C 1094 521 1075 421 1039 337 C 1003 253 956 184 899 131 C 842 78 778 39 707 14 C 636 -10 566 -23 498 -23 Z M 518 182 C 562 182 603 191 642 211 C 681 231 715 260 745 298 C 774 336 797 384 814 441 C 831 497 840 562 840 635 C 840 673 835 709 826 742 C 817 774 803 802 784 825 C 765 848 741 866 711 879 C 681 892 645 899 604 899 C 560 899 518 888 479 868 C 440 848 406 818 378 780 C 349 741 326 693 310 637 C 293 580 285 516 285 444 C 285 405 289 369 298 337 C 306 305 320 277 338 254 C 356 231 380 213 410 201 C 440 188 476 182 518 182 Z" unicode="ô" />
<glyph horiz-adv-x="1200" d="M 31 0 L 31 0 Z M 498 -23 C 434 -23 373 -12 317 7 C 260 27 210 57 168 97 C 126 136 92 185 68 244 C 43 303 31 371 31 449 C 31 567 49 668 85 752 C 121 836 168 904 225 956 C 282 1008 346 1047 417 1071 C 488 1095 558 1108 627 1108 C 691 1108 751 1098 808 1078 C 864 1058 914 1029 956 990 C 998 951 1032 902 1057 843 C 1081 784 1094 716 1094 639 C 1094 521 1075 421 1039 337 C 1003 253 956 184 899 131 C 842 78 778 39 707 14 C 636 -10 566 -23 498 -23 Z M 518 182 C 562 182 603 191 642 211 C 681 231 715 260 745 298 C 774 336 797 384 814 441 C 831 497 840 562 840 635 C 840 673 835 709 826 742 C 817 774 803 802 784 825 C 765 848 741 866 711 879 C 681 892 645 899 604 899 C 560 899 518 888 479 868 C 440 848 406 818 378 780 C 349 741 326 693 310 637 C 293 580 285 516 285 444 C 285 405 289 369 298 337 C 306 305 320 277 338 254 C 356 231 380 213 410 201 C 440 188 476 182 518 182 Z M 563 1303 C 535 1303 512 1293 493 1275 C 474 1257 463 1226 459 1182 L 314 1204 C 330 1298 359 1367 401 1411 C 443 1455 497 1477 563 1477 C 595 1477 625 1471 652 1459 C 678 1447 703 1433 725 1419 C 747 1405 768 1392 788 1380 C 808 1368 827 1362 846 1362 C 873 1362 896 1371 915 1389 C 934 1407 946 1439 950 1483 L 1096 1460 C 1079 1366 1049 1298 1007 1254 C 965 1210 911 1188 846 1188 C 814 1188 784 1194 758 1206 C 732 1218 708 1231 686 1245 C 664 1259 643 1273 623 1285 C 603 1297 583 1303 563 1303 Z" unicode="õ" />
<glyph horiz-adv-x="1200" d="M 31 0 L 31 0 Z M 873 1182 C 831 1182 801 1196 783 1224 C 765 1252 759 1286 766 1325 C 773 1363 789 1394 814 1419 C 838 1443 872 1456 914 1456 C 956 1456 987 1442 1005 1415 C 1023 1387 1029 1355 1022 1317 C 1015 1278 1000 1246 976 1220 C 952 1194 917 1182 873 1182 Z M 480 1182 C 438 1182 408 1196 390 1224 C 372 1252 366 1286 373 1325 C 379 1363 395 1394 420 1419 C 445 1443 479 1456 521 1456 C 563 1456 594 1442 612 1415 C 630 1387 635 1355 629 1317 C 622 1278 607 1246 583 1220 C 559 1194 524 1182 480 1182 Z M 498 -23 C 434 -23 373 -12 317 7 C 260 27 210 57 168 97 C 126 136 92 185 68 244 C 43 303 31 371 31 449 C 31 567 49 668 85 752 C 121 836 168 904 225 956 C 282 1008 346 1047 417 1071 C 488 1095 558 1108 627 1108 C 691 1108 751 1098 808 1078 C 864 1058 914 1029 956 990 C 998 951 1032 902 1057 843 C 1081 784 1094 716 1094 639 C 1094 521 1075 421 1039 337 C 1003 253 956 184 899 131 C 842 78 778 39 707 14 C 636 -10 566 -23 498 -23 Z M 518 182 C 562 182 603 191 642 211 C 681 231 715 260 745 298 C 774 336 797 384 814 441 C 831 497 840 562 840 635 C 840 673 835 709 826 742 C 817 774 803 802 784 825 C 765 848 741 866 711 879 C 681 892 645 899 604 899 C 560 899 518 888 479 868 C 440 848 406 818 378 780 C 349 741 326 693 310 637 C 293 580 285 516 285 444 C 285 405 289 369 298 337 C 306 305 320 277 338 254 C 356 231 380 213 410 201 C 440 188 476 182 518 182 Z" unicode="ö" />
<glyph horiz-adv-x="1315" d="M 643 952 C 601 952 568 964 546 989 C 523 1013 512 1043 512 1079 C 512 1115 523 1144 546 1168 C 568 1192 601 1204 643 1204 C 685 1204 717 1192 741 1168 C 764 1144 776 1115 776 1079 C 776 1043 764 1013 741 989 C 717 964 685 952 643 952 Z M 1169 598 L 125 598 L 125 801 L 1169 801 L 1169 598 Z M 643 186 C 601 186 568 198 546 223 C 523 247 512 277 512 313 C 512 349 523 380 546 404 C 568 428 601 440 643 440 C 685 440 717 428 741 404 C 764 380 776 349 776 313 C 776 277 764 247 741 223 C 717 198 685 186 643 186 Z" unicode="÷" />
<glyph horiz-adv-x="1200" d="M 604 909 C 560 909 518 898 478 877 C 438 855 404 825 375 785 C 346 745 323 696 306 638 C 289 580 281 516 281 444 C 281 426 282 408 284 391 C 286 373 288 356 291 340 L 778 844 C 758 864 734 880 705 892 C 676 903 642 909 604 909 Z M 518 172 C 562 172 603 182 643 203 C 683 224 717 254 747 294 C 776 333 799 381 817 439 C 835 497 844 562 844 635 C 844 652 843 669 841 685 C 839 701 836 717 834 733 L 346 233 C 365 214 389 199 417 188 C 445 177 479 172 518 172 Z M 498 -23 C 440 -23 386 -15 335 0 C 283 16 237 40 197 72 L 43 -78 L -49 20 L 106 170 C 81 206 62 248 50 295 C 37 341 31 393 31 449 C 31 567 49 668 85 752 C 121 836 168 904 225 956 C 282 1008 346 1047 417 1071 C 488 1095 558 1108 627 1108 C 685 1108 740 1099 792 1083 C 844 1067 891 1042 932 1010 L 1081 1155 L 1171 1057 L 1022 909 C 1044 873 1062 833 1075 788 C 1087 742 1094 693 1094 639 C 1094 521 1075 421 1039 337 C 1003 253 956 184 899 131 C 842 78 778 39 707 14 C 636 -10 566 -23 498 -23 Z" unicode="ø" />
<glyph horiz-adv-x="1212" d="M 47 0 L 47 0 Z M 337 -23 C 229 -23 150 7 101 68 C 52 128 37 212 56 319 L 191 1087 L 443 1087 L 316 369 C 306 309 312 264 335 234 C 357 203 400 188 462 188 C 508 188 556 200 606 226 C 655 251 701 284 744 324 L 880 1087 L 1131 1087 L 939 0 L 708 0 L 714 154 C 695 132 672 111 646 90 C 620 68 591 49 559 33 C 527 16 492 2 454 -7 C 416 -17 377 -23 337 -23 Z M 797 1202 L 631 1202 L 366 1542 L 637 1542 L 797 1202 Z" unicode="ù" />
<glyph horiz-adv-x="1212" d="M 47 0 L 47 0 Z M 676 1202 L 510 1202 L 751 1542 L 1022 1542 L 676 1202 Z M 337 -23 C 229 -23 150 7 101 68 C 52 128 37 212 56 319 L 191 1087 L 443 1087 L 316 369 C 306 309 312 264 335 234 C 357 203 400 188 462 188 C 508 188 556 200 606 226 C 655 251 701 284 744 324 L 880 1087 L 1131 1087 L 939 0 L 708 0 L 714 154 C 695 132 672 111 646 90 C 620 68 591 49 559 33 C 527 16 492 2 454 -7 C 416 -17 377 -23 337 -23 Z" unicode="ú" />
<glyph horiz-adv-x="1212" d="M 47 0 L 47 0 Z M 483 1202 L 337 1202 L 657 1542 L 831 1542 L 1030 1202 L 882 1202 L 712 1374 L 483 1202 Z M 337 -23 C 229 -23 150 7 101 68 C 52 128 37 212 56 319 L 191 1087 L 443 1087 L 316 369 C 306 309 312 264 335 234 C 357 203 400 188 462 188 C 508 188 556 200 606 226 C 655 251 701 284 744 324 L 880 1087 L 1131 1087 L 939 0 L 708 0 L 714 154 C 695 132 672 111 646 90 C 620 68 591 49 559 33 C 527 16 492 2 454 -7 C 416 -17 377 -23 337 -23 Z" unicode="û" />
<glyph horiz-adv-x="1212" d="M 47 0 L 47 0 Z M 879 1182 C 837 1182 807 1196 789 1224 C 771 1252 765 1286 772 1325 C 779 1363 795 1394 820 1419 C 844 1443 878 1456 920 1456 C 962 1456 993 1442 1011 1415 C 1029 1387 1035 1355 1028 1317 C 1021 1278 1006 1246 982 1220 C 958 1194 923 1182 879 1182 Z M 486 1182 C 444 1182 414 1196 396 1224 C 378 1252 372 1286 379 1325 C 385 1363 401 1394 426 1419 C 451 1443 485 1456 527 1456 C 569 1456 600 1442 618 1415 C 636 1387 641 1355 635 1317 C 628 1278 613 1246 589 1220 C 565 1194 530 1182 486 1182 Z M 337 -23 C 229 -23 150 7 101 68 C 52 128 37 212 56 319 L 191 1087 L 443 1087 L 316 369 C 306 309 312 264 335 234 C 357 203 400 188 462 188 C 508 188 556 200 606 226 C 655 251 701 284 744 324 L 880 1087 L 1131 1087 L 939 0 L 708 0 L 714 154 C 695 132 672 111 646 90 C 620 68 591 49 559 33 C 527 16 492 2 454 -7 C 416 -17 377 -23 337 -23 Z" unicode="ü" />
<glyph horiz-adv-x="1100" d="M 0 0 L 0 0 Z M 90 -422 C 30 -422 -22 -416 -68 -406 C -113 -396 -149 -385 -176 -375 L -92 -170 C -83 -174 -72 -178 -58 -183 C -44 -187 -29 -192 -13 -196 C 2 -200 18 -204 34 -207 C 50 -209 66 -211 80 -211 C 120 -211 152 -201 178 -181 C 204 -161 226 -132 246 -96 L 295 -6 L 88 1067 L 340 1108 L 473 295 L 477 295 L 887 1087 L 1139 1087 L 446 -164 C 399 -249 349 -313 295 -357 C 241 -400 173 -422 90 -422 Z M 619 1202 L 453 1202 L 694 1542 L 965 1542 L 619 1202 Z" unicode="ý" />
<glyph horiz-adv-x="1231" d="M 553 182 C 589 182 626 190 664 208 C 702 226 736 253 766 290 C 796 326 821 374 841 432 C 860 490 870 559 870 639 C 870 720 850 783 812 827 C 773 871 720 893 653 893 C 607 893 560 880 512 855 C 464 829 425 798 395 762 L 309 291 C 341 257 377 230 415 211 C 453 191 499 182 553 182 Z M 193 -391 L -68 -432 L 272 1495 L 530 1536 L 426 944 C 460 988 506 1027 565 1059 C 623 1091 687 1108 756 1108 C 812 1108 864 1098 910 1079 C 956 1059 995 1031 1027 995 C 1059 958 1083 913 1100 859 C 1117 805 1126 745 1126 678 C 1126 566 1111 466 1083 380 C 1055 293 1017 220 970 162 C 922 103 867 58 805 28 C 743 -2 678 -18 612 -18 C 538 -18 473 -7 418 13 C 363 34 317 66 279 109 L 193 -391 Z" unicode="þ" />
<glyph horiz-adv-x="1100" d="M 0 0 L 0 0 Z M 90 -422 C 30 -422 -22 -416 -68 -406 C -113 -396 -149 -385 -176 -375 L -92 -170 C -83 -174 -72 -178 -58 -183 C -44 -187 -29 -192 -13 -196 C 2 -200 18 -204 34 -207 C 50 -209 66 -211 80 -211 C 120 -211 152 -201 178 -181 C 204 -161 226 -132 246 -96 L 295 -6 L 88 1067 L 340 1108 L 473 295 L 477 295 L 887 1087 L 1139 1087 L 446 -164 C 399 -249 349 -313 295 -357 C 241 -400 173 -422 90 -422 Z M 821 1182 C 779 1182 749 1196 731 1224 C 713 1252 707 1286 714 1325 C 721 1363 737 1394 762 1419 C 786 1443 820 1456 862 1456 C 904 1456 935 1442 953 1415 C 971 1387 977 1355 970 1317 C 963 1278 948 1246 924 1220 C 900 1194 865 1182 821 1182 Z M 428 1182 C 386 1182 356 1196 338 1224 C 320 1252 314 1286 321 1325 C 327 1363 343 1394 368 1419 C 393 1443 427 1456 469 1456 C 511 1456 542 1442 560 1415 C 578 1387 583 1355 577 1317 C 570 1278 555 1246 531 1220 C 507 1194 472 1182 428 1182 Z" unicode="ÿ" />
<glyph horiz-adv-x="1407" d="" unicode="Ā" />
<glyph horiz-adv-x="1147" d="" unicode="ā" />
<glyph horiz-adv-x="1407" d="" unicode="Ă" />
<glyph horiz-adv-x="1147" d="" unicode="ă" />
<glyph horiz-adv-x="1407" d="" unicode="Ą" />
<glyph horiz-adv-x="1147" d="" unicode="ą" />
<glyph horiz-adv-x="1448" d="" unicode="Ć" />
<glyph horiz-adv-x="1096" d="" unicode="ć" />
<glyph horiz-adv-x="1448" d="" unicode="Ĉ" />
<glyph horiz-adv-x="1096" d="" unicode="ĉ" />
<glyph horiz-adv-x="1448" d="" unicode="Ċ" />
<glyph horiz-adv-x="1096" d="" unicode="ċ" />
<glyph horiz-adv-x="1448" d="" unicode="Č" />
<glyph horiz-adv-x="1096" d="" unicode="č" />
<glyph horiz-adv-x="1470" d="" unicode="Ď" />
<glyph horiz-adv-x="1231" d="" unicode="ď" />
<glyph horiz-adv-x="1470" d="" unicode="Đ" />
<glyph horiz-adv-x="1231" d="" unicode="đ" />
<glyph horiz-adv-x="1251" d="" unicode="Ē" />
<glyph horiz-adv-x="1135" d="" unicode="ē" />
<glyph horiz-adv-x="1251" d="" unicode="Ĕ" />
<glyph horiz-adv-x="1135" d="" unicode="ĕ" />
<glyph horiz-adv-x="1251" d="" unicode="Ė" />
<glyph horiz-adv-x="1135" d="" unicode="ė" />
<glyph horiz-adv-x="1251" d="" unicode="Ę" />
<glyph horiz-adv-x="1135" d="" unicode="ę" />
<glyph horiz-adv-x="1251" d="" unicode="Ě" />
<glyph horiz-adv-x="1135" d="" unicode="ě" />
<glyph horiz-adv-x="1511" d="" unicode="Ĝ" />
<glyph horiz-adv-x="1198" d="" unicode="ĝ" />
<glyph horiz-adv-x="1511" d="" unicode="Ğ" />
<glyph horiz-adv-x="1198" d="" unicode="ğ" />
<glyph horiz-adv-x="1511" d="" unicode="Ġ" />
<glyph horiz-adv-x="1198" d="" unicode="ġ" />
<glyph horiz-adv-x="1511" d="" unicode="Ģ" />
<glyph horiz-adv-x="1198" d="" unicode="ģ" />
<glyph horiz-adv-x="1524" d="" unicode="Ĥ" />
<glyph horiz-adv-x="1214" d="" unicode="ĥ" />
<glyph horiz-adv-x="1524" d="" unicode="Ħ" />
<glyph horiz-adv-x="1214" d="" unicode="ħ" />
<glyph horiz-adv-x="635" d="" unicode="Ĩ" />
<glyph horiz-adv-x="557" d="" unicode="ĩ" />
<glyph horiz-adv-x="635" d="" unicode="Ī" />
<glyph horiz-adv-x="557" d="" unicode="ī" />
<glyph horiz-adv-x="635" d="" unicode="Ĭ" />
<glyph horiz-adv-x="557" d="" unicode="ĭ" />
<glyph horiz-adv-x="635" d="" unicode="Į" />
<glyph horiz-adv-x="557" d="" unicode="į" />
<glyph horiz-adv-x="635" d="" unicode="İ" />
<glyph horiz-adv-x="557" d="M 272 0 L 20 0 L 213 1087 L 465 1087 L 272 0 Z" unicode="ı" />
<glyph horiz-adv-x="1608" d="" unicode="Ĳ" />
<glyph horiz-adv-x="1114" d="" unicode="ĳ" />
<glyph horiz-adv-x="1055" d="" unicode="Ĵ" />
<glyph horiz-adv-x="557" d="" unicode="ĵ" />
<glyph horiz-adv-x="1409" d="" unicode="Ķ" />
<glyph horiz-adv-x="1133" d="" unicode="ķ" />
<glyph horiz-adv-x="1133" d="" unicode="ĸ" />
<glyph horiz-adv-x="1163" d="" unicode="Ĺ" />
<glyph horiz-adv-x="557" d="" unicode="ĺ" />
<glyph horiz-adv-x="1163" d="" unicode="Ļ" />
<glyph horiz-adv-x="557" d="" unicode="ļ" />
<glyph horiz-adv-x="1163" d="" unicode="Ľ" />
<glyph horiz-adv-x="557" d="" unicode="ľ" />
<glyph horiz-adv-x="1214" d="" unicode="Ŀ" />
<glyph horiz-adv-x="803" d="" unicode="ŀ" />
<glyph horiz-adv-x="1163" d="" unicode="Ł" />
<glyph horiz-adv-x="657" d="" unicode="ł" />
<glyph horiz-adv-x="1542" d="" unicode="Ń" />
<glyph horiz-adv-x="1214" d="" unicode="ń" />
<glyph horiz-adv-x="1542" d="" unicode="Ņ" />
<glyph horiz-adv-x="1214" d="" unicode="ņ" />
<glyph horiz-adv-x="1542" d="" unicode="Ň" />
<glyph horiz-adv-x="1214" d="" unicode="ň" />
<glyph horiz-adv-x="1544" d="" unicode="Ŋ" />
<glyph horiz-adv-x="1214" d="" unicode="ŋ" />
<glyph horiz-adv-x="1544" d="" unicode="Ō" />
<glyph horiz-adv-x="1200" d="" unicode="ō" />
<glyph horiz-adv-x="1544" d="" unicode="Ŏ" />
<glyph horiz-adv-x="1200" d="" unicode="ŏ" />
<glyph horiz-adv-x="1544" d="" unicode="Ő" />
<glyph horiz-adv-x="1200" d="" unicode="ő" />
<glyph horiz-adv-x="2263" d="M 696 203 C 760 203 822 217 883 245 C 944 273 998 316 1046 374 C 1093 431 1131 503 1160 591 C 1189 678 1204 780 1204 897 C 1204 1026 1173 1127 1111 1200 C 1049 1272 962 1309 850 1309 C 786 1309 723 1295 661 1267 C 599 1239 545 1197 497 1141 C 449 1085 411 1013 382 927 C 352 840 338 738 338 621 C 338 490 369 388 431 314 C 493 240 582 203 696 203 Z M 2046 0 L 1077 0 L 1112 193 C 1054 122 985 67 904 29 C 822 -9 735 -29 643 -29 C 563 -29 489 -13 421 16 C 352 46 293 89 243 145 C 193 201 153 269 125 349 C 96 429 82 519 82 618 C 82 768 104 902 150 1018 C 195 1134 254 1230 326 1308 C 398 1385 481 1444 573 1484 C 665 1524 758 1544 852 1544 C 964 1544 1057 1522 1131 1479 C 1205 1436 1260 1374 1296 1294 L 1337 1516 L 2273 1516 L 2230 1278 L 1528 1278 L 1462 901 L 1954 901 L 1954 674 L 1423 674 L 1346 233 L 2087 233 L 2046 0 Z" unicode="Œ" />
<glyph horiz-adv-x="1919" d="M 1274 -23 C 1191 -23 1118 -6 1055 25 C 991 57 941 104 903 164 C 849 102 786 55 715 24 C 643 -7 571 -23 498 -23 C 434 -23 373 -12 317 7 C 260 27 210 57 168 97 C 126 136 92 185 68 244 C 43 303 31 371 31 449 C 31 567 49 668 85 752 C 121 836 168 904 225 956 C 282 1008 346 1047 417 1071 C 488 1095 558 1108 627 1108 C 707 1108 779 1090 843 1056 C 907 1021 957 973 995 911 C 1025 945 1058 975 1094 1000 C 1129 1025 1164 1046 1200 1062 C 1236 1078 1271 1089 1305 1097 C 1339 1104 1369 1108 1397 1108 C 1477 1108 1547 1094 1605 1067 C 1663 1040 1708 1001 1742 951 C 1775 900 1796 838 1806 765 C 1815 692 1812 610 1796 520 L 1786 461 L 1059 461 L 1059 436 C 1059 383 1066 340 1082 306 C 1098 272 1118 245 1142 227 C 1166 208 1194 195 1224 188 C 1254 181 1283 178 1313 178 C 1377 178 1433 190 1482 216 C 1530 241 1584 276 1642 322 L 1751 160 C 1719 132 1687 106 1654 84 C 1621 61 1586 42 1548 26 C 1510 10 1469 -1 1424 -10 C 1378 -18 1328 -23 1274 -23 Z M 1085 649 L 1589 649 C 1597 725 1586 787 1555 833 C 1524 879 1465 903 1378 903 C 1314 903 1256 882 1203 840 C 1150 798 1111 734 1085 649 Z M 514 180 C 558 180 599 190 639 210 C 679 230 713 259 743 297 C 772 335 795 383 813 440 C 831 497 840 562 840 635 C 840 673 835 709 827 742 C 818 774 804 802 786 826 C 767 850 743 868 714 881 C 684 894 649 901 608 901 C 564 901 522 890 482 870 C 442 849 408 819 379 781 C 350 742 327 694 310 637 C 293 580 285 516 285 444 C 285 405 289 369 297 337 C 305 305 318 277 336 254 C 354 230 378 212 407 199 C 436 186 472 180 514 180 Z" unicode="œ" />
<glyph horiz-adv-x="1395" d="" unicode="Ŕ" />
<glyph horiz-adv-x="834" d="" unicode="ŕ" />
<glyph horiz-adv-x="1395" d="" unicode="Ŗ" />
<glyph horiz-adv-x="834" d="" unicode="ŗ" />
<glyph horiz-adv-x="1395" d="" unicode="Ř" />
<glyph horiz-adv-x="834" d="" unicode="ř" />
<glyph horiz-adv-x="1360" d="" unicode="Ś" />
<glyph horiz-adv-x="1051" d="" unicode="ś" />
<glyph horiz-adv-x="1360" d="" unicode="Ŝ" />
<glyph horiz-adv-x="1051" d="" unicode="ŝ" />
<glyph horiz-adv-x="1360" d="" unicode="Ş" />
<glyph horiz-adv-x="1051" d="" unicode="ş" />
<glyph horiz-adv-x="1360" d="M 0 0 L 0 0 Z M 916 1618 L 742 1618 L 543 1958 L 690 1958 L 858 1786 L 1090 1958 L 1235 1958 L 916 1618 Z M 731 1546 C 800 1546 862 1540 918 1529 C 974 1518 1024 1503 1068 1484 C 1112 1465 1153 1443 1189 1417 C 1225 1391 1258 1364 1290 1335 L 1147 1141 C 1087 1193 1022 1235 953 1266 C 883 1297 804 1313 715 1313 C 636 1313 573 1296 525 1264 C 477 1231 453 1181 453 1114 C 453 1041 492 987 570 951 C 648 915 733 880 826 845 C 919 809 1005 764 1083 709 C 1161 653 1200 570 1200 459 C 1200 375 1185 303 1155 241 C 1125 179 1085 128 1033 88 C 981 48 919 18 847 -1 C 775 -21 697 -31 614 -31 C 538 -31 469 -24 409 -10 C 348 4 293 23 244 47 C 194 71 149 100 108 134 C 66 168 27 204 -10 242 L 154 426 C 182 396 212 367 243 339 C 274 311 308 287 346 267 C 383 246 425 229 473 217 C 520 205 575 199 637 199 C 677 199 715 202 752 209 C 789 215 822 227 850 243 C 878 259 901 281 918 309 C 935 337 944 373 944 416 C 944 494 905 551 827 588 C 749 625 663 661 570 696 C 477 731 392 776 314 830 C 236 884 197 968 197 1081 C 197 1159 211 1227 239 1286 C 267 1344 306 1393 354 1431 C 402 1469 459 1498 524 1517 C 589 1536 658 1546 731 1546 Z" unicode="Š" />
<glyph horiz-adv-x="1051" d="M 0 0 L 0 0 Z M 691 1208 L 517 1208 L 318 1548 L 465 1548 L 633 1376 L 865 1548 L 1010 1548 L 691 1208 Z M 449 -20 C 387 -20 330 -14 278 -4 C 226 6 180 20 140 38 C 99 56 64 76 34 100 C 4 124 -20 149 -39 176 L 86 338 C 130 287 184 247 248 217 C 312 187 382 172 457 172 C 485 171 512 173 538 177 C 563 181 585 188 604 198 C 622 208 637 222 648 240 C 658 258 664 280 664 307 C 664 355 635 389 577 411 C 519 433 456 455 388 478 C 320 501 257 532 199 572 C 141 612 113 674 113 758 C 113 816 124 868 146 912 C 168 956 198 993 235 1022 C 271 1050 314 1072 363 1086 C 411 1100 462 1108 514 1108 C 573 1108 626 1103 673 1095 C 720 1087 762 1076 799 1062 C 836 1048 869 1033 898 1015 C 927 997 953 979 977 961 L 856 784 C 816 818 769 847 716 873 C 662 898 598 911 524 911 C 471 911 430 901 401 881 C 372 861 358 831 358 791 C 358 741 386 706 444 685 C 502 663 565 641 633 619 C 701 596 764 565 822 527 C 880 489 909 428 909 346 C 909 273 894 213 866 166 C 838 118 802 81 758 54 C 714 26 664 7 609 -3 C 554 -14 501 -20 449 -20 Z" unicode="š" />
<glyph horiz-adv-x="1280" d="" unicode="Ť" />
<glyph horiz-adv-x="811" d="" unicode="ť" />
<glyph horiz-adv-x="1280" d="" unicode="Ŧ" />
<glyph horiz-adv-x="811" d="" unicode="ŧ" />
<glyph horiz-adv-x="1456" d="" unicode="Ũ" />
<glyph horiz-adv-x="1212" d="" unicode="ũ" />
<glyph horiz-adv-x="1456" d="" unicode="Ū" />
<glyph horiz-adv-x="1212" d="" unicode="ū" />
<glyph horiz-adv-x="1456" d="" unicode="Ŭ" />
<glyph horiz-adv-x="1212" d="" unicode="ŭ" />
<glyph horiz-adv-x="1456" d="" unicode="Ů" />
<glyph horiz-adv-x="1212" d="" unicode="ů" />
<glyph horiz-adv-x="1456" d="" unicode="Ű" />
<glyph horiz-adv-x="1212" d="" unicode="ű" />
<glyph horiz-adv-x="1456" d="" unicode="Ų" />
<glyph horiz-adv-x="1212" d="" unicode="ų" />
<glyph horiz-adv-x="1913" d="" unicode="Ŵ" />
<glyph horiz-adv-x="1544" d="" unicode="ŵ" />
<glyph horiz-adv-x="1333" d="" unicode="Ŷ" />
<glyph horiz-adv-x="1100" d="" unicode="ŷ" />
<glyph horiz-adv-x="1333" d="M 174 0 L 174 0 Z M 662 0 L 406 0 L 520 653 L 174 1495 L 418 1536 L 682 870 L 1163 1516 L 1436 1516 L 776 653 L 662 0 Z M 1010 1592 C 968 1592 938 1606 920 1634 C 902 1662 896 1696 903 1735 C 910 1773 926 1804 951 1829 C 975 1853 1009 1866 1051 1866 C 1093 1866 1124 1852 1142 1825 C 1160 1797 1166 1765 1159 1727 C 1152 1688 1137 1656 1113 1630 C 1089 1604 1054 1592 1010 1592 Z M 617 1592 C 575 1592 545 1606 527 1634 C 509 1662 503 1696 510 1735 C 516 1773 532 1804 557 1829 C 582 1853 616 1866 658 1866 C 700 1866 731 1852 749 1825 C 767 1797 772 1765 766 1727 C 759 1688 744 1656 720 1630 C 696 1604 661 1592 617 1592 Z" unicode="Ÿ" />
<glyph horiz-adv-x="1300" d="" unicode="Ź" />
<glyph horiz-adv-x="1044" d="" unicode="ź" />
<glyph horiz-adv-x="1300" d="" unicode="Ż" />
<glyph horiz-adv-x="1044" d="" unicode="ż" />
<glyph horiz-adv-x="1300" d="M 0 0 L 0 0 Z M 885 1618 L 711 1618 L 512 1958 L 659 1958 L 827 1786 L 1059 1958 L 1204 1958 L 885 1618 Z M 1098 0 L -61 0 L -25 199 L 979 1282 L 240 1282 L 240 1516 L 1343 1516 L 1309 1313 L 313 229 L 1098 229 L 1098 0 Z" unicode="Ž" />
<glyph horiz-adv-x="1044" d="M 0 0 L 0 0 Z M 689 1208 L 515 1208 L 316 1548 L 463 1548 L 631 1376 L 863 1548 L 1008 1548 L 689 1208 Z M 862 0 L -63 0 L -39 145 L 645 887 L 154 887 L 154 1087 L 1004 1087 L 977 936 L 291 195 L 862 195 L 862 0 Z" unicode="ž" />
<glyph horiz-adv-x="788" d="M -111 -414 C -123 -414 -136 -413 -151 -413 C -166 -412 -181 -411 -195 -410 C -209 -409 -222 -408 -234 -408 C -245 -407 -253 -406 -258 -406 L -225 -227 C -217 -229 -204 -230 -187 -231 C -169 -232 -154 -233 -141 -233 C -89 -233 -46 -220 -14 -196 C 17 -171 39 -130 49 -72 L 205 813 L 16 813 L 49 995 L 238 995 L 270 1198 C 278 1244 290 1287 308 1327 C 325 1367 349 1401 381 1430 C 412 1458 452 1481 501 1497 C 549 1513 609 1522 680 1522 C 692 1522 705 1521 721 1521 C 737 1520 752 1519 766 1518 C 780 1517 793 1516 805 1515 C 816 1513 824 1512 829 1511 L 795 1329 C 786 1331 773 1332 757 1333 C 740 1334 725 1335 711 1335 C 666 1335 626 1326 590 1308 C 554 1290 531 1252 522 1194 L 489 995 L 727 995 L 694 813 L 457 813 L 293 -113 C 285 -155 273 -194 257 -231 C 241 -268 217 -300 187 -327 C 156 -354 116 -375 68 -391 C 19 -406 -40 -414 -111 -414 Z" unicode="ƒ" />
<glyph horiz-adv-x="1360" d="" unicode="Ș" />
<glyph horiz-adv-x="1051" d="" unicode="ș" />
<glyph horiz-adv-x="1280" d="" unicode="Ț" />
<glyph horiz-adv-x="811" d="" unicode="ț" />
<glyph horiz-adv-x="1137" d="" unicode="ə" />
<glyph horiz-adv-x="565" d="" unicode="ʻ" />
<glyph horiz-adv-x="565" d="" unicode="ʼ" />
<glyph horiz-adv-x="1085" d="M 422 1202 L 276 1202 L 596 1542 L 770 1542 L 969 1202 L 821 1202 L 651 1374 L 422 1202 Z" unicode="ˆ" />
<glyph horiz-adv-x="1085" d="M 709 1208 L 535 1208 L 336 1548 L 483 1548 L 651 1376 L 883 1548 L 1028 1548 L 709 1208 Z" unicode="ˇ" />
<glyph horiz-adv-x="1014" d="" unicode="ˉ" />
<glyph horiz-adv-x="1014" d="" unicode="˘" />
<glyph horiz-adv-x="1014" d="" unicode="˙" />
<glyph horiz-adv-x="1096" d="M 639 1186 C 609 1186 583 1191 561 1201 C 538 1211 519 1224 503 1241 C 487 1258 475 1278 467 1301 C 459 1324 455 1348 455 1374 C 455 1409 461 1441 474 1469 C 487 1497 504 1521 526 1541 C 548 1561 572 1576 600 1586 C 628 1596 656 1602 686 1602 C 715 1602 741 1597 764 1587 C 786 1577 805 1564 821 1548 C 837 1532 849 1512 857 1490 C 865 1468 870 1444 870 1419 C 870 1383 863 1350 850 1321 C 837 1292 820 1268 798 1248 C 776 1228 752 1212 724 1202 C 696 1191 668 1186 639 1186 Z M 649 1290 C 677 1290 703 1300 726 1322 C 748 1343 760 1373 760 1411 C 760 1435 752 1456 737 1473 C 722 1490 701 1499 674 1499 C 645 1499 620 1488 598 1466 C 576 1444 565 1414 565 1378 C 565 1353 572 1332 586 1315 C 600 1298 621 1290 649 1290 Z" unicode="˚" />
<glyph horiz-adv-x="1014" d="" unicode="˛" />
<glyph horiz-adv-x="1044" d="M 485 1303 C 457 1303 434 1293 415 1275 C 396 1257 385 1226 381 1182 L 236 1204 C 252 1298 281 1367 323 1411 C 365 1455 419 1477 485 1477 C 517 1477 547 1471 574 1459 C 600 1447 625 1433 647 1419 C 669 1405 690 1392 710 1380 C 730 1368 749 1362 768 1362 C 795 1362 818 1371 837 1389 C 856 1407 868 1439 872 1483 L 1018 1460 C 1001 1366 971 1298 929 1254 C 887 1210 833 1188 768 1188 C 736 1188 706 1194 680 1206 C 654 1218 630 1231 608 1245 C 586 1259 565 1273 545 1285 C 525 1297 505 1303 485 1303 Z" unicode="˜" />
<glyph horiz-adv-x="1051" d="" unicode="˝" />
<glyph horiz-adv-x="1401" d="" unicode="Δ" />
<glyph horiz-adv-x="1540" d="" unicode="Ω" />
<glyph horiz-adv-x="1221" d="M 188 -410 L -63 -410 L 201 1087 L 453 1087 L 326 369 C 314 309 320 265 342 235 C 364 205 407 190 471 190 C 517 190 564 202 612 226 C 659 250 706 283 752 324 L 887 1087 L 1139 1087 L 946 0 L 694 0 L 721 154 C 702 135 681 116 658 96 C 634 76 609 59 582 43 C 554 27 524 15 492 5 C 459 -5 425 -10 389 -10 C 362 -10 338 -5 318 2 C 297 10 280 22 268 37 L 188 -410 Z" unicode="μ" />
<glyph horiz-adv-x="1350" d="" unicode="π" />
<glyph horiz-adv-x="1913" d="" unicode="Ẁ" />
<glyph horiz-adv-x="1544" d="" unicode="ẁ" />
<glyph horiz-adv-x="1913" d="" unicode="Ẃ" />
<glyph horiz-adv-x="1544" d="" unicode="ẃ" />
<glyph horiz-adv-x="1913" d="" unicode="Ẅ" />
<glyph horiz-adv-x="1544" d="" unicode="ẅ" />
<glyph horiz-adv-x="1333" d="" unicode="Ỳ" />
<glyph horiz-adv-x="1100" d="" unicode="ỳ" />
<glyph horiz-adv-x="1024" d="" unicode=" " />
<glyph horiz-adv-x="2048" d="" unicode=" " />
<glyph horiz-adv-x="1024" d="" unicode=" " />
<glyph horiz-adv-x="2048" d="" unicode=" " />
<glyph horiz-adv-x="682" d="" unicode=" " />
<glyph horiz-adv-x="512" d="" unicode=" " />
<glyph horiz-adv-x="1331" d="" unicode=" " />
<glyph horiz-adv-x="410" d="" unicode=" " />
<glyph horiz-adv-x="205" d="" unicode=" " />
<glyph horiz-adv-x="0" d="" unicode="​" />
<glyph horiz-adv-x="731" d="M 584 553 L 78 553 L 111 733 L 616 733 L 584 553 Z" unicode="‐" />
<glyph horiz-adv-x="731" d="M 584 553 L 78 553 L 111 733 L 616 733 L 584 553 Z" unicode="‑" />
<glyph horiz-adv-x="1331" d="M 1180 532 L 74 532 L 111 748 L 1217 748 L 1180 532 Z" unicode="‒" />
<glyph horiz-adv-x="1352" d="M 1190 532 L 84 532 L 121 748 L 1227 748 L 1190 532 Z" unicode="–" />
<glyph horiz-adv-x="1905" d="M 1743 530 L 84 530 L 121 748 L 1780 748 L 1743 530 Z" unicode="—" />
<glyph horiz-adv-x="2048" d="M -37 530 L 0 748 L 2048 748 L 2011 530 L -37 530 Z" unicode="―" />
<glyph horiz-adv-x="565" d="M 446 1516 L 596 1516 L 455 1020 L 174 1020 L 446 1516 Z" unicode="‘" />
<glyph horiz-adv-x="565" d="M 179 1020 L 179 1020 Z M 328 1020 L 179 1020 L 320 1515 L 600 1515 L 328 1020 Z" unicode="’" />
<glyph horiz-adv-x="565" d="M 0 0 L 0 0 Z M 90 -229 L -59 -229 L 82 266 L 362 266 L 90 -229 Z" unicode="‚" />
<glyph horiz-adv-x="999" d="M 879 1516 L 1028 1516 L 887 1020 L 606 1020 L 879 1516 Z M 446 1516 L 596 1516 L 455 1020 L 174 1020 L 446 1516 Z" unicode="“" />
<glyph horiz-adv-x="999" d="M 179 1020 L 179 1020 Z M 328 1020 L 179 1020 L 320 1515 L 600 1515 L 328 1020 Z M 762 1020 L 613 1020 L 754 1515 L 1034 1515 L 762 1020 Z" unicode="”" />
<glyph horiz-adv-x="999" d="M 0 0 L 0 0 Z M 90 -229 L -59 -229 L 82 266 L 362 266 L 90 -229 Z M 524 -229 L 375 -229 L 516 266 L 796 266 L 524 -229 Z" unicode="„" />
<glyph horiz-adv-x="1194" d="M 526 -410 L 260 -410 L 514 801 L 82 772 L 123 1006 L 545 975 L 598 1516 L 864 1516 L 729 975 L 1161 1006 L 1120 772 L 698 801 L 526 -410 Z" unicode="†" />
<glyph horiz-adv-x="1194" d="M 526 -410 L 260 -410 L 379 39 L -23 8 L 16 231 L 408 203 L 436 555 L 532 903 L 129 874 L 170 1098 L 561 1067 L 598 1516 L 868 1516 L 745 1067 L 1147 1098 L 1106 874 L 717 903 L 686 555 L 592 203 L 993 231 L 954 8 L 563 39 L 526 -410 Z" unicode="‡" />
<glyph horiz-adv-x="948" d="M 444 455 C 406 455 372 461 340 475 C 308 488 280 506 257 530 C 233 553 215 581 202 613 C 188 645 182 679 182 717 C 182 755 188 790 202 822 C 215 854 233 882 257 906 C 280 929 308 947 340 961 C 372 974 406 981 444 981 C 482 981 517 974 550 961 C 582 947 610 929 634 906 C 657 882 675 854 689 822 C 702 790 709 755 709 717 C 709 679 702 645 689 613 C 675 581 657 553 634 530 C 610 506 582 488 550 475 C 517 461 482 455 444 455 Z" unicode="•" />
<glyph horiz-adv-x="1696" d="M 17 0 L 17 0 Z M 153 -14 C 127 -14 105 -9 87 -1 C 69 6 54 18 43 32 C 32 46 25 62 21 80 C 17 98 17 118 21 139 C 28 179 47 213 77 239 C 107 265 148 279 198 279 C 248 279 284 263 307 233 C 329 203 337 167 331 127 C 323 86 305 52 275 26 C 245 0 205 -14 153 -14 Z M 718 -14 C 692 -14 670 -9 652 -1 C 634 6 619 18 608 32 C 597 46 590 62 586 80 C 582 98 582 118 586 139 C 593 179 612 213 642 239 C 672 265 713 279 763 279 C 813 279 849 263 872 233 C 894 203 902 167 896 127 C 888 86 870 52 840 26 C 810 0 770 -14 718 -14 Z M 1283 -14 C 1257 -14 1235 -9 1217 -1 C 1199 6 1184 18 1173 32 C 1162 46 1155 62 1151 80 C 1147 98 1147 118 1151 139 C 1158 179 1177 213 1207 239 C 1237 265 1278 279 1328 279 C 1378 279 1414 263 1437 233 C 1459 203 1467 167 1461 127 C 1453 86 1435 52 1405 26 C 1375 0 1335 -14 1283 -14 Z" unicode="…" />
<glyph horiz-adv-x="3002" d="M 481 582 C 424 582 374 591 332 610 C 290 628 255 654 227 687 C 199 720 179 760 165 806 C 151 852 145 902 145 956 C 145 1050 157 1133 183 1207 C 209 1280 242 1341 284 1390 C 325 1439 372 1476 426 1502 C 480 1527 534 1540 590 1540 C 646 1540 696 1530 738 1511 C 780 1492 814 1466 842 1433 C 869 1399 889 1359 903 1313 C 917 1266 924 1215 924 1161 C 924 1070 911 989 887 917 C 862 845 829 784 789 735 C 748 685 701 647 647 621 C 593 595 538 582 481 582 Z M 594 0 L 369 0 L 1530 1516 L 1755 1516 L 594 0 Z M 489 750 C 523 750 554 763 582 790 C 610 816 633 850 653 892 C 672 934 687 981 697 1033 C 707 1085 713 1136 713 1186 C 713 1240 702 1284 682 1318 C 662 1352 628 1370 580 1370 C 546 1370 515 1356 487 1330 C 459 1303 435 1269 416 1227 C 396 1185 381 1139 371 1087 C 361 1035 356 985 356 936 C 356 880 366 835 388 801 C 409 767 443 750 489 750 Z M 1536 -20 C 1479 -20 1430 -10 1388 8 C 1346 26 1311 52 1284 85 C 1256 118 1236 158 1222 204 C 1208 250 1202 300 1202 354 C 1202 448 1214 531 1240 605 C 1265 678 1298 739 1340 788 C 1381 837 1428 874 1482 900 C 1536 925 1591 938 1647 938 C 1703 938 1751 928 1793 910 C 1835 891 1869 865 1897 832 C 1924 799 1944 759 1958 713 C 1971 666 1978 615 1978 561 C 1978 469 1965 388 1941 316 C 1917 244 1884 183 1844 133 C 1803 83 1756 45 1702 19 C 1648 -6 1593 -20 1536 -20 Z M 2415 -20 C 2358 -20 2309 -10 2267 8 C 2225 26 2190 52 2162 85 C 2134 118 2114 158 2101 204 C 2087 250 2081 300 2081 354 C 2081 448 2093 531 2119 605 C 2144 678 2177 739 2218 788 C 2259 837 2306 874 2360 900 C 2414 925 2469 938 2525 938 C 2581 938 2629 928 2671 910 C 2713 891 2747 865 2775 832 C 2802 799 2822 759 2836 713 C 2850 666 2857 615 2857 561 C 2857 469 2844 388 2820 316 C 2796 244 2763 183 2723 133 C 2682 83 2635 45 2581 19 C 2527 -6 2472 -20 2415 -20 Z M 1546 147 C 1580 147 1610 160 1638 187 C 1665 214 1688 249 1707 291 C 1726 333 1741 380 1751 432 C 1761 484 1767 534 1767 584 C 1767 638 1757 683 1737 717 C 1717 751 1683 768 1636 768 C 1601 768 1570 754 1542 728 C 1514 701 1491 667 1472 625 C 1453 583 1438 537 1428 485 C 1418 433 1413 383 1413 334 C 1413 280 1423 235 1444 200 C 1465 164 1499 147 1546 147 Z M 2425 147 C 2459 147 2489 160 2517 187 C 2544 214 2567 249 2586 291 C 2605 333 2620 380 2630 432 C 2640 484 2646 534 2646 584 C 2646 638 2635 683 2615 717 C 2595 751 2561 768 2515 768 C 2480 768 2449 754 2421 728 C 2393 701 2370 667 2351 625 C 2332 583 2317 537 2307 485 C 2297 433 2292 383 2292 334 C 2292 280 2302 235 2323 200 C 2344 164 2378 147 2425 147 Z" unicode="‰" />
<glyph horiz-adv-x="514" d="M 291 979 L 137 979 L 244 1380 L 291 1516 L 514 1516 L 291 979 Z" unicode="′" />
<glyph horiz-adv-x="895" d="M 297 979 L 143 979 L 248 1380 L 295 1516 L 518 1516 L 297 979 Z M 678 979 L 524 979 L 629 1380 L 676 1516 L 899 1516 L 678 979 Z" unicode="″" />
<glyph horiz-adv-x="723" d="M 504 0 L 260 0 L 29 545 L 453 1087 L 696 1087 L 285 545 L 504 0 Z" unicode="‹" />
<glyph horiz-adv-x="723" d="M 197 0 L -49 0 L 362 545 L 145 1087 L 389 1087 L 618 545 L 197 0 Z" unicode="›" />
<glyph horiz-adv-x="1049" d="M 57 0 L -168 0 L 991 1516 L 1217 1516 L 57 0 Z" unicode="⁄" />
<glyph horiz-adv-x="1038" d="M 514 535 C 453 535 400 544 355 563 C 310 581 273 607 243 641 C 213 674 191 714 177 762 C 163 809 156 861 156 918 C 156 1001 167 1080 190 1155 C 212 1230 244 1295 285 1351 C 326 1407 376 1451 435 1484 C 494 1517 560 1534 633 1534 C 692 1534 744 1524 788 1504 C 832 1484 869 1457 898 1423 C 927 1388 949 1346 963 1298 C 977 1250 985 1197 985 1141 C 985 1056 973 977 951 903 C 928 829 896 764 855 710 C 814 656 765 613 707 582 C 649 550 584 535 514 535 Z M 522 698 C 566 698 604 711 637 738 C 669 764 696 799 717 842 C 737 884 753 933 763 987 C 773 1041 778 1096 778 1151 C 778 1218 765 1271 740 1309 C 714 1347 675 1366 621 1366 C 576 1366 537 1352 504 1326 C 471 1299 444 1264 423 1222 C 401 1179 385 1130 375 1076 C 365 1021 360 966 360 911 C 360 843 373 791 400 754 C 427 716 468 698 522 698 Z" unicode="⁰" />
<glyph horiz-adv-x="969" d="M 504 551 L 543 764 L 104 764 L 127 893 L 664 1516 L 877 1516 L 772 926 L 915 926 L 915 764 L 745 764 L 707 551 L 504 551 Z M 330 915 L 580 915 L 643 1288 L 330 915 Z" unicode="⁴" />
<glyph horiz-adv-x="924" d="M 440 535 C 349 535 275 551 218 583 C 161 615 116 654 84 700 L 205 823 C 229 787 262 757 302 732 C 342 706 387 694 438 694 C 506 694 559 712 597 750 C 635 787 655 839 655 905 C 655 949 642 984 616 1010 C 590 1036 554 1049 510 1049 C 475 1049 443 1041 415 1026 C 386 1011 356 988 326 956 L 188 1004 L 313 1516 L 881 1516 L 881 1352 L 444 1352 L 387 1126 C 408 1145 435 1161 469 1174 C 502 1187 542 1194 588 1194 C 668 1194 733 1170 782 1123 C 831 1075 856 1010 856 928 C 856 863 845 806 824 756 C 802 706 773 665 736 632 C 699 599 655 574 604 558 C 553 541 498 533 440 535 Z" unicode="⁵" />
<glyph horiz-adv-x="975" d="M 909 915 C 909 857 898 804 878 757 C 858 710 829 670 793 637 C 756 604 711 579 659 561 C 607 543 549 535 485 535 C 379 535 297 567 240 632 C 182 696 154 787 154 903 C 154 998 166 1085 190 1163 C 214 1241 248 1307 291 1362 C 334 1416 386 1459 446 1489 C 506 1519 572 1534 643 1534 C 715 1534 776 1524 828 1506 C 879 1487 919 1465 948 1440 L 844 1298 C 816 1319 784 1336 748 1349 C 712 1361 673 1368 631 1368 C 595 1368 562 1360 533 1346 C 504 1331 479 1310 457 1284 C 435 1258 416 1226 401 1189 C 385 1152 373 1112 365 1069 C 401 1101 443 1127 490 1146 C 537 1164 587 1174 641 1174 C 724 1174 789 1150 837 1104 C 885 1057 909 994 909 915 Z M 512 690 C 539 690 565 694 590 702 C 614 710 636 723 654 740 C 672 756 686 777 697 802 C 707 827 713 856 713 889 C 713 929 701 961 679 985 C 656 1009 620 1022 571 1022 C 529 1022 489 1014 452 1000 C 414 985 381 963 351 935 C 350 929 350 923 350 917 C 350 911 350 905 350 899 C 350 823 365 770 397 738 C 429 706 467 690 512 690 Z" unicode="⁶" />
<glyph horiz-adv-x="852" d="M 143 551 L 651 1346 L 211 1346 L 203 1516 L 897 1516 L 870 1362 L 356 551 L 143 551 Z" unicode="⁷" />
<glyph horiz-adv-x="958" d="M 465 535 C 404 535 351 541 305 555 C 259 568 221 586 191 609 C 161 631 138 658 123 689 C 107 719 100 752 100 786 C 100 857 122 914 167 958 C 212 1002 276 1040 358 1073 C 320 1100 289 1130 265 1162 C 241 1194 230 1232 231 1274 C 231 1312 239 1348 256 1380 C 273 1412 297 1440 329 1462 C 361 1484 399 1502 445 1515 C 490 1527 541 1534 598 1534 C 654 1534 703 1527 744 1513 C 785 1499 819 1481 845 1459 C 871 1437 890 1411 902 1383 C 914 1355 920 1326 920 1298 C 920 1238 902 1189 866 1151 C 830 1113 775 1078 702 1047 C 754 1017 796 984 829 948 C 862 912 879 868 879 817 C 879 769 868 727 848 692 C 828 656 799 627 763 604 C 727 580 683 563 632 552 C 581 540 525 535 465 535 Z M 563 1114 C 619 1138 660 1163 686 1187 C 712 1211 725 1242 725 1278 C 725 1291 722 1304 717 1318 C 712 1331 704 1343 693 1353 C 681 1363 667 1372 649 1379 C 631 1385 608 1389 582 1389 C 536 1389 498 1377 468 1354 C 438 1331 424 1301 424 1264 C 424 1234 436 1207 461 1184 C 486 1160 520 1137 563 1114 Z M 473 672 C 501 672 528 674 553 680 C 577 686 599 694 617 706 C 635 718 650 732 660 750 C 670 768 676 789 676 813 C 676 851 660 883 626 911 C 592 939 548 968 494 999 C 430 970 381 941 348 911 C 315 881 299 843 299 799 C 299 763 313 732 342 708 C 371 684 415 672 473 672 Z" unicode="⁸" />
<glyph horiz-adv-x="975" d="M 504 1040 C 546 1040 585 1047 623 1063 C 660 1078 694 1100 724 1128 C 724 1133 725 1139 725 1145 C 725 1151 725 1157 725 1163 C 725 1238 709 1292 677 1325 C 645 1357 607 1374 563 1374 C 535 1374 509 1369 485 1361 C 460 1352 439 1339 421 1323 C 403 1306 388 1285 378 1260 C 367 1235 362 1206 362 1174 C 362 1135 373 1103 396 1078 C 419 1052 455 1040 504 1040 Z M 432 535 C 360 535 298 543 247 561 C 195 579 155 601 127 627 L 231 764 C 259 742 290 726 326 714 C 362 702 401 696 444 696 C 480 696 512 703 542 718 C 571 733 597 754 619 781 C 641 807 660 839 676 876 C 691 913 703 954 711 998 C 673 965 631 939 585 921 C 538 902 488 893 434 893 C 350 893 285 916 237 962 C 189 1008 166 1071 166 1151 C 166 1209 176 1261 196 1309 C 216 1356 245 1396 282 1430 C 318 1463 363 1489 415 1507 C 467 1525 526 1534 590 1534 C 696 1534 777 1501 835 1436 C 893 1371 922 1280 922 1163 C 922 1068 909 982 885 904 C 861 826 827 760 784 706 C 740 652 688 610 628 580 C 568 550 502 535 432 535 Z" unicode="⁹" />
<glyph horiz-adv-x="1038" d="M 0 0 L 0 0 Z M 348 -426 C 287 -426 234 -416 189 -398 C 144 -379 107 -353 77 -320 C 47 -286 25 -246 11 -199 C -2 -151 -10 -99 -10 -43 C -10 40 1 119 24 194 C 46 269 78 334 119 390 C 160 446 210 490 269 523 C 328 556 394 573 467 573 C 526 573 578 563 622 543 C 666 523 703 496 732 462 C 761 427 783 385 797 337 C 811 289 819 236 819 180 C 819 95 807 16 785 -58 C 762 -132 730 -196 689 -250 C 648 -304 599 -347 541 -379 C 483 -410 418 -426 348 -426 Z M 356 -263 C 400 -263 438 -249 471 -223 C 503 -196 530 -161 551 -119 C 571 -76 587 -27 597 26 C 607 80 612 135 612 190 C 612 257 599 310 574 348 C 548 386 509 405 455 405 C 410 405 371 391 338 365 C 305 338 278 303 257 261 C 235 218 219 169 209 115 C 199 60 194 5 194 -50 C 194 -117 207 -169 234 -207 C 261 -244 302 -263 356 -263 Z" unicode="₀" />
<glyph horiz-adv-x="760" d="M 98 0 L 98 0 Z M 326 -410 L 119 -410 L 260 389 L 98 342 L 98 493 L 295 555 L 493 555 L 326 -410 Z" unicode="₁" />
<glyph horiz-adv-x="952" d="M 0 0 L 0 0 Z M -76 -408 L -68 -359 C -47 -237 -4 -146 61 -86 C 127 -26 194 21 264 57 C 334 92 396 125 451 156 C 506 186 534 233 534 296 C 534 324 524 349 505 370 C 486 390 458 401 422 401 C 386 401 348 392 309 375 C 270 358 230 324 190 272 L 59 380 C 112 449 172 499 239 529 C 306 559 376 575 448 575 C 497 575 540 568 577 556 C 613 543 644 526 668 504 C 692 482 709 455 721 425 C 733 395 739 362 739 327 C 739 234 712 163 660 113 C 608 63 549 22 483 -11 C 417 -44 354 -76 294 -107 C 234 -138 196 -182 180 -238 L 645 -238 L 616 -408 L -76 -408 Z" unicode="₂" />
<glyph horiz-adv-x="952" d="M 0 0 L 0 0 Z M 295 -424 C 204 -424 128 -405 67 -369 C 5 -332 -40 -282 -70 -218 L 78 -121 C 105 -173 137 -208 174 -226 C 211 -244 250 -254 291 -254 C 351 -254 397 -240 429 -213 C 461 -186 477 -149 477 -101 C 477 -61 463 -29 433 -7 C 403 14 354 26 287 26 L 207 26 L 233 174 L 319 174 C 390 174 443 184 478 204 C 512 224 530 257 530 305 C 530 332 520 355 502 374 C 484 393 453 403 409 403 C 369 403 330 395 292 381 C 253 367 214 344 176 313 L 84 440 C 142 490 202 525 265 545 C 327 565 390 575 452 575 C 501 575 544 568 581 556 C 617 544 647 527 671 507 C 694 486 711 461 723 433 C 735 405 741 375 741 344 C 741 284 725 234 694 192 C 662 150 614 119 549 98 C 599 81 635 55 657 20 C 679 -15 690 -54 690 -97 C 690 -151 679 -198 658 -239 C 637 -280 609 -314 573 -342 C 537 -369 495 -389 447 -403 C 399 -417 348 -424 295 -424 Z" unicode="₃" />
<glyph horiz-adv-x="969" d="M 0 0 L 0 0 Z M 338 -410 L 377 -197 L -62 -197 L -39 -68 L 498 555 L 711 555 L 606 -35 L 749 -35 L 749 -197 L 579 -197 L 541 -410 L 338 -410 Z M 164 -46 L 414 -46 L 477 327 L 164 -46 Z" unicode="₄" />
<glyph horiz-adv-x="924" d="M 0 0 L 0 0 Z M 274 -426 C 183 -426 109 -410 52 -378 C -4 -346 -49 -307 -82 -261 L 39 -138 C 63 -173 96 -203 136 -229 C 176 -254 221 -267 272 -267 C 340 -267 393 -248 431 -211 C 469 -173 489 -122 489 -56 C 489 -11 476 23 450 49 C 424 75 388 88 344 88 C 309 88 277 80 249 65 C 220 50 190 27 160 -5 L 22 43 L 147 555 L 715 555 L 715 391 L 278 391 L 221 165 C 242 184 269 200 303 213 C 336 226 376 233 422 233 C 502 233 567 209 616 162 C 665 114 690 49 690 -33 C 690 -97 679 -154 658 -204 C 636 -254 607 -295 570 -328 C 533 -361 489 -386 438 -403 C 387 -419 332 -427 274 -426 Z" unicode="₅" />
<glyph horiz-adv-x="975" d="M 0 0 L 0 0 Z M 743 -46 C 743 -104 732 -156 712 -203 C 692 -250 663 -290 627 -323 C 590 -356 545 -381 493 -399 C 441 -417 383 -426 319 -426 C 213 -426 131 -393 74 -329 C 16 -264 -12 -174 -12 -58 C -12 37 0 124 24 202 C 48 280 82 346 125 401 C 168 455 220 498 280 528 C 340 558 406 573 477 573 C 549 573 610 563 662 545 C 713 526 753 504 782 479 L 678 337 C 650 358 618 375 582 388 C 546 400 507 407 465 407 C 429 407 396 399 367 385 C 338 370 313 349 291 323 C 269 297 250 265 235 228 C 219 191 207 151 199 108 C 235 140 277 166 324 185 C 371 203 421 213 475 213 C 558 213 623 189 671 143 C 719 96 743 33 743 -46 Z M 346 -271 C 373 -271 399 -266 424 -258 C 448 -250 470 -237 488 -221 C 506 -204 520 -183 531 -158 C 541 -133 547 -104 547 -72 C 547 -32 535 0 513 24 C 490 48 454 61 405 61 C 363 61 323 53 286 39 C 248 24 215 2 185 -26 C 184 -32 184 -38 184 -44 C 184 -50 184 -56 184 -62 C 184 -137 199 -191 231 -223 C 263 -255 301 -271 346 -271 Z" unicode="₆" />
<glyph horiz-adv-x="852" d="M 0 0 L 0 0 Z M -23 -410 L 485 385 L 45 385 L 37 555 L 731 555 L 704 401 L 190 -410 L -23 -410 Z" unicode="₇" />
<glyph horiz-adv-x="958" d="M 0 0 L 0 0 Z M 299 -426 C 238 -426 185 -419 139 -406 C 93 -392 55 -374 25 -352 C -5 -329 -27 -302 -43 -272 C -58 -241 -66 -209 -66 -175 C -66 -103 -43 -46 1 -2 C 46 41 110 79 192 112 C 154 139 123 169 99 201 C 75 233 64 271 65 313 C 65 351 73 387 90 419 C 107 451 131 479 163 501 C 195 523 233 541 279 554 C 324 566 375 573 432 573 C 488 573 537 566 578 552 C 619 538 653 520 679 498 C 705 476 724 450 736 422 C 748 394 754 365 754 337 C 754 277 736 228 700 190 C 664 152 609 117 536 86 C 588 56 630 23 663 -13 C 696 -49 713 -92 713 -144 C 713 -192 702 -233 682 -269 C 662 -304 633 -333 597 -357 C 561 -380 517 -397 466 -409 C 415 -420 359 -426 299 -426 Z M 397 153 C 453 177 494 202 520 226 C 546 250 559 281 559 317 C 559 330 556 343 551 357 C 546 370 538 382 527 392 C 515 402 501 411 483 418 C 465 424 442 428 416 428 C 370 428 332 416 302 393 C 272 370 258 340 258 303 C 258 273 270 246 295 223 C 320 199 354 176 397 153 Z M 307 -289 C 335 -289 362 -286 387 -280 C 411 -274 433 -266 451 -254 C 469 -242 484 -228 494 -210 C 504 -192 510 -172 510 -148 C 510 -110 494 -77 460 -49 C 426 -21 382 7 328 38 C 264 9 215 -20 182 -50 C 149 -80 133 -117 133 -162 C 133 -198 147 -228 176 -252 C 205 -276 249 -289 307 -289 Z" unicode="₈" />
<glyph horiz-adv-x="975" d="M 0 0 L 0 0 Z M 338 79 C 380 79 419 86 457 102 C 494 117 528 139 558 167 C 558 172 559 178 559 184 C 559 190 559 196 559 202 C 559 277 543 331 511 364 C 479 396 441 413 397 413 C 369 413 343 408 319 400 C 294 391 273 378 255 362 C 237 345 222 324 212 299 C 201 274 196 245 196 213 C 196 174 207 142 230 117 C 253 91 289 79 338 79 Z M 266 -426 C 194 -426 132 -417 81 -399 C 29 -381 -10 -360 -39 -334 L 65 -197 C 93 -218 124 -235 160 -247 C 196 -259 235 -265 278 -265 C 314 -265 346 -257 376 -242 C 405 -227 431 -206 453 -180 C 475 -153 494 -121 510 -84 C 525 -47 537 -7 545 37 C 507 4 465 -21 419 -40 C 372 -58 322 -68 268 -68 C 184 -68 119 -44 71 1 C 23 47 0 110 0 190 C 0 248 10 300 30 348 C 50 395 79 435 116 469 C 152 502 197 528 249 546 C 301 564 360 573 424 573 C 530 573 611 540 669 475 C 727 410 756 319 756 202 C 756 107 743 21 719 -56 C 695 -134 661 -200 618 -254 C 574 -308 522 -351 462 -381 C 402 -411 336 -426 266 -426 Z" unicode="₉" />
<glyph horiz-adv-x="1473" d="M 780 -29 C 706 -29 638 -18 576 2 C 514 23 460 55 414 99 C 368 142 330 197 302 263 C 274 329 256 408 250 498 L -2 498 L 29 668 L 250 668 C 250 692 252 716 255 740 C 258 764 261 787 264 811 L 53 811 L 84 979 L 301 979 C 327 1067 361 1147 404 1217 C 446 1287 495 1347 550 1395 C 605 1443 665 1479 731 1505 C 797 1531 866 1544 938 1544 C 1016 1544 1084 1534 1140 1516 C 1196 1498 1242 1472 1279 1440 C 1316 1408 1346 1369 1368 1325 C 1390 1280 1406 1232 1417 1180 L 1194 1096 C 1188 1132 1179 1165 1168 1193 C 1157 1221 1141 1245 1121 1264 C 1101 1283 1075 1298 1044 1308 C 1012 1318 974 1323 928 1323 C 884 1323 843 1314 805 1298 C 767 1281 732 1258 701 1228 C 670 1198 642 1162 618 1120 C 593 1077 572 1030 555 979 L 946 979 L 915 811 L 514 811 C 510 787 506 764 504 740 C 502 716 500 692 498 668 L 891 668 L 860 498 L 496 498 C 502 385 530 305 581 258 C 632 211 703 188 795 188 C 857 188 911 208 959 248 C 1007 288 1052 353 1094 442 L 1282 313 C 1257 267 1228 223 1196 181 C 1164 139 1127 103 1086 72 C 1045 41 999 16 948 -1 C 897 -19 841 -29 780 -29 Z" unicode="€" />
<glyph horiz-adv-x="1772" d="" unicode="℗" />
<glyph horiz-adv-x="1853" d="M 543 649 L 367 649 L 367 1368 L 115 1368 L 115 1516 L 793 1516 L 793 1368 L 543 1368 L 543 649 Z M 1085 649 L 926 649 L 926 1516 L 1163 1516 L 1364 881 L 1567 1516 L 1802 1516 L 1802 649 L 1630 649 L 1630 1262 L 1432 649 L 1284 649 L 1085 1260 L 1085 649 Z" unicode="™" />
<glyph horiz-adv-x="1540" d="" unicode="Ω" />
<glyph horiz-adv-x="1427" d="" unicode="℮" />
<glyph horiz-adv-x="2279" d="" unicode="⅓" />
<glyph horiz-adv-x="2421" d="" unicode="⅔" />
<glyph horiz-adv-x="2286" d="" unicode="⅛" />
<glyph horiz-adv-x="2355" d="" unicode="⅜" />
<glyph horiz-adv-x="2337" d="" unicode="⅝" />
<glyph horiz-adv-x="2152" d="" unicode="⅞" />
<glyph horiz-adv-x="1202" d="" unicode="∂" />
<glyph horiz-adv-x="1401" d="" unicode="∆" />
<glyph horiz-adv-x="1520" d="" unicode="∏" />
<glyph horiz-adv-x="1237" d="" unicode="∑" />
<glyph horiz-adv-x="1315" d="" unicode="−" />
<glyph horiz-adv-x="1049" d="" unicode="∕" />
<glyph horiz-adv-x="575" d="" unicode="∙" />
<glyph horiz-adv-x="1294" d="" unicode="√" />
<glyph horiz-adv-x="1606" d="" unicode="∞" />
<glyph horiz-adv-x="776" d="" unicode="∫" />
<glyph horiz-adv-x="1315" d="" unicode="≈" />
<glyph horiz-adv-x="1315" d="" unicode="≠" />
<glyph horiz-adv-x="1315" d="" unicode="≤" />
<glyph horiz-adv-x="1315" d="" unicode="≥" />
<glyph horiz-adv-x="1331" d="" unicode="◊" />
<glyph horiz-adv-x="1141" d="M 522 -4 L 268 -4 L 80 1087 L 334 1087 L 449 285 L 453 285 L 1069 1516 L 1319 1516 L 522 -4 Z" unicode="✓" />
<glyph horiz-adv-x="565" d="" unicode="" />
<glyph horiz-adv-x="1556" d="M 1049 1034 L 866 1047 L 866 848 L 1063 848 L 1049 1034 Z M 485 848 L 682 848 L 682 1047 L 498 1034 L 485 848 Z M 1063 664 L 866 664 L 866 469 L 1051 481 L 1063 664 Z M 485 664 L 498 481 L 682 469 L 682 664 L 485 664 Z M 322 262 L 326 309 L 281 305 L 281 498 L 340 494 L 352 664 L 16 623 L 16 889 L 352 848 L 338 1022 L 281 1018 L 281 1210 L 324 1206 L 322 1249 L 514 1249 L 510 1192 L 682 1180 L 641 1516 L 907 1516 L 866 1180 L 1038 1192 L 1034 1249 L 1227 1249 L 1223 1206 L 1268 1210 L 1268 1018 L 1208 1022 L 1196 848 L 1532 889 L 1532 623 L 1196 664 L 1208 494 L 1268 498 L 1268 305 L 1223 309 L 1227 262 L 1034 262 L 1038 324 L 866 336 L 907 0 L 641 0 L 682 336 L 510 324 L 514 262 L 322 262 Z" unicode="" />
<glyph horiz-adv-x="1397" d="M 932 1087 L 954 1221 C 961 1266 972 1307 988 1345 C 1004 1382 1026 1414 1055 1440 C 1083 1466 1120 1486 1164 1500 C 1208 1514 1263 1522 1327 1522 C 1350 1522 1375 1520 1401 1516 C 1427 1512 1445 1509 1454 1507 L 1436 1325 C 1427 1327 1417 1329 1407 1331 C 1396 1333 1380 1335 1360 1335 C 1340 1335 1322 1333 1305 1331 C 1288 1328 1273 1322 1260 1313 C 1247 1304 1236 1291 1226 1274 C 1216 1256 1209 1233 1204 1204 L 1184 1087 L 1380 1087 L 1346 897 L 1149 897 L 991 0 L 739 0 L 897 897 L 508 897 L 350 0 L 98 0 L 256 897 L 74 897 L 109 1087 L 291 1087 L 313 1221 C 320 1266 331 1307 347 1345 C 363 1382 385 1414 414 1440 C 442 1466 479 1486 523 1500 C 567 1514 622 1522 686 1522 C 709 1522 734 1520 760 1516 C 786 1512 804 1509 813 1507 L 795 1325 C 786 1327 776 1329 766 1331 C 755 1333 739 1335 719 1335 C 699 1335 681 1333 664 1331 C 647 1328 632 1322 619 1313 C 606 1304 595 1291 585 1274 C 575 1256 568 1233 563 1204 L 543 1087 L 932 1087 Z" unicode="ﬀ" />
<glyph horiz-adv-x="1245" d="M 1057 1247 C 1011 1247 977 1261 957 1289 C 936 1317 929 1351 936 1389 C 942 1426 959 1456 986 1479 C 1013 1501 1050 1513 1096 1513 C 1142 1513 1176 1499 1198 1471 C 1220 1443 1227 1410 1221 1372 C 1213 1334 1196 1303 1168 1281 C 1140 1258 1103 1247 1057 1247 Z M 350 0 L 98 0 L 254 887 L 70 887 L 106 1087 L 291 1087 L 313 1221 C 320 1266 331 1307 347 1345 C 363 1382 385 1414 414 1440 C 442 1466 479 1486 523 1500 C 567 1514 622 1522 686 1522 C 709 1522 734 1520 760 1516 C 786 1512 804 1509 813 1507 L 795 1325 C 786 1327 776 1329 766 1331 C 755 1333 739 1335 719 1335 C 699 1335 681 1333 664 1331 C 647 1328 632 1322 619 1313 C 606 1304 595 1291 585 1274 C 575 1256 568 1233 563 1204 L 543 1087 L 739 1087 L 702 887 L 506 887 L 350 0 Z M 958 0 L 707 0 L 899 1087 L 1151 1087 L 958 0 Z" unicode="ﬁ" />
<glyph horiz-adv-x="1245" d="M 958 0 L 707 0 L 969 1495 L 1229 1536 L 958 0 Z M 350 0 L 98 0 L 254 887 L 70 887 L 106 1087 L 291 1087 L 313 1221 C 320 1266 331 1307 347 1345 C 363 1382 385 1414 414 1440 C 442 1466 479 1486 523 1500 C 567 1514 622 1522 686 1522 C 709 1522 734 1520 760 1516 C 786 1512 804 1509 813 1507 L 795 1325 C 786 1327 776 1329 766 1331 C 755 1333 739 1335 719 1335 C 699 1335 681 1333 664 1331 C 647 1328 632 1322 619 1313 C 606 1304 595 1291 585 1274 C 575 1256 568 1233 563 1204 L 543 1087 L 739 1087 L 702 887 L 506 887 L 350 0 Z" unicode="ﬂ" />
<glyph horiz-adv-x="1884" d="M 1698 1247 C 1652 1247 1618 1261 1598 1289 C 1577 1317 1570 1351 1577 1389 C 1583 1426 1600 1456 1627 1479 C 1654 1501 1691 1513 1737 1513 C 1783 1513 1817 1499 1839 1471 C 1861 1443 1868 1410 1862 1372 C 1854 1334 1837 1303 1809 1281 C 1781 1258 1744 1247 1698 1247 Z M 1599 0 L 1348 0 L 1540 1087 L 1792 1087 L 1599 0 Z M 932 1087 L 954 1221 C 961 1266 972 1307 988 1345 C 1004 1382 1026 1414 1055 1440 C 1083 1466 1120 1486 1164 1500 C 1208 1514 1263 1522 1327 1522 C 1350 1522 1375 1520 1401 1516 C 1427 1512 1445 1509 1454 1507 L 1436 1325 C 1427 1327 1417 1329 1407 1331 C 1396 1333 1380 1335 1360 1335 C 1340 1335 1322 1333 1305 1331 C 1288 1328 1273 1322 1260 1313 C 1247 1304 1236 1291 1226 1274 C 1216 1256 1209 1233 1204 1204 L 1184 1087 L 1380 1087 L 1346 897 L 1149 897 L 991 0 L 739 0 L 897 897 L 508 897 L 350 0 L 98 0 L 256 897 L 74 897 L 109 1087 L 291 1087 L 313 1221 C 320 1266 331 1307 347 1345 C 363 1382 385 1414 414 1440 C 442 1466 479 1486 523 1500 C 567 1514 622 1522 686 1522 C 709 1522 734 1520 760 1516 C 786 1512 804 1509 813 1507 L 795 1325 C 786 1327 776 1329 766 1331 C 755 1333 739 1335 719 1335 C 699 1335 681 1333 664 1331 C 647 1328 632 1322 619 1313 C 606 1304 595 1291 585 1274 C 575 1256 568 1233 563 1204 L 543 1087 L 932 1087 Z" unicode="ﬃ" />
<glyph horiz-adv-x="1884" d="M 1599 0 L 1348 0 L 1610 1495 L 1870 1536 L 1599 0 Z M 932 1087 L 954 1221 C 961 1266 972 1307 988 1345 C 1004 1382 1026 1414 1055 1440 C 1083 1466 1120 1486 1164 1500 C 1208 1514 1263 1522 1327 1522 C 1350 1522 1375 1520 1401 1516 C 1427 1512 1445 1509 1454 1507 L 1436 1325 C 1427 1327 1417 1329 1407 1331 C 1396 1333 1380 1335 1360 1335 C 1340 1335 1322 1333 1305 1331 C 1288 1328 1273 1322 1260 1313 C 1247 1304 1236 1291 1226 1274 C 1216 1256 1209 1233 1204 1204 L 1184 1087 L 1380 1087 L 1346 897 L 1149 897 L 991 0 L 739 0 L 897 897 L 508 897 L 350 0 L 98 0 L 256 897 L 74 897 L 109 1087 L 291 1087 L 313 1221 C 320 1266 331 1307 347 1345 C 363 1382 385 1414 414 1440 C 442 1466 479 1486 523 1500 C 567 1514 622 1522 686 1522 C 709 1522 734 1520 760 1516 C 786 1512 804 1509 813 1507 L 795 1325 C 786 1327 776 1329 766 1331 C 755 1333 739 1335 719 1335 C 699 1335 681 1333 664 1331 C 647 1328 632 1322 619 1313 C 606 1304 595 1291 585 1274 C 575 1256 568 1233 563 1204 L 543 1087 L 932 1087 Z" unicode="ﬄ" />
<glyph horiz-adv-x="0" d="" unicode="﻿" />
</font>
</defs>
</svg>
